#VERSION:0.83;
#TITLE:BLACK or WHITE?;
#SUBTITLE:;
#ARTIST:BlackYooh vs. siromaru;
#TITLETRANSLIT:;
#SUBTITLETRANSLIT:;
#ARTISTTRANSLIT:;
#GENRE:SYMPHONIC SPEED SCHRANZ;
#CREDIT:;
#MUSIC:BLACK or WHITE.ogg;
#BANNER:BLACK or WHITE.png;
#BACKGROUND:BLACK or WHITE-bg.png;
#CDTITLE:./CDTitles/SDVX II -infinite infection-.png;
#SAMPLESTART:53.176;
#SAMPLELENGTH:15.000;
#SELECTABLE:YES;
#OFFSET:0.000;
#BPMS:0.000=185.000
,28.000=370.000
,32.000=185.000
,35.000=370.000
,36.000=185.000
,100.000=92.500
,114.000=185.000
,149.000=370.000
,150.000=185.000
,162.000=370.000
,166.000=185.000
,178.000=370.000
,178.500=185.000
,178.750=92.500
,179.000=370.000
,179.500=185.000
,179.750=92.500
,180.000=370.000
,180.500=185.000
,180.750=92.500
,181.000=370.000
,181.500=185.000
,181.750=92.500
,182.000=185.000
,193.000=370.000
,194.000=185.000
,214.000=92.500
,228.000=185.000
,236.000=370.000
,238.000=185.000
,244.000=370.000
,246.000=185.000
,273.500=370.000
,277.500=185.000
,326.000=370.000
;
#STOPS:28.000=0.081
,28.500=0.081
,29.000=0.081
,29.500=0.081
,30.000=0.081
,30.500=0.081
,31.000=0.081
,31.500=0.081
,35.000=0.162
,149.000=0.163
,162.000=0.162
,163.000=0.162
,164.000=0.162
,165.000=0.162
,193.000=0.162
,236.000=0.243
,236.500=0.243
,237.000=0.243
,237.500=0.243
,244.000=0.055
,244.333=0.054
,244.667=0.054
,245.000=0.055
,245.333=0.054
,245.667=0.054
,262.000=0.162
,273.500=0.054
,273.833=0.054
,274.167=0.054
,274.500=0.054
,274.833=0.054
,275.167=0.054
,275.500=0.054
,275.833=0.054
,276.167=0.054
,276.500=0.054
,276.833=0.054
,277.167=0.054
,277.500=0.163
;
#TIMESIGNATURES:0.000=4=4,
114.000=2=4,
118.000=4=4,
228.000=2=4,
232.000=4=4,
236.000=2=4,
238.000=4=4,
258.000=5=4,
262.000=4=4,
275.000=3=4,
281.000=4=4
;
#DISPLAYBPM:92.500:185.000;
#BGCHANGES:;
#FGCHANGES:;

//--------------- dance-single - forcednature ----------------
#NOTEDATA:;
#STEPSTYPE:dance-single;
#DESCRIPTION:forcednature;
#CREDIT:forcednature;
#DIFFICULTY:Beginner;
#METER:7;
#RADARVALUES:0,0,0,0,0;
#NOTES:
0000
0000
0000
0000
,
0000
0000
0000
0000
,
0000
0000
0000
0000
,
0000
0000
0000
0000
,
0000
0000
0000
0000
,
1000
0000
0000
0000
,
0001
0000
0000
0000
,
0100
0000
0100
0000
,
0000
0020
0000
0030
,
1000
0000
1000
0000
,
1000
0000
0001
0000
,
0010
0000
0010
0000
,
0010
0000
0001
0000
,
0000
0100
0000
0100
,
0000
0100
0000
0000
,
0010
0000
0010
0000
,
1000
1000
1000
0000
,
0000
1001
0000
0110
,
0000
0001
0000
1000
,
0000
1001
0000
0110
,
0000
1000
0000
0000
,
0001
0000
0000
0000
,
0100
0000
0000
0000
,
0010
0000
0010
0000
,
0020
0000
0000
0000
,
1030
0000
0000
0000
,
0001
0000
0000
0000
,
0010
0000
0100
0000
,
1000
0000
0001
0000
,
0000
0000
0100
0000
,
0000
0000
0010
0000
,
0000
0000
1000
0000
,
0000
0000
0010
0000
,
0000
0000
0100
0000
,
0000
0000
0001
0000
,
0000
0000
1000
0000
,
1000
0000
0001
0000
,
0000
0000
0010
0000
,
0100
0000
0010
0000
,
0100
0000
1000
0000
,
0001
0000
0100
0100
,
0100
0100
0001
0000
,
1000
0000
0001
0000
,
1000
0000
0100
0000
,
0010
0000
0100
0100
,
0100
0100
1000
0000
,
0001
0000
0100
0000
,
0010
0000
0000
0000
,
1000
0000
0001
1000
,
0000
0000
0001
0000
,
1001
0000
1000
0000
,
1001
0000
0001
0100
,
0001
0000
1000
0100
,
1000
0000
0020
0000
,
0000
0000
0000
0000
,
0000
0000
0000
0000
,
0000
0000
0000
0000
,
0000
0000
0000
0000
,
0030
0100
0000
0100
,
0001
0001
0000
0010
,
0000
0010
1000
0000
,
0100
0100
0001
0000
,
0001
0000
1000
0000
,
1000
0000
0010
0100
,
0010
0100
0001
0001
,
1000
0000
1000
0000
0020
0030
0000
1000
,
0000
0001
0000
1000
0000
0000
0000
0100
,
0000
0010
0000
0100
0000
0000
0000
1000
,
0000
0000
0000
0001
0000
0001
0000
1000
,
0000
1000
0000
0010
0000
0000
0100
0000
,
0001
1000
0100
0010
,
0001
0100
0000
0010
,
1000
0001
1000
0100
,
0000
0010
0010
0001
,
0000
0100
0100
0001
,
0000
1000
1000
0100
,
0100
1000
0001
0100
,
0000
0010
1000
0100
,
1000
0001
0100
0001
,
0010
0000
0100
0010
0100
0000
1000
0000
,
0001
0000
0100
0010
0100
0000
0001
1000
,
0001
1000
0000
0000
2002
0000
0000
0000
,
0000
0000
0000
0000
,
0000
0000
0000
0000
,
0000
0000
0000
0000
,
0000
0000
0000
0000
,
0000
0000
0000
0000
,
0000
0000
0000
0000
,
0000
0000
0000
0000
,
3003
0000
0000
0000
;

//--------------- dance-single - forcednature ----------------
#NOTEDATA:;
#STEPSTYPE:dance-single;
#DESCRIPTION:forcednature;
#CREDIT:forcednature;
#DIFFICULTY:Easy;
#METER:11;
#RADARVALUES:0,0,0,0,0;
#NOTES:
0000
0000
0000
0000
,
0000
0000
0000
0000
,
0000
0000
0000
0000
,
0000
0000
0000
0000
,
0000
0000
0000
0000
,
2000
0000
3002
0000
,
0203
0000
0320
0000
,
1030
0001
1000
0001
1000
0001
1000
0001
,
0000
0220
0000
0330
,
0001
1000
0001
0100
,
0001
0000
1000
0000
0001
0000
0100
0010
,
0100
0001
1000
0100
,
1000
0000
0001
0000
1000
0000
0100
0020
,
0000
0031
1000
0010
,
1000
0000
0001
0000
1000
0000
0010
0100
,
0010
1000
0001
0010
,
0001
0100
0001
0100
0020
0000
0000
0000
,
1030
1100
0001
0101
,
1000
0001
1000
0000
0020
0000
0030
0000
,
0100
0011
0100
1010
,
0001
1000
0001
0000
0020
0000
0000
0000
,
0230
1000
1000
1000
,
0320
0001
0001
0001
,
0130
1000
0001
0000
0100
0001
1000
0000
,
0010
0100
0010
0100
0002
0000
2003
0000
,
3200
0000
0320
0000
,
0032
0000
2003
0000
,
3020
0230
0302
0023
,
0032
2003
3020
0000
,
0000
0000
0130
0001
,
0100
0001
0100
0000
0010
0000
1000
0000
,
0010
1000
0010
0000
0100
0000
0001
0000
,
0010
0100
0010
0000
0100
0000
1000
0000
,
0010
0100
0010
0000
1000
0100
1000
0000
,
0001
0100
0001
0000
1000
0010
1000
0000
,
0001
0010
0001
0000
0100
0010
1000
0000
,
0100
0010
0001
0000
0200
0000
0000
0000
,
0000
0000
0020
0330
1001
0000
0000
0000
,
1000
0010
0100
0001
2000
0000
3200
0000
,
0320
0032
0103
0000
,
0001
0010
0100
1000
0010
0000
1001
0000
,
0100
1001
0110
0000
,
0001
0010
0100
0010
0002
0000
0203
0000
,
0320
2030
3100
0000
,
0010
0001
0100
0001
1000
0000
0110
0000
,
0001
0110
1001
0000
,
1000
0100
1000
0001
0200
0000
0320
0000
,
2030
0000
0000
0000
3002
0000
0000
0003
0000
0000
0000
0000
0010
0000
0001
0000
,
0010
0000
0100
0000
1000
0000
0000
0000
0010
0000
0000
0010
0000
0000
0100
0000
,
0000
0100
0000
0000
0001
0000
0000
0000
1000
0000
0000
0000
0101
0000
0000
0000
,
0001
1100
1000
0110
,
0001
0000
0110
0000
2000
0000
3010
0100
,
0001
0001
0000
0000
0020
0000
0230
0000
,
1300
0010
0100
0001
0020
0000
0000
0000
,
0000
0000
0000
0000
,
0000
0000
0230
0000
,
2300
0000
3002
0000
,
0203
0000
0000
0000
,
0301
0011
1000
1010
,
0100
0110
0010
0110
0001
0000
0011
0000
,
1000
0000
1010
0000
0001
1000
0001
1000
,
0010
0000
0000
0000
0100
0000
0000
0000
0010
0000
0000
0000
0100
0000
0000
0000
0000
0000
0001
0000
0000
1000
0000
0000
,
0001
0000
0010
0000
0100
0000
1000
0001
,
1000
0000
0020
0000
1030
0100
1000
0000
,
0001
0100
0001
0000
0010
0100
0010
0100
,
1000
0001
1000
0001
0200
0300
0000
0100
,
0000
0001
0000
0000
1000
0000
0000
0000
0001
0000
0000
0010
0000
0000
0100
0000
,
0000
1000
0000
0000
0001
0000
0100
0000
0000
0000
0010
0000
1000
0000
0010
0000
,
0000
0100
0000
0002
0000
0010
0000
2003
,
0000
0000
0100
0000
0000
0000
3002
0000
0103
0000
0010
0000
1000
0000
0000
0001
,
0000
1000
0100
0010
0100
0010
0001
1000
,
0010
0000
0100
0000
0002
0000
0000
0013
0000
0001
0000
0000
0100
0000
0000
0001
,
0000
0000
0100
0000
0000
0000
0010
0000
0000
1000
0000
0000
0002
0000
0000
0013
,
0000
0100
1000
0001
0100
0001
0010
0100
,
1000
0000
0001
1000
0100
1000
0001
0100
,
0010
0000
1000
0100
1000
0010
0100
0001
,
0010
0001
0200
0000
0320
0000
2030
0000
,
3002
0000
0013
0100
0010
0001
0100
0010
,
0100
0001
1000
0100
0010
0100
1000
0010
,
0100
0010
1000
0001
0010
0100
1000
0001
,
0100
0000
0010
0010
0010
0010
2000
0000
,
3002
0003
0220
0000
,
0000
0000
0000
0000
,
0000
0000
0000
0000
,
0000
0000
0000
0000
,
0000
0000
0000
0000
,
0000
0000
0000
0000
,
0000
0000
0000
0000
,
0000
0000
0000
0000
,
0330
0000
0000
0000
;

//--------------- dance-single - forcednature ----------------
#NOTEDATA:;
#STEPSTYPE:dance-single;
#DESCRIPTION:forcednature;
#CREDIT:forcednature;
#DIFFICULTY:Medium;
#METER:15;
#RADARVALUES:0,0,0,0,0;
#NOTES:
0000
0000
0000
0000
,
0000
0000
0000
0000
,
0000
0000
0000
0000
,
0000
0000
0000
0000
,
0000
0000
0000
0000
,
2000
0000
3100
0010
0002
0000
0103
0010
,
2000
0000
3001
0010
0200
0000
2300
0000
,
3010
0100
0010
0100
0010
0100
0010
0100
,
0000
0000
0000
0000
0001
1000
0001
1000
0001
1000
0001
1000
0001
0000
0000
0000
,
1100
0000
1000
0010
0100
0001
0010
0000
,
0101
0000
0000
0000
0001
0000
0010
0000
0100
0000
1000
0000
0001
1000
0001
1000
,
0010
0000
0100
0001
0010
0001
0100
0000
,
0110
0000
0000
0000
0010
0000
1000
0000
0100
0000
1000
0001
1000
0000
0020
0000
,
0000
0030
0100
0001
0010
0100
0010
0000
,
1100
0000
0000
0000
1000
0000
0010
0000
0100
0000
0001
0000
1000
0001
1000
0001
,
0010
0000
0001
0100
1000
0000
0100
0001
,
1000
1000
1000
1000
0200
0320
0032
0000
,
1003
1000
1010
0000
0001
0001
0011
0000
,
1000
0000
0010
0000
0100
0001
0000
0100
0020
0000
0000
0000
0030
0000
0000
0000
,
0100
0001
0011
0000
0100
1000
1010
0000
,
1000
0000
0000
1000
0000
0000
0001
0000
0000
0001
0000
0000
1000
0000
0100
0000
1000
0000
0100
0000
0010
0000
0100
0000
,
0020
0001
0100
0001
,
0230
1000
0010
1000
,
0310
0001
0100
1000
0001
0010
1000
0100
,
1000
0000
0001
0010
0001
0000
0010
0100
0010
0000
0100
1000
0100
0000
0000
0000
,
1001
0000
0000
0000
0000
0000
0001
1000
0001
0000
1000
0000
0010
0000
0100
0001
,
1000
0000
0000
0000
0001
0000
0010
0100
1000
0000
0001
0000
0100
0000
0010
1000
,
0001
0000
0100
0000
0001
0010
0100
1000
0010
0000
0010
0000
1000
0100
0010
0001
,
0100
0000
0100
0000
0001
0100
0010
1000
0200
0000
0000
0000
0000
0000
0000
0000
,
0000
0000
0000
0000
0000
0000
0000
0000
0310
0000
0001
0000
0001
0000
0010
0001
,
0010
0000
0100
0000
1000
0001
0010
0000
0100
0000
0010
0000
0001
1000
0010
0000
,
0100
0100
0100
0000
0010
1000
1000
0010
,
0100
0001
1000
0000
0010
0000
0100
0000
0001
0010
0001
0000
1000
0010
1000
0000
,
0100
0000
0100
0000
0010
0000
0100
0000
1000
0000
0010
1000
0010
0000
0100
0000
,
0001
0000
0010
0001
0010
0000
0100
0000
1000
0000
0010
0100
0010
0000
1000
0000
,
0001
0000
0010
0100
0010
0000
0001
0000
0100
0000
0010
0000
1000
0001
0010
0000
,
0100
0000
0010
0000
0001
1000
0010
0000
0200
0000
0000
0000
0010
0000
0010
0000
,
0310
0000
0110
0000
1001
0000
1000
0100
,
0001
0000
0100
0000
0010
0000
0001
0000
0100
0000
0000
0100
0010
0000
0000
0010
,
1000
0000
0000
1000
0001
0000
0000
0001
0010
0000
0000
0000
0001
0000
0100
0000
,
1000
0100
0010
1000
1100
0000
0101
0000
,
0011
0000
1010
0000
1001
0000
0001
0100
,
0001
0000
0010
0000
1000
0000
0010
0000
0100
0000
0000
0100
1000
0000
0000
1000
,
0001
0000
0000
0001
0010
0000
0000
0010
0001
0000
0000
0000
1000
0000
0100
0000
,
1000
0010
0001
0010
2000
0000
3200
0000
,
0302
0000
0023
0000
1030
0000
0001
0100
,
0010
0000
0001
0000
1000
0000
0100
0000
0001
0000
0000
0001
0010
0000
0000
0010
,
0100
0000
0000
0100
1000
0000
0000
2000
0000
0000
0000
0000
3010
0000
0010
0000
,
0010
0000
0010
0000
1001
0000
0000
0000
1000
0000
1000
0010
0000
0010
0100
0000
,
0100
0001
0000
0001
0010
0000
0000
0000
0002
0000
0000
0000
1003
0100
0010
0001
,
2000
0000
0000
0000
3001
0100
0010
1000
0002
0000
0000
0000
0013
0100
1000
0001
,
0200
0000
0000
0000
0310
1000
0001
0010
0100
0000
0000
0100
1000
0000
0001
0000
,
0100
0000
0110
0000
0000
0000
0000
0000
1000
0100
1000
0000
0001
0100
0001
0000
,
0010
0100
0010
0100
0010
0000
0000
0000
2002
0000
0000
0000
0000
0000
0000
0000
,
0000
0000
0000
0000
,
3000
0000
0203
0000
,
0320
0000
2030
0000
,
0002
0000
0000
3003
,
1000
0100
0002
0000
1003
0010
0002
0000
,
0103
1001
0010
1001
0001
0100
2000
0000
,
3001
0010
2000
0000
3001
0010
0001
0010
,
0100
0000
1000
0000
0100
0000
1000
0000
0100
0000
1000
0000
0001
0000
0000
0100
0000
0000
0010
0000
0000
0100
0000
0000
,
0001
0000
0010
0000
0100
0000
0010
0000
0100
0000
1000
0001
1000
0000
0010
0000
,
0100
0000
0001
1000
0002
0000
0000
0000
0013
0000
0100
1000
0100
0000
1000
0000
,
0010
0000
0100
0001
0100
0000
0001
0000
0010
0000
0010
0000
0100
0000
0100
0000
,
1000
0001
1000
0000
0001
1000
0001
0000
0200
0000
0310
0000
1000
0001
1000
0000
,
0100
1000
0000
0100
0010
0000
0001
0000
1000
0000
0010
0100
0000
0001
0010
0000
,
0100
1000
0000
0010
0100
0000
0001
0000
1000
0100
1000
0000
0010
0000
1000
0000
,
0001
0000
0000
0100
0000
0000
0001
0000
0000
0000
0000
0000
0010
0000
0000
0000
0000
0000
0100
0000
0000
0000
1000
0000
0000
0000
0100
0000
0000
0000
0010
0000
0000
0000
0001
0000
0000
0000
0010
0000
0000
0000
0100
0000
0000
0000
1000
0000
,
0000
0000
0001
0000
0000
0000
0100
0000
0000
0000
0010
0000
0000
0000
1000
0000
0000
0000
0002
0000
0000
0000
0000
0000
0013
0000
0000
0000
0000
0000
0100
0000
0000
0010
0000
0000
0100
0000
0000
0000
0000
0000
1000
0000
0000
0010
0000
0000
,
0000
0100
0001
0000
0010
0001
0010
0000
0100
0000
0010
0100
1000
0000
0010
0100
,
0001
0000
1000
0000
0200
0000
0000
0301
0000
0100
0010
0000
0001
0010
0000
0100
,
1000
0000
0001
0100
0000
0010
1000
0000
0001
0010
0001
0010
0200
0000
0000
0000
,
1300
0000
1000
0000
0010
0000
1000
0001
1000
0000
0010
0100
0000
0100
0001
0000
,
1000
0000
0010
0000
0100
0000
0001
1000
0001
0000
0010
0100
0000
0100
1000
0000
,
0001
0000
0010
0000
0100
1000
0100
0000
1000
0010
1000
0000
0001
0010
0001
0000
,
0100
0001
0100
0000
0010
0000
1001
0000
0100
0000
1001
0000
0002
0000
0000
0000
,
2003
0000
0000
0000
3100
0000
0010
0000
0100
0000
1000
0000
0010
0000
1000
0100
,
0010
0000
0100
0010
0001
0000
0100
0000
0010
0000
0100
0000
0001
0000
0010
0100
,
1000
0000
0001
0010
0100
0000
1000
0001
1000
0001
0100
0000
0010
0000
1000
0001
,
1000
0000
0000
0001
0000
0000
0010
0000
0000
0100
0000
0000
0010
0000
0000
0000
0000
0000
0010
0000
0000
0000
0000
0000
0010
0000
0000
0000
0000
0000
0010
0000
0000
0000
0000
0000
0001
0000
0000
0000
0100
0000
0000
0000
0010
0000
0000
0000
,
1000
0100
0010
0000
0000
0000
2002
0000
0000
0000
0000
0000
,
0000
0000
0000
0000
,
0000
0000
0000
0000
,
0000
0000
0000
0000
,
0000
0000
0000
0000
,
0000
0000
0000
0000
,
0000
0000
0000
0000
,
0000
0000
0000
0000
,
3003
0000
0000
0000
;

//--------------- dance-single - forcednature ----------------
#NOTEDATA:;
#STEPSTYPE:dance-single;
#DESCRIPTION:forcednature;
#CREDIT:forcednature;
#DIFFICULTY:Hard;
#METER:18;
#RADARVALUES:0,0,0,0,0;
#NOTES:
0000
0000
0000
0000
,
0000
0000
0000
0000
,
0000
0000
0000
0000
,
0000
0000
0000
0000
,
0000
0000
0000
0000
,
1000
0100
1000
0000
0001
0000
0010
0000
0001
0100
0001
0000
1000
0000
0010
0000
,
0100
0010
0100
0000
0001
0000
1000
0000
0100
0010
0100
0000
0010
0000
0001
0000
,
1000
1010
0001
0011
1000
1100
0001
0101
,
0000
0000
0000
0000
0010
0100
0010
0100
0010
0100
0010
0100
0010
0000
0000
0000
,
1001
0000
0000
1000
0100
0000
0000
1000
0010
0000
0000
0001
0100
0000
0000
0001
,
0010
0000
0000
1000
0100
0000
0000
1000
0010
0000
0000
1000
0100
0010
0001
0100
,
0010
0000
0000
0001
0100
0000
0000
0001
0010
0000
0000
1000
0100
0000
0000
1000
,
0010
0000
0000
0001
1000
0000
0000
1000
0010
0000
0010
0100
0001
1000
0020
0000
,
0000
0000
0030
0000
1001
0000
0000
1000
0100
0000
0000
1000
0010
0000
0000
0001
,
0100
0000
0000
0001
0010
0000
0000
1000
0100
0000
0000
1000
0010
1000
0100
0010
,
0001
0000
0000
0001
0100
0010
0100
0001
1000
0000
0000
1000
0100
0010
0100
1000
,
0001
0100
0010
0100
0001
0100
0010
0100
0002
0000
0000
0000
2003
0000
0000
0000
,
3001
0010
0100
1000
0002
0000
0000
0000
1003
0010
0100
0001
2000
0000
0000
0000
,
3100
0000
0010
0100
0000
0110
0000
0010
0001
0000
0000
0000
2000
0000
0000
0000
,
3001
0010
0100
1000
0020
0000
0000
0000
1030
0100
0010
0001
0200
0000
0000
0000
,
0310
0000
0000
0000
0000
0000
1000
0000
0000
0001
0000
0000
0010
0000
0000
0000
0000
0000
0001
0000
0000
1000
0000
0000
0010
0000
0000
0000
0100
0000
0000
0000
0001
0000
0000
0000
0010
0000
0000
0000
0100
0000
0000
0000
1000
0000
0000
0000
,
0010
0101
1001
0011
,
1000
0100
0001
0100
1000
0010
0001
0010
,
2000
0100
3002
0100
2003
0010
3002
0010
,
1003
0100
1000
0001
0010
0100
0010
0001
1000
0010
0100
0010
1000
0010
0100
0010
,
0001
0000
0000
0000
0000
0000
0001
0010
1000
0000
0100
0000
1000
0000
0001
0000
,
0100
0000
0001
0000
0010
0000
0001
1000
0010
0100
0001
1000
0010
0000
0100
0000
,
0001
0010
0100
1000
0100
0010
0001
0000
1000
0010
0100
0001
0100
0010
1000
0000
,
0100
1000
0100
0000
0010
0000
0001
0000
0100
0000
0010
0000
1000
0000
0001
0000
0020
0000
0000
0000
0000
0000
0000
0000
0000
0000
0000
0000
0000
0000
0000
0000
,
0000
0000
0000
0000
0000
0000
0000
0000
0130
0000
1000
0100
0010
0000
0100
0010
,
0001
0010
0100
0000
1000
0001
0010
0000
0001
0100
0010
0100
0001
1000
0010
1000
,
0001
0000
0100
0001
0010
0000
0100
0000
1000
0000
0001
0100
0010
0000
0100
0010
,
1000
0001
0100
0000
0010
1000
0001
0000
1000
0100
1000
0100
0010
0001
0010
0001
,
0100
0010
1000
0001
0100
0000
0001
0000
0010
0000
0100
0000
1000
0001
0100
0001
,
1000
0010
0100
0010
1000
0000
0001
0000
0010
0100
1000
0100
0010
0001
1000
0010
,
0100
0000
0001
0000
0010
0000
0001
0000
1000
0100
0010
0000
0001
0100
0010
0000
,
1000
0001
0010
0001
1000
0010
1000
0100
0020
0000
0000
0000
1000
0000
0100
0000
,
0031
0000
0000
0000
1001
0000
0000
0000
1000
0000
0001
0100
0010
0100
0001
1000
,
0002
0000
0010
0000
2003
0000
0010
0000
3001
0000
0001
0100
0010
0000
0010
1000
,
0001
0000
0001
0010
0100
0000
0100
1000
0010
0000
1000
0100
1000
0001
1000
0100
,
0020
0001
0230
1300
1010
0000
0011
0000
,
0101
0000
0000
0000
1100
0000
0000
0000
0001
0000
0100
0010
0100
0001
0010
0001
,
2000
0000
0100
0000
3002
0000
0100
0000
0013
0000
0010
0100
1000
0000
1000
0100
,
0001
0000
0001
0100
0010
0000
0010
0001
1000
0000
0001
0100
0010
1000
0010
0100
,
0002
0010
2003
3010
0101
0000
1100
0000
,
0011
0000
0000
0000
1010
0000
0000
0000
1000
0000
0100
0010
0100
1000
0010
0100
,
0002
0000
0010
0000
2003
0000
0010
0000
3001
0000
0001
0100
0010
0000
1000
0001
,
0010
0000
0010
0100
1000
0000
0001
0200
0000
0000
0300
0000
0110
0000
0110
0000
,
0110
0000
0110
0000
1001
0000
0000
0000
1000
0000
0100
0001
0000
0100
1000
0000
,
0001
0100
0000
0010
1000
0001
1000
0100
0020
0000
0000
0000
1030
0010
0001
1000
,
0020
0000
0000
0000
0031
0010
1000
0001
0200
0000
0000
0000
1300
0100
0001
1000
,
0200
0000
0000
0000
0301
0100
1000
0001
0010
0000
0010
0100
1000
0001
0100
0000
,
0110
0000
0110
0000
0000
0010
1000
0001
1000
0100
0010
0000
0001
0100
0010
0000
,
1000
0001
0010
0100
1000
0100
0010
0001
0200
0000
0000
0000
0000
0000
0000
0000
,
0320
0000
2030
0000
,
3002
0000
0023
0000
,
0230
0000
2300
0000
,
0002
0000
0000
3003
,
1000
0100
0010
0100
2000
0000
0000
0000
3001
0100
0010
0100
0002
0000
0000
0000
,
0023
0000
0000
0030
0000
0000
0202
0000
0300
0003
0000
0000
2200
0000
3000
0300
0000
0000
2020
0000
0000
3030
0000
0000
1000
0000
0000
0100
0000
0000
0001
0000
0000
0100
0000
0000
2000
0000
0000
0000
0000
0000
0000
0000
0000
0000
0000
0000
,
3001
0100
1000
0100
0002
0000
0000
0000
0013
0000
0100
1000
0100
0000
0010
0000
,
0001
0000
0000
0000
0100
0000
0000
0000
0001
0000
0000
0000
1000
0000
0000
0000
0100
0000
0000
0000
1000
0000
0000
0000
0010
0000
0000
0000
0000
0000
0100
0000
0000
0010
0000
0000
1000
0000
0000
0000
0000
0000
0010
0000
0000
0100
0000
0000
,
0001
0000
0001
0010
0100
1000
0001
0000
1000
0010
0100
0010
1000
0001
0100
0001
,
1000
0000
0100
0010
0002
0000
0000
0000
0103
0010
1000
0010
0100
0001
0100
0010
,
1000
0000
0001
0010
0100
0000
1000
0020
0100
0000
0100
0000
0100
0000
0100
0000
,
0130
0010
1000
0001
1000
0100
0010
0001
0200
0000
1300
0000
0100
0001
1000
0000
,
1000
0100
0000
0010
0100
0000
1000
0001
0010
0001
1000
0010
0000
0001
0010
0000
,
0100
0001
0000
0010
0100
0000
1000
0100
1000
0010
0100
0001
1000
0001
0010
0000
,
0100
0000
0000
1000
0000
0000
0001
0000
0000
0100
0000
0000
0010
0000
0000
1000
0000
0000
0001
0000
0000
0000
0010
0000
0000
0000
0001
0000
0000
0000
1000
0000
0000
0000
0010
0000
0000
0000
1000
0000
0000
0000
0001
0000
0000
0000
0100
0000
,
0000
0000
1000
0000
0000
0000
0001
0000
0000
0000
0010
0000
0000
0000
1000
0000
0000
0000
0002
0000
0000
0003
0000
0000
0010
0000
0000
0000
0000
0000
0100
0000
0000
1000
0000
0000
0001
0000
0000
0000
0000
0000
0010
0000
0000
0100
0000
0000
,
0000
0001
0100
0000
1000
0001
0100
0001
1000
0100
1000
0010
0100
0001
0010
0100
,
1000
0100
0010
0001
0200
0000
0000
1300
0000
1000
0100
0000
0100
0001
0000
0001
,
0010
0000
0010
0100
0000
0100
1000
0010
0100
0001
0010
0100
2000
0000
0000
0000
,
3010
0100
0010
0100
0001
0000
0010
0001
1000
0000
0010
0100
0001
0010
0001
0100
,
0010
0000
1000
0100
0010
0000
0001
1000
0010
0000
1000
0100
0010
0100
1000
0010
,
0100
0000
0001
0000
1000
0100
1000
0001
0010
0100
0010
0001
1000
0010
0100
0010
,
1000
0001
0100
0001
1000
0000
1100
0000
0001
0000
0101
0000
0010
0000
0000
0000
,
1001
0000
0000
0000
1000
0010
0100
0010
1000
0001
0100
0001
1000
0010
0001
0000
,
0001
0010
1000
0000
0001
0010
0100
0010
0001
1000
0100
1000
0001
0010
1000
0000
,
1000
0010
0001
0000
0100
0010
1000
0100
1000
0010
0100
0001
0010
0001
0100
0010
,
1000
0000
0000
0100
0000
0000
0010
0000
0000
0001
0000
0000
0100
0000
0000
0010
0000
0000
0100
0000
0000
0010
0000
0000
0100
0000
0000
0010
0000
0000
0100
0000
0000
0010
0000
0000
1000
0000
0000
0000
1000
0000
0000
0000
1000
0000
0000
0000
,
0001
0001
0001
0000
0000
0000
2002
0000
0000
0000
0000
0000
,
0000
0000
0000
0000
,
0000
0000
0000
0000
,
0000
0000
0000
0000
,
0000
0000
0000
0000
,
0000
0000
0000
0000
,
0000
0000
0000
0000
,
0000
0000
0000
0000
,
3003
0000
0000
0000
;

//--------------- dance-double - forcednature ----------------
#NOTEDATA:;
#STEPSTYPE:dance-double;
#DESCRIPTION:forcednature;
#CREDIT:forcednature;
#DIFFICULTY:Easy;
#METER:11;
#RADARVALUES:0,0,0,0,0;
#NOTES:
00000000
00000000
00000000
00000000
,
00000000
00000000
00000000
00000000
,
00000000
00000000
00000000
00000000
,
00000000
00000000
00000000
00000000
,
00000000
00000000
00000000
00000000
,
00002000
00000000
00023000
00000000
,
00030200
00000000
00002300
00000000
,
00003001
00001000
00000001
00001000
00000001
00001000
00000001
00001000
,
00000000
00022000
00000000
00033000
,
00000010
00001000
00000100
00000100
,
00010000
00000000
00010000
00000000
00001000
00000000
01000000
00001000
,
01000000
01000000
00010000
00010000
,
10000000
00000000
10000000
00000000
01000000
00000000
00100000
00020000
,
00000000
01030000
00001000
00001000
,
00010000
00000000
00010000
00000000
00000100
00000000
00001000
00000100
,
00001000
00001000
00000001
00000001
,
00000100
00000010
00000100
00000010
00002000
00000000
00000000
00000000
,
00003100
00010100
00010000
00010100
,
00010000
00001000
00010000
00000000
00002000
00000000
00003000
00000000
,
01000000
01010000
00010000
01010000
,
00001000
00010000
00001000
00000000
00020000
00000000
00000000
00000000
,
00030020
00001000
00001000
00001000
,
00000230
00000001
00000001
00000001
,
00000310
00000000
00010000
00000000
00001000
01000000
00010000
00000000
,
10000000
00010000
10000000
00010000
00200000
00000000
02300000
00000000
,
23000000
00000000
30020000
00000000
,
02030000
00000000
03002000
00000000
,
00023000
00030200
00002300
00003020
,
00020030
00032000
00203000
00000000
,
00000000
00000000
01300000
10000000
,
01000000
10000000
01000000
00000000
00100000
00000000
00010000
00000000
,
00100000
00010000
00100000
00000000
00001000
00000000
00010000
00000000
,
00001000
00010000
00001000
00000000
00000100
00000000
00000010
00000000
,
00000100
00000010
00000100
00000000
00000001
00001000
00000001
00000000
,
00000010
00000100
00000010
00000000
00000100
00001000
00000100
00000000
,
00010000
00001000
00010000
00000000
00001000
01000000
00010000
00000000
,
10000000
00010000
00100000
00000000
02000000
00000000
00000000
00000000
,
00000000
00000000
00200000
03300000
10010000
00000000
00000000
00000000
,
10000000
00010000
01000000
00001000
00020000
00000000
00030200
00000000
,
00002300
00003002
00000013
00000000
,
00000001
00000100
00000001
00001000
00000010
00000000
00011000
00000000
,
00100000
00011000
01001000
00000000
,
01000000
00010000
00100000
01000000
20000000
00000000
30020000
00000000
,
02030000
03002000
00013000
00000000
,
00000100
00001000
00000100
00000010
00000002
00000000
00000203
00000000
,
00002300
00023000
00130000
00000000
,
00010000
00001000
01000000
00010000
20000000
00000000
32000000
00000000
,
03200000
00000000
00000000
00000000
00320000
00000000
00000000
00030000
00000000
00000000
00000000
00000000
01000000
00000000
00000000
00000000
,
01000000
00000000
00000000
00000000
00011000
00000000
00000000
00000000
00010000
00000000
00000000
00010000
00000000
00000000
00000100
00000000
,
00000000
00000100
00000000
00000000
00002000
00000000
00000000
00000000
00003010
00000000
00000000
00000000
00011000
00000000
00000000
00000000
,
00100000
00011000
00000100
00011000
,
01000000
00000000
00011000
00000000
00000200
00000000
00001300
00000001
,
00000100
00000100
00000000
00000000
00000020
00000000
00020030
00000000
,
00031000
01000000
00010000
01000000
00200000
00000000
00000000
00000000
,
00000000
00000000
00000000
00000000
,
00000000
00000000
02300000
00000000
,
23000000
00000000
32000000
00000000
,
03020000
00000000
00000000
00030000
,
00000000
00101000
00000000
00010010
,
00010000
00000100
00100000
00001000
00000000
00000000
00010100
00000000
,
00000000
00000000
01001000
00000000
00010000
00001000
00010000
00001000
,
00100000
00000000
00000000
00000000
00100000
00000000
00000000
00000000
00100000
00000000
00000000
00000000
00010000
00000000
00000000
00000000
00000000
00000000
00010000
00000000
00000000
10000000
00000000
00000000
,
00010000
00000000
00100000
00000000
01000000
00000000
01000000
10000000
,
01000000
00000000
00010000
00000000
00001000
01000000
00001000
00000000
,
00010000
00000100
00010000
00000000
00000010
00001000
00000010
00001000
,
00000001
00000010
00000001
00000020
00000000
00000130
00001000
00000100
,
00000000
00010000
00000000
00000000
00001000
00000000
00000000
00000000
01000000
00000000
00000000
00010000
00000000
00000000
01000000
00000000
,
00000000
00100000
00000000
00000000
10000000
00000000
01000000
00000000
00000000
00000000
00010000
00000000
00001000
00000000
00010000
00000000
,
00000000
00000010
00000000
00002000
00000000
00000000
00000000
00003002
,
00000000
00000000
00000000
00000000
00000000
00000000
00000023
00000000
00000130
00000000
00010000
00000000
00001000
00000000
00000000
00100000
,
00000000
00001000
00010000
00000010
00010000
00000010
00010000
00001000
,
01000000
00000000
00010000
00000000
00200000
00000000
00000000
01300000
00000000
00100000
00000000
00000000
00010000
00000000
00000000
10000000
,
00000000
00000000
00010000
00000000
00000000
00000000
01000000
00000000
00000000
00001000
00000000
00000000
00020000
00000000
00000000
00030010
,
00000000
00010000
00001000
00100000
00001000
00010000
00000100
00010000
,
00001000
00000000
01000000
00001000
00010000
00000100
00010000
00001000
,
00100000
00000000
01000000
10000000
01000000
00100000
00001000
00010000
,
00000010
00001000
00000002
00000000
00000023
00000000
00000230
00000000
,
00002300
00000000
00003010
00001000
00000010
00010000
00001000
00010000
,
00100000
01000000
00100000
10000000
00010000
10000000
01000000
00100000
,
01000000
10000000
00010000
01000000
00001000
00010000
00000010
00001000
,
00000001
00000000
00000010
00000010
00000010
00000010
00000200
00000000
,
00020300
00030000
00022000
00000000
,
00000000
00000000
00000000
00000000
,
00000000
00000000
00000000
00000000
,
00000000
00000000
00000000
00000000
,
00000000
00000000
00000000
00000000
,
00000000
00000000
00000000
00000000
,
00000000
00000000
00000000
00000000
,
00000000
00000000
00000000
00000000
,
00033000
00000000
00000000
00000000
;

//--------------- dance-double - forcednature ----------------
#NOTEDATA:;
#STEPSTYPE:dance-double;
#DESCRIPTION:forcednature;
#CREDIT:forcednature;
#DIFFICULTY:Medium;
#METER:15;
#RADARVALUES:0,0,0,0,0;
#NOTES:
00000000
00000000
00000000
00000000
,
00000000
00000000
00000000
00000000
,
00000000
00000000
00000000
00000000
,
00000000
00000000
00000000
00000000
,
00000000
00000000
00000000
00000000
,
00002000
00000000
01003000
00001000
00020000
00000000
00030100
00010000
,
00002000
00000000
00103000
00001000
00020000
00000000
00030020
00000000
,
00000130
00001000
00000100
00001000
00000100
00000001
00000100
00000001
,
00000000
00000000
00000000
00000000
00000010
00000100
00000010
00000100
00000010
00000100
00000010
00000100
00000020
00000000
00000000
00000000
,
00000031
00000101
00001000
00001010
,
00010000
00000000
00000000
00000000
00011000
00000000
00000000
00000000
00100000
00000000
00000000
00000000
00010000
10000000
00010000
10000000
,
00100000
10100000
00010000
01010000
,
00001000
00000000
00000000
00000000
00011000
00000000
00000000
00000000
00000010
00000000
00001000
00000001
00001000
00000000
00000200
00000000
,
00000000
00000300
00011000
00000000
00100000
00000000
00011000
00000000
,
00000010
00000000
00000000
00000000
00011000
00000000
00000000
00000000
01000000
00000000
00000000
00000000
00010000
10000000
00010000
10000000
,
01000000
00110000
00001000
00010100
,
00000001
00000000
00000001
00000000
00000001
00000000
00000001
00000000
00000100
00000010
00000100
00000010
00002000
00000000
00000000
00000000
,
00003100
00010000
00012000
00000000
01003000
00001000
00021000
00000000
,
00130000
00000000
10000000
00000000
01000000
10000000
00000000
01000000
00020000
00000000
00000000
00000000
00030000
00000000
00000000
00000000
,
00001000
00100000
00120000
00000000
01030000
00001000
00021000
00000000
,
00030010
00000000
00000000
00000010
00000000
00000000
00001000
00000000
00000000
00001000
00000000
00000000
00000100
00000000
00010000
00000000
00001000
00000000
00100000
00000000
00001000
00000000
00010000
00000000
,
00000020
00001000
00000100
00001000
,
00020030
00001000
00000100
00001000
,
00130000
01000000
00010000
00100000
01000000
00100000
00001000
00010000
,
00000100
00000000
00001000
00000010
00001000
00000000
00000100
00000000
00010000
00000000
00001000
01000000
00001000
00000000
00010000
00000000
,
00010010
00000000
00000000
00000000
00000010
00000000
00000100
00000001
00001000
00000000
00000100
00000000
00010000
00000000
00001000
00100000
,
00010000
00000000
00000000
00000000
10000000
00000000
00100000
01000000
00010000
00000000
01000000
00000000
00001000
00000000
00010000
00000100
,
00001000
00000000
00000010
00000000
00010000
00001000
00100000
00001000
00010000
00000000
00100000
00000000
01000000
00010000
10000000
00010000
,
00100000
00000000
01000000
00000000
00010000
00001000
00000010
00000100
00002000
00000000
00000000
00000000
00000000
00000000
00000000
00000000
,
00000000
00000000
00000000
00000000
00000000
00000000
00000000
00000000
00003001
00000000
00000100
00000000
00000100
00000000
00000001
00000100
,
00001000
00000000
00010000
00000000
00001000
00010000
00001000
00000000
00010000
00000000
00100000
00000000
10000000
00100000
10000000
00000000
,
01000000
01000000
01000000
00000000
10000000
01000000
01000000
10000000
,
01000000
00010000
00001000
00000000
00100000
00000000
00001000
00000000
00010000
00000100
00010000
00000000
00001000
01000000
00001000
00000000
,
00010000
00000000
00010000
00000000
00000010
00000000
00010000
00000000
00001000
00000000
00100000
00010000
00100000
00000000
00001000
00000000
,
00010000
00000000
00000010
00001000
00000010
00000000
00010000
00000000
00001000
00000000
01000000
00010000
01000000
00000000
00001000
00000000
,
00010000
00000000
00000100
00001000
00000100
00000000
00010000
00000000
00001000
00000000
00100000
00000000
00010000
01000000
00001000
00000000
,
00010000
00000000
00000010
00000000
00001000
00000100
00010000
00000000
00002000
00000000
00000000
00000000
01000000
00000000
01000000
00000000
,
01003000
00000000
00011000
00000000
00001000
00000000
00100000
01000000
,
00010000
00000000
01000000
00000000
00100000
00000000
00001000
00000000
00010000
00000000
00000000
00010000
00000010
00000000
00000000
00000010
,
00001000
00000000
00000000
00001000
00000001
00000000
00000000
00000001
00000010
00000000
00000000
00000000
00000100
00000000
00010000
00000000
,
00001000
01000000
00010000
00100000
01100000
00000000
00101000
00000000
,
00010010
00000000
00000110
00000000
00001001
00000000
00001000
00000100
,
00010000
00000000
00000010
00000000
00010000
00000000
00001000
00000000
00100000
00000000
00000000
00100000
01000000
00000000
00000000
01000000
,
10000000
00000000
00000000
10000000
00010000
00000000
00000000
00010000
01000000
00000000
00000000
00000000
00001000
00000000
00010000
00000000
,
00001000
00000010
00000100
00000010
00000002
00000000
00002003
00000000
,
00023000
00000000
20030000
00000000
30100000
00000000
10000000
01000000
,
00010000
00000000
00001000
00000000
00010000
00000000
00000010
00000000
00001000
00000000
00000000
00001000
00000100
00000000
00000000
00000100
,
00000010
00000000
00000000
00000010
00000001
00000000
00000000
00000002
00000000
00000000
00000003
00000000
00000100
00000000
00000100
00000000
,
00000100
00000000
00000100
00000000
00000010
00000000
00000000
00000000
00001000
00000000
00000000
00001100
00000000
00000000
00010100
00000000
,
00000000
00011000
00000000
00000000
00101000
00000000
00000000
00000000
00100000
00000000
00010000
10000000
00200000
00000000
00000000
00000000
,
01300000
00000000
00001000
00010000
00000020
00000000
00000000
00000000
00001030
00000000
00000100
00000010
00000002
00000000
00000000
00000000
,
00001003
00000000
00000010
00010000
00002000
00000000
00000000
00000000
00103000
00000000
00000000
00100000
00010000
00000000
01000000
00000000
,
00100000
00000000
00100000
00000000
00000000
00000000
00000000
00000000
10000000
01000000
10000000
00000000
00010000
01000000
00010000
00000000
,
00100000
00001000
00010000
00000100
00000220
00000000
00000000
00000000
,
00000000
00000000
00000000
00000000
,
00000300
00000000
00000002
00000030
,
00000200
00000003
00002000
00000300
,
00020000
00000000
00000000
00033000
,
01000000
00001000
00020000
00000000
00030100
00010000
00002000
00000000
,
00013000
00010100
00001000
01001000
00001000
00100000
02000000
00000000
,
03010000
00000010
00000200
00000000
00001300
00010000
00001000
00010000
,
00100000
00000000
01000000
00000000
00100000
00000000
01000000
00000000
00100000
00000000
01000000
00000000
00010000
00000000
00000000
10000000
00000000
00000000
00100000
00000000
00000000
10000000
00000000
00000000
,
00010000
00000000
00100000
00000000
01000000
00000000
00100000
00000000
00001000
00000000
00010000
00001000
00010000
00000000
00001000
00000000
,
00000010
00000000
00000100
00000010
00000200
00000000
00001300
00000000
00000001
00000000
00000100
00000010
00000100
00000000
00000001
00000000
,
00001000
00000000
00000100
00000010
00000100
00000000
00001000
00000000
00000010
00000000
00010000
00000000
00001000
00000000
01000000
00000000
,
00010000
10000000
00010000
00000000
10000000
00010000
10000000
00000000
02000000
00000000
03010000
00000000
00001000
00010000
00001000
00000000
,
00100000
00010000
00000000
00100000
01000000
00000000
10000000
00000000
00100000
00000000
01000000
00001000
00000000
00010000
00001000
00000000
,
00010000
00000010
00000000
00000100
00000010
00000000
00001000
00000000
00000100
00000010
00000100
00000000
00001000
00000000
00000001
00000000
,
00000100
00000000
00000000
00000010
00000000
00000000
00000100
00000000
00000000
00000000
00000000
00000000
00000001
00000000
00000000
00000000
00000000
00000000
00000010
00000000
00000000
00000000
00000100
00000000
00000000
00000000
00010000
00000000
00000000
00000000
00001000
00000000
00000000
00000000
00100000
00000000
00000000
00000000
01000000
00000000
00000000
00000000
00100000
00000000
00000000
00000000
00001000
00000000
,
00000000
00000000
00010000
00000000
00000000
00000000
00000010
00000000
00000000
00000000
00001000
00000000
00000000
00000000
00000001
00000000
00000000
00000000
00000020
00000000
00000000
00000000
00000000
00000000
00000130
00000000
00000000
00000000
00000000
00000000
00010000
00000000
00000000
00001000
00000000
00000000
00010000
00000000
00000000
00000000
00000000
00000000
00000010
00000000
00000000
00001000
00000000
00000000
,
00000000
00000010
00010000
00000000
00001000
00100000
00001000
00000000
00010000
00000000
00100000
01000000
00010000
00000000
10000000
01000000
,
00010000
00000000
00001000
00000000
00200000
00000000
00000000
01300000
00000000
00100000
00010000
00000000
00010000
00001000
00000000
00001000
,
00000100
00000000
00000100
00000010
00000000
00000010
00000001
00000000
00000100
00000001
00000100
00000001
00002000
00000000
00000000
00000010
,
00000000
00000000
00003001
00000000
00001000
00000000
00000100
00010000
00000100
00000000
00010000
00001000
00000000
00001000
01000000
00000000
,
00010000
00000000
10000000
00000000
00100000
00000000
01000000
00010000
01000000
00000000
00001000
00010000
00000000
00010000
00000100
00000000
,
00001000
00000000
00000010
00000000
00000100
00000001
00000100
00000000
00000001
00000010
00000001
00000000
00001000
00000010
00001000
00000000
,
00000100
00001000
00000100
00000000
00010000
00000000
00011000
00000000
00001000
00000000
00011000
00000000
00020000
00000000
00000000
00000000
,
00230000
00000000
00000000
00000000
10300000
00000000
01000000
00000000
00100000
00000000
01000000
00000000
10000000
00000000
00010000
00100000
,
01000000
00000000
00100000
00001000
00010000
00000000
00000010
00000000
00000100
00000000
00000010
00000000
00001000
00000000
00000100
00000010
,
00000001
00000000
00000010
00000100
00001000
00000000
00000010
00001000
00000010
00000000
00010000
00001000
00010000
00000000
00000100
00001000
,
00000100
00000000
00000000
00000000
00000000
00000000
00010000
00000000
00000000
00000000
00000000
00000000
00001000
00000000
00000000
01000000
00000000
00000000
00001000
00000000
00000000
00000000
00000000
00000000
01000000
00000000
00000000
00010000
00000000
00000000
01000000
00000000
00000000
00000000
00000000
00000000
00100000
00000000
00000000
00000000
10000000
00000000
00000000
00000000
01000000
00000000
00000000
00000000
,
00100000
00001000
00010000
00000000
00000000
00000000
00022000
00000000
00000000
00000000
00000000
00000000
,
00000000
00000000
00000000
00000000
,
00000000
00000000
00000000
00000000
,
00000000
00000000
00000000
00000000
,
00000000
00000000
00000000
00000000
,
00000000
00000000
00000000
00000000
,
00000000
00000000
00000000
00000000
,
00000000
00000000
00000000
00000000
,
00033000
00000000
00000000
00000000
;

//--------------- dance-double - forcednature ----------------
#NOTEDATA:;
#STEPSTYPE:dance-double;
#DESCRIPTION:forcednature;
#CREDIT:forcednature;
#DIFFICULTY:Hard;
#METER:18;
#RADARVALUES:0,0,0,0,0;
#NOTES:
00000000
00000000
00000000
00000000
,
00000000
00000000
00000000
00000000
,
00000000
00000000
00000000
00000000
,
00000000
00000000
00000000
00000000
,
00000000
00000000
00000000
00000000
,
00002000
00000000
01000000
00000000
00013000
00001000
00100000
00000000
,
00020000
00000000
00000100
00000000
00031000
00010000
00000010
00000000
,
00000100
00001000
00010000
00001000
01000000
00001000
00010000
00001000
,
00000000
00000000
00000000
00000000
00100000
01000000
00100000
01000000
00100000
01000000
00100000
01000000
00200000
00000000
00000000
00000000
,
00310000
00000000
00000000
00010000
01000000
00000000
00000000
00001000
00010000
00000000
00000000
00000010
00001000
00000000
00000000
00000001
,
00000010
00000000
00000000
00000100
00000010
00000000
00000000
00000100
00010000
00000000
00000000
00001000
00010000
00001000
00010000
00001000
,
01000000
00000000
00000000
01000000
00010000
00000000
00000000
10000000
00100000
00000000
00000000
10000000
01000000
00000000
00000000
00100000
,
00010000
00000000
00000000
01000000
00001000
00000000
00000000
00010000
00000010
00000000
00000010
00001000
00000001
00000100
00000020
00000000
,
00000000
00000000
00000030
00000000
00001001
00000000
00000000
00001000
00000100
00000000
00000000
00010000
00001000
00000000
00000000
00100000
,
00010000
00000000
00000000
00100000
01000000
00000000
00000000
10000000
01000000
00000000
00000000
00100000
00010000
00100000
00010000
00100000
,
01000000
00000000
10000000
00010000
00000000
01000000
00001000
00000000
00010000
00000000
00000100
00001000
00000000
00000001
00000100
00000000
,
00000010
00001000
00000010
00010000
00000010
00001000
00000010
00010000
00002000
00000000
00000000
00000000
00203000
00000000
00000000
00000000
,
01300000
00000000
00010000
00001000
00020000
00000000
00000000
00000000
00130000
00000000
00010000
00001000
00020000
00000000
00000000
00000000
,
00030010
00000000
00001000
00000100
00000000
00000110
00000000
00000010
00000002
00000000
00000000
00000000
00000203
00000000
00000000
00000000
,
00000310
00000000
00010000
00001000
00020000
00000000
00000000
00000000
00030100
00000000
00010000
00001000
00020000
00000000
00000000
00000000
,
00130000
00000000
00000000
00000000
00000000
00000000
01000000
00000000
00000000
00010000
00000000
00000000
10000000
00000000
00000000
00000000
00000000
00000000
01000000
00000000
00000000
00000000
00000000
00000000
00100000
00000000
00000000
00000000
00001000
00000000
00000000
00000000
00010000
00000000
00000000
00000000
00000100
00000000
00000000
00000000
00010000
00000000
00000000
00000000
00001000
00000000
00000000
00000000
,
00100000
01100000
01010000
00011000
,
00001000
00000010
00000001
00000100
00000001
00000010
00001000
00010000
,
00000200
00010000
02000300
00010000
03000200
00001000
02000300
00001000
,
03001000
00010000
00001000
00010000
00000100
00001000
00000100
00001000
00000010
00000100
00000010
00000100
00000010
00000100
00000010
00000100
,
00000001
00000000
00000000
00000000
00000010
00000000
00000100
00010000
00001000
00100000
00001000
00010000
00100000
00000000
01000000
00000000
,
00010000
00000000
10000000
00000000
01000000
00000000
00010000
00001000
00100000
00001000
00010000
00000010
00010000
00000000
00001000
00000000
,
00000010
00000001
00000100
00001000
00000100
00000001
00000010
00000000
00000100
00010000
00001000
00100000
00001000
00010000
00000100
00000000
,
00010000
00001000
00010000
00000000
00100000
00000000
01000000
00000000
00100000
00000000
10000000
00000000
01000000
00000000
00010000
00000000
00002000
00000000
00000000
00000000
00000000
00000000
00000000
00000000
00000000
00000000
00000000
00000000
00000000
00000000
00000000
00000000
,
00000000
00000000
00000000
00000000
00000000
00000000
00000000
00000000
00103000
00000000
00010000
10000000
00100000
00000000
01000000
00001000
,
00000000
00010000
00001000
00000000
00100000
00000000
00010000
00000000
01000000
00000000
00001000
00010000
00000100
00000000
00010000
00000010
,
00001000
00000000
00000100
00010000
00001000
00000000
00000010
00000000
00000100
00000000
00001000
00000001
00000100
00000000
00000010
00001000
,
00000000
00000010
00010000
00000000
00001000
00000000
00100000
00000000
01000000
10000000
01000000
10000000
00010000
00100000
00010000
00100000
,
00001000
00000000
00010000
00001000
01000000
00000000
00000000
00000000
00100000
00000000
10000000
00000000
01000000
00100000
00010000
00100000
,
01000000
10000000
00010000
10000000
00100000
00000000
00000000
00000000
01000000
00000000
00001000
00000000
00010000
00000010
00001000
00000010
,
00000100
00000001
00001000
00000001
00000010
00000000
00000000
00000000
00000100
00001000
00000100
00000000
00010000
00001000
00010000
00000000
,
00001000
01000000
00010000
01000000
00001000
00100000
00010000
00100000
02000000
00000000
00000000
00000000
00100000
00000000
00100000
00000000
,
03100000
00000000
00000000
00000000
00011000
00000000
00000000
00000000
00000100
00000000
00001000
00000010
00000100
00000010
00001000
00000001
,
00000020
00000000
00000100
00000000
00000032
00000000
00000100
00000000
00000013
00000000
00000100
00010000
00001000
00000000
00100000
00001000
,
00010000
00000000
00100000
01000000
00010000
00000000
10000000
01000000
00100000
00000000
00010000
01000000
00001000
00010000
00001000
00100000
,
00020000
01000000
20030000
31000000
10100000
00000000
01001000
00000000
,
00010100
00000000
00000000
00000000
00000011
00000000
00000000
00000000
00000001
00000000
00000100
00000010
00000100
00000001
00000010
00000100
,
00002000
00000000
00000010
00000000
00003200
00000000
00000010
00000000
00010300
00000000
00001000
01000000
00010000
00000000
00100000
01000000
,
10000000
00000000
00010000
01000000
00001000
00000000
00010000
00000100
00001000
00000000
00000010
00000100
00000001
00000010
00000100
00000010
,
00000002
00000100
00002003
00003100
00000011
00000000
00010100
00000000
,
01001000
00000000
00000000
00000000
10100000
00000000
00000000
00000000
10000000
00000000
01000000
00100000
00010000
01000000
00100000
01000000
,
00002000
00000000
00010000
00000000
00203000
00000000
00010000
00000000
00301000
00000000
00010000
00000010
00001000
00000000
00000100
00010000
,
00001000
00000000
01000000
00010000
00100000
00000000
01000000
20000000
00000000
00000000
30000000
00000000
00100000
00000000
00010000
00000000
,
00000010
00000000
00010000
00000000
00100000
00000000
00000000
00000000
01000000
00000000
01000000
00001000
00000000
00001000
00010000
00000000
,
00010000
00000100
00000000
00000100
00001000
00000001
00000100
00000001
00000020
00000000
00000130
00010000
00001000
01000000
00010000
01000000
,
00200000
00000000
01300000
00001000
00010000
00000100
00001000
00000100
00000020
00000000
00000130
00010000
00001000
00100000
00001000
00010000
,
00000020
00000000
00010030
00001000
01000000
00010000
01000000
00100000
20000000
00000000
00000000
00000000
31000000
00000000
00010000
00000000
,
00001000
00000000
00011000
00000000
00000000
00010000
00001000
00000100
00000010
00000000
00001000
00000000
00000100
00000010
00000100
00000000
,
00001000
00000001
00001000
00000100
00010000
00001000
00100000
00000000
02000000
00000000
00000000
00000000
00000000
00000000
00000000
00000000
,
23000000
00000000
30020000
00000000
,
02030000
00000000
03002000
00000000
,
00023000
00000000
00030200
00000000
,
00000020
00000000
00000000
00000330
,
00000001
00000100
00001000
00000000
00010000
01000000
10000000
00000000
,
20200000
00000000
30300000
00000000
00000000
00000000
02002000
00000000
03003000
00000000
00000000
00000000
00020020
00000000
00030030
00000000
00000000
00000000
00000202
00000000
00000303
00000000
00000000
00000000
00000001
00000000
00000000
00000010
00000000
00000000
00000100
00000000
00000000
00001000
00000000
00000000
00000020
00000000
00000000
00000000
00000000
00000000
00000000
00000000
00000000
00000000
00000000
00000000
,
00010030
00001000
00100000
00001000
00020000
00000000
00000000
00000000
00130000
00000000
01000000
00010000
01000000
00000000
00100000
00000000
,
10000000
00000000
00000000
00000000
01000000
00000000
00000000
00000000
00010000
00000000
00000000
00000000
00001000
00000000
00000000
00000000
00000010
00000000
00000000
00000000
00000001
00000000
00000000
00000000
00000100
00000000
00000000
00000000
00000000
00000000
00000001
00000000
00000000
00001000
00000000
00000000
00000010
00000000
00000000
00000000
00000000
00000000
00010000
00000000
00000000
00001000
00000000
00000000
,
00100000
00000000
00010000
00100000
01000000
10000000
00010000
00000000
01000000
00001000
01000000
00001000
00010000
00000010
00010000
00000010
,
00001000
00000000
00000100
00000010
00000002
00000000
00000000
00000000
00000103
00000010
00001000
00000010
00010000
00000100
00001000
00000100
,
00010000
00000000
00001000
01000000
00010000
00000000
10000000
01000000
00200000
00000000
00010000
00000000
00010000
00000000
00010000
00000000
,
01300000
10000000
00010000
10000000
00100000
01000000
00010000
01000000
00002000
00000000
00013000
00000000
00001000
00000010
00000001
00000000
,
00000100
00000001
00000000
00000010
00000100
00000000
00010000
00001000
01000000
00010000
00100000
01000000
00000000
00010000
01000000
00000000
,
00100000
00001000
00000000
00010000
00000100
00000000
00001000
00000010
00000100
00001000
00000100
00000010
00001000
00000001
00000010
00000000
,
00000100
00000000
00000000
00010000
00000000
00000000
00001000
00000000
00000000
00100000
00000000
00000000
00001000
00000000
00000000
00010000
00000000
00000000
00100000
00000000
00000000
00000000
01000000
00000000
00000000
00000000
00100000
00000000
00000000
00000000
10000000
00000000
00000000
00000000
00010000
00000000
00000000
00000000
10000000
00000000
00000000
00000000
01000000
00000000
00000000
00000000
00010000
00000000
,
00000000
00000000
00001000
00000000
00000000
00000000
00000100
00000000
00000000
00000000
00001000
00000000
00000000
00000000
00010000
00000000
00000000
00000000
00200000
00000000
00000000
00000000
00000000
00000000
10300000
00000000
00000000
00000000
00000000
00000000
01000000
00000000
00000000
00010000
00000000
00000000
00001000
00000000
00000000
00000000
00000000
00000000
00100000
00000000
00000000
00001000
00000000
00000000
,
00000000
00010000
00000100
00000000
00001000
00000010
00010000
00001000
00010000
00000010
00001000
00000010
00000100
00001000
00000100
00000001
,
00001000
00000010
00000100
00000010
00020000
00000000
00000000
00130000
00000000
00010000
00001000
00000000
01000000
00010000
00000000
00100000
,
01000000
00000000
10000000
00100000
00000000
00010000
00001000
00010000
00000100
00001000
00000100
00000010
00000002
00000000
00000000
00000000
,
00000103
00000010
00000100
00000010
00001000
00000000
00000100
00000010
00001000
00000000
00000010
00000100
00001000
00000010
00010000
00001000
,
00100000
00000000
00010000
01000000
00100000
00000000
00010000
00100000
01000000
00000000
00010000
10000000
01000000
10000000
00100000
01000000
,
00001000
00000000
00010000
00000000
00000100
00001000
00000100
00010000
00001000
01000000
00010000
01000000
00100000
10000000
00010000
00100000
,
00001000
00010000
00000010
00010000
00002000
00000000
00100000
00000000
00023000
00000000
00000010
00000000
00032000
00000000
00000000
00000000
,
02003000
00000000
00000000
00000000
03100000
00000000
10000000
00100000
10000000
00000000
01000000
10000000
01000000
00010000
00001000
00000000
,
00001000
00010000
01000000
00000000
00100000
00000000
00001000
00010000
00000100
00000000
00001000
00000010
00010000
00001000
00000010
00000000
,
00000010
00001000
00010000
00000000
00000100
00001000
00000100
00010000
00001000
00100000
01000000
00100000
00010000
01000000
00100000
10000000
,
01000000
00000000
00000000
00100000
00000000
00000000
00001000
00000000
00000000
00010000
00000000
00000000
00000100
00000000
00000000
00000010
00000000
00000000
00000100
00000000
00000000
00000010
00000000
00000000
00000100
00000000
00000000
00000010
00000000
00000000
00000100
00000000
00000000
00000010
00000000
00000000
00000001
00000000
00000000
00000000
00000100
00000000
00000000
00000000
00001000
00000000
00000000
00000000
,
00010000
00100000
10000000
00000000
00000000
00000000
00022000
00000000
00000000
00000000
00000000
00000000
,
00000000
00000000
00000000
00000000
,
00000000
00000000
00000000
00000000
,
00000000
00000000
00000000
00000000
,
00000000
00000000
00000000
00000000
,
00000000
00000000
00000000
00000000
,
00000000
00000000
00000000
00000000
,
00000000
00000000
00000000
00000000
,
00033000
00000000
00000000
00000000
;
