#VERSION:0.83;
#TITLE:BIZCOCHITO;
#SUBTITLE:;
#ARTIST:Rosalia;
#TITLETRANSLIT:;
#SUBTITLETRANSLIT:;
#ARTISTTRANSLIT:;
#GENRE:;
#CREDIT:NOWHERE Dance Club;
#MUSIC:BIZCOCHITO.ogg;
#BANNER:BIZCOCHITO-bn.png;
#BACKGROUND:BIZCOCHITO-bg.png;
#CDTITLE:cdtitle.png;
#SAMPLESTART:12.560;
#SAMPLELENGTH:16.667;
#SELECTABLE:YES;
#OFFSET:-0.509;
#BPMS:0.000=117.000;
#STOPS:;
#BGCHANGES:-0.992=BIZCOCHITO.avi=0.000=0=0=1,
99999.000=-nosongbg-=1.000=0=0=0=StretchNoLoop====
;
#FGCHANGES:;

//--------------- dance-single - NOWHERE Dance Club ----------------
#NOTEDATA:;
#STEPSTYPE:dance-single;
#DESCRIPTION:NOWHERE Dance Club;
#DIFFICULTY:Beginner;
#METER:5;
#RADARVALUES:0,0,0,0,0;
#NOTES:
0000
0000
0000
0000
,
0000
0000
0000
0000
,
1000
0010
1000
0000
,
0001
0010
0001
0000
,
1000
0100
0010
0000
,
0001
0100
0010
0000
,
1000
0100
1000
0001
,
0100
0001
1000
0100
,
1000
0001
0100
0001
,
0100
0010
0100
0001
,
0010
0100
1000
0010
,
1000
0100
0010
0010
,
0100
0010
0001
1000
,
0010
0100
0001
1000
,
0100
0000
0010
0010
,
0001
0000
0100
0100
,
0010
0000
1000
1000
,
0001
0000
0010
0010
,
0100
0010
0100
1000
,
0010
0100
0001
0001
,
1000
0100
0010
0001
,
0010
0001
0100
0010
,
0010
1000
0010
0010
,
1000
0100
0010
0001
,
0001
0010
0001
0100
,
0100
0010
1000
1000
,
0010
0000
1000
0000
,
0100
0000
0010
0000
,
0001
0001
1000
0000
,
0010
0100
0010
0000
,
1000
1000
0001
0000
,
0010
0100
0010
0000
,
0001
0100
0001
1000
,
0010
1000
0100
1000
,
0001
0010
0001
0100
,
0010
1000
0100
0010
,
0001
0010
0001
0000
1000
0001
1000
0000
,
0010
1000
0010
0000
1000
0001
1000
0000
,
0001
0010
0001
0000
1000
0001
1000
0000
,
0010
1000
0010
0000
1000
0001
1000
0000
,
0100
0000
0010
0000
0001
0010
0001
0000
,
0100
0010
1000
0010
,
1000
0001
1000
0000
0100
1000
0100
0000
,
0010
0001
0010
0001
,
1000
0001
0001
0000
,
0100
0100
0010
0000
,
1000
0100
0100
0000
,
0010
0010
0001
0000
,
0000
0100
0010
1000
,
0000
0100
0010
0000
,
0000
0001
0100
0010
,
1000
0100
0010
0000
;

//--------------- dance-single - NOWHERE Dance Club ----------------
#NOTEDATA:;
#STEPSTYPE:dance-single;
#DESCRIPTION:NOWHERE Dance Club;
#DIFFICULTY:Easy;
#METER:8;
#RADARVALUES:0,0,0,0,0;
#NOTES:
0000
0000
0000
0000
,
0000
0000
0000
0000
0000
0000
0000
1000
,
0100
0000
0010
0000
0001
0000
0000
0010
,
0001
0000
0100
0000
0010
0000
0000
0100
,
0010
0000
1000
0000
0001
0000
0000
1000
,
0100
0000
0010
0000
0001
0000
0000
0100
,
0010
0000
1000
0010
0010
0000
1000
0000
,
0100
0000
0010
0001
0001
0000
1000
0000
,
0010
0000
0100
0010
1000
0000
0001
0000
,
0010
0000
0001
0100
0100
0000
0010
1000
,
0001
0000
0010
0000
0001
0100
0010
0000
,
1000
0000
0100
0010
0001
0000
0100
0000
,
0001
0000
1000
0000
0001
0010
0100
0000
,
1000
0000
0100
0010
0001
0000
0010
0000
,
0002
0000
0000
0103
0000
0000
0000
0000
0010
0000
0000
0000
1000
0000
0000
0000
,
0020
0000
0000
1030
0000
0000
0000
0000
0100
0000
0000
0000
0010
0000
0000
0000
,
0002
0000
0000
1003
0000
0000
0000
0000
0010
0000
0000
0000
0100
0000
0000
0000
,
0020
0000
0000
1030
0000
0000
0000
0000
0100
0000
0000
0000
1000
0000
0000
0000
,
0001
0000
0010
0000
0001
0010
0001
0000
,
0100
0000
0010
1000
0010
0000
1000
0000
,
0100
0000
0010
0000
0100
1000
0100
0000
,
0010
0000
0100
0010
0100
0000
0010
0000
,
0002
0000
0000
0103
0000
0000
0000
0000
0010
0000
1000
0000
0010
0000
0000
0000
,
2000
0000
0000
3100
0000
0000
0000
0000
0010
0000
0001
0000
0010
0000
0000
0000
,
0002
0000
0000
0103
0000
0000
0000
0000
0010
0000
0100
0000
0010
0000
0000
0000
,
2000
0000
0000
3001
0000
0000
0000
0000
0010
0000
0100
0000
0010
0000
0000
0000
,
0002
0000
0000
1003
0000
0000
0000
0000
0001
0000
0000
0000
0100
0000
0000
0000
,
0002
0000
0000
1003
0000
0000
0000
0000
0100
0000
0100
0000
0000
0000
0000
0000
,
0010
0001
0010
0000
,
0001
0100
0010
0000
,
1000
0100
0100
0000
,
1000
0000
0010
0010
0100
0000
0000
0000
,
0010
0000
1000
0000
0001
0000
1000
1000
,
0100
0000
0010
0000
0100
0100
0010
0000
,
0001
0000
1000
0000
0001
0001
0100
0000
,
0010
0000
1000
0000
0100
0100
1000
0000
,
0100
0010
0200
0000
0310
0001
0020
0000
,
0031
1000
0002
0000
0103
0010
2000
0000
,
3001
0000
0100
0010
0200
0000
0310
1000
,
0020
0000
1030
0001
2000
0000
3100
0010
,
0001
0000
0100
0000
0001
0010
0100
0000
,
1000
0000
0010
0100
0001
0000
0010
0000
,
0001
0000
0010
0000
0001
0100
0010
0000
,
1000
0000
0010
0100
0001
0000
0100
0000
,
0001
0100
0010
0010
1000
0000
0000
0100
,
0010
0000
0001
0000
0010
0000
0000
0001
,
0100
0000
0010
1000
0010
0000
0000
1000
,
0100
0010
0001
0000
,
0000
0100
0010
0100
0010
0000
1000
0000
,
0000
0100
0010
0000
0001
0000
0000
0000
,
0000
0100
0010
0100
0010
0000
1000
0000
,
0100
0010
0001
0000
0100
0000
0000
0000
;

//--------------- dance-single - NOWHERE Dance Club ----------------
#NOTEDATA:;
#STEPSTYPE:dance-single;
#DESCRIPTION:NOWHERE Dance Club;
#DIFFICULTY:Medium;
#METER:11;
#RADARVALUES:0,0,0,0,0;
#NOTES:
0000
0000
0000
0000
,
0000
0000
0000
0000
0000
0000
0000
1000
,
1000
0100
0010
0001
0010
0000
0000
0001
,
0001
0100
0010
1000
0010
0000
0000
1000
,
1000
0010
1000
0100
0010
0000
0000
0001
,
0001
0100
0010
1000
0010
0000
0000
1000
,
0100
0000
0000
0010
0001
0000
1000
0000
0001
0000
0000
0100
0010
0000
1000
0000
,
0001
0000
0000
0100
0010
0000
1000
0000
0100
0000
0000
1000
0100
0000
1000
0000
,
0010
0000
0000
0100
0010
0000
0100
0000
0001
0000
0000
1000
0001
0000
0010
0000
,
0100
0000
0000
0010
0001
0000
0010
0000
0001
0000
0000
0100
0010
0000
1000
0000
,
1020
0000
1000
0000
0100
1000
1030
0000
,
1000
0000
0100
0000
0010
0000
0001
0000
0010
0001
0000
0010
0001
0000
0010
0000
,
0021
0000
0001
0000
0100
0001
0031
0000
,
0001
0000
0100
0000
0010
0000
1000
0000
0010
1000
0000
0010
1000
0000
0001
0000
,
1001
0000
0000
1100
0000
0000
1000
0000
0001
0000
0100
0000
0001
0000
0010
0000
,
0001
0000
0000
0011
0000
0000
0001
0000
0100
0000
0010
0000
0100
0000
0001
0000
,
1000
0000
0000
1001
0000
0000
0001
0000
1000
0000
0100
0000
1000
0000
0010
0000
,
1000
0000
0000
1010
0000
0000
1000
0000
0100
0000
0010
0000
0100
0000
1000
0000
,
0002
0000
0100
0000
1000
1000
0103
0000
,
0001
0000
0010
0001
0100
0000
0010
0010
,
2000
0000
0100
0000
0001
0001
3100
0000
,
1000
0100
0010
0010
0001
0000
0100
0010
,
1000
0000
0000
0010
1000
0000
0000
0000
0100
0000
0010
0000
0001
0000
0100
0000
,
0001
0000
0000
0100
0001
0000
0000
0000
0100
0000
0010
0000
1000
0000
0001
0000
,
0010
0000
0000
0001
0010
0000
0000
0000
0001
0000
0010
0000
0100
0000
1000
0000
,
0001
0000
0000
1000
0001
0000
0000
0000
0100
0000
0001
0000
1000
0000
0010
0000
,
1000
0000
0000
0001
0000
0000
1000
0001
1000
0000
0100
0000
0010
0000
0001
0000
,
1000
0000
0000
0001
0000
0000
1000
0001
1000
0000
0001
0000
0000
0000
0000
0000
,
0100
0000
0000
0010
0000
0000
0000
0000
1000
0000
0010
0000
1000
0000
0010
0000
,
1000
0000
0000
0001
0000
0000
0000
0000
0010
0000
0001
0000
0010
0000
0001
0000
,
0010
0000
0000
0001
0000
0000
0000
0000
0100
0000
0010
0000
0100
0000
0010
0000
,
1000
0000
0000
0001
0000
0000
0000
0000
0010
0000
0100
0000
0010
0000
0100
0000
,
0010
0000
0000
0001
0000
0000
0100
0010
0000
0000
0100
0000
0000
0000
0010
0000
,
1000
0000
0000
0100
0000
0000
0010
0100
0000
0000
0010
0000
0000
0000
0001
0000
,
0100
0000
0000
0010
0000
0000
1000
0010
0000
0000
1000
0000
0000
0000
0010
0000
,
1000
0000
0000
0100
0000
0000
0010
0001
0000
0000
0010
0000
0000
0000
0001
0000
,
0100
0100
0001
0100
0010
1000
0100
0100
,
0010
0001
0100
0100
0001
0010
0001
0001
,
2000
0000
3010
1000
0010
1000
0100
0100
,
0010
0000
0001
0100
0010
0010
1000
0010
,
1000
0100
0001
0100
1000
0001
0001
0000
,
0000
0100
0010
1000
0010
1000
0100
0010
,
0001
0010
1000
0010
0001
1000
1000
0000
,
0001
1000
0001
0000
0100
0000
0010
0000
1000
0000
1000
0000
0010
0000
1000
0000
,
0100
0000
0010
0010
0001
0000
0000
0100
,
0010
0000
1000
1000
0010
0000
0000
1000
,
0001
0000
1000
1000
0001
0000
0000
0010
,
0001
0001
1000
1000
0001
0000
0000
0000
,
0000
0100
0010
1000
0010
1000
1000
0000
,
0000
0000
0100
0000
0010
0000
0001
0000
0200
0000
0000
0000
0000
0300
0000
0000
,
0000
0010
1000
0010
0100
0001
0001
0000
,
0010
0010
0001
0001
2000
0000
3000
0000
;

//--------------- dance-single - NOWHERE Dance Club ----------------
#NOTEDATA:;
#STEPSTYPE:dance-single;
#DESCRIPTION:NOWHERE Dance Club;
#DIFFICULTY:Hard;
#METER:13;
#RADARVALUES:0,0,0,0,0;
#NOTES:
0000
0000
0000
0000
,
0000
0000
0000
0000
,
0001
0000
0100
0010
0100
0000
0010
1000
0010
0000
0000
1000
0000
0000
0100
0000
,
0010
0000
0001
0100
0001
0000
0100
0010
0100
0000
0000
0010
0000
0000
1000
0000
,
0100
0000
0010
0001
0010
0000
0001
1000
0001
0000
0000
1000
0000
0000
0001
0000
,
0100
0000
0010
1000
0010
0000
1000
0001
1000
0000
0000
0001
0000
0000
2000
0000
,
3001
0000
0000
0100
0010
0000
1000
0000
0010
0000
0000
1000
0100
0000
0010
0000
,
0001
0000
0000
0100
0001
0000
0010
0000
0100
0000
0000
0010
0001
0000
0100
0000
,
0010
0000
0000
1000
0010
0000
1000
0000
0001
0000
0000
0010
0100
0000
1000
0000
,
0001
0000
0000
0010
0001
0000
0100
0000
0010
0000
0000
1000
0010
0000
1000
0000
,
0001
0000
1000
0001
0100
0000
0100
0001
1000
0000
0001
0000
0020
0000
0100
0000
,
0031
0000
0100
0010
1000
0000
0020
0000
1030
0000
0000
0010
1000
0000
0100
0000
,
0010
0000
0001
1000
0100
0000
0100
1000
0001
0000
1000
0000
0020
0000
0100
0000
,
1030
0000
0100
0010
0001
0000
0020
0000
0031
0000
0000
0010
0001
0000
0100
0000
,
0010
0000
0000
1010
0000
0000
0000
0000
1000
0000
0100
0000
0010
0000
0001
0000
,
0100
0000
0000
0110
0000
0000
0000
0000
1000
0000
0100
0000
0010
0000
0001
0000
,
0010
0000
0000
0011
0000
0000
0000
0000
0001
0000
0100
0000
0010
0000
1000
0000
,
0100
0000
0000
1100
0000
0000
0000
0000
1000
0000
0100
0000
0010
0000
0001
0000
,
1000
0000
0001
0010
0001
0000
1000
0001
1000
0000
0010
0000
1000
0000
0000
0000
,
0010
0000
0000
1000
0100
0000
0010
0000
0001
0000
0100
0000
0010
0000
1000
0000
,
0001
0000
1000
0010
1000
0000
0001
1000
0001
0000
1000
0000
0001
0000
0000
0000
,
0010
0000
0100
0000
1000
0000
0001
0000
0100
0000
0010
0100
0010
0000
1000
0001
,
1000
0000
0000
0001
0000
0000
0000
0000
1000
0000
2000
0000
3100
0000
0020
0000
,
0031
0000
0000
0001
0010
0000
0001
0000
0100
0000
0200
0000
0310
0000
0020
0000
,
1030
0000
0000
1000
0010
0000
1000
0000
0100
0000
0020
0000
0031
0000
0002
0000
,
0103
0000
0000
0010
1000
0000
0000
0000
0001
0000
0020
0000
0031
0000
0002
0000
,
0103
0000
0000
0100
0000
0000
0010
0010
0000
0000
1000
0000
0000
0000
0100
0000
,
0010
0000
0000
0001
0000
0000
0100
0100
0010
0000
0010
0000
0000
0000
1000
0000
,
0100
0000
0010
0001
0001
0000
0000
0100
,
0010
0000
1000
0010
1000
0000
0000
1000
,
0100
0100
0010
0001
0010
0000
0000
0001
,
0100
0010
1000
0010
0100
0000
0000
0001
,
0010
0000
0000
0100
0000
0000
0010
0100
0000
0000
0010
0000
0000
0000
0001
0000
,
0100
0000
0000
0010
0000
0000
0100
0010
0000
0000
0100
0000
0000
0000
0010
0000
,
1000
0000
0000
0100
0000
0000
1000
0100
0000
0000
1000
0000
0000
0000
0010
0000
,
0100
0000
0000
0001
0000
0000
0100
0001
0000
0000
1000
0000
0000
0000
0001
0000
,
1000
0100
1000
0000
0001
0000
0100
0000
0010
0100
0010
0000
1000
0000
0100
0000
,
0010
0100
0010
0000
0001
0000
1000
0000
0010
1000
0010
0000
1000
0000
0001
0000
,
2000
0000
0000
0000
3001
0100
0001
0000
1000
0000
0100
0000
0010
0100
0010
0000
,
0001
0000
0100
0000
0010
0100
0010
0000
1000
0000
0001
0000
0010
0001
0010
0000
,
0001
0000
1000
0100
0010
0000
0001
0100
0010
0000
1000
0000
0010
0000
1000
0000
,
0001
0000
1000
0001
1000
0000
0100
0000
0010
0001
0010
0001
1000
0001
1000
0000
,
0000
0000
0001
0100
0010
0000
1000
0100
0010
0000
0001
0000
0010
0000
0001
0000
,
1000
0001
1000
0000
0001
0000
0100
0000
0010
1000
0010
1000
0001
1000
0001
0000
,
1000
0001
0100
0001
0001
0000
0000
1000
,
0100
0010
0001
0010
0010
0000
0000
0001
,
0100
0010
1000
0100
0100
0000
0000
0010
,
0100
0010
0001
1000
1000
0000
0000
0000
,
0000
0001
0100
1000
0100
0001
1000
0000
,
0000
0001
1000
0001
0001
0000
0000
0000
,
0000
1000
0100
0001
0100
1000
0001
0000
,
0010
0001
0100
0010
1000
0000
0000
0000
;

//--------------- dance-single - DS+ FS XO- ----------------
#NOTEDATA:;
#STEPSTYPE:dance-single;
#DESCRIPTION:DS+ FS XO-;
#DIFFICULTY:Challenge;
#METER:15;
#RADARVALUES:0,0,0,0,0;
#NOTES:
0000
0000
0000
0000
,
0000
0000
0000
0000
0000
0000
0000
1000
,
0001
0000
0100
0010
1000
0000
0100
0010
0001
0100
0000
0100
0000
0000
0001
0100
,
0010
0000
1000
0010
1000
0000
0100
0010
0001
0010
0000
0010
0000
0000
0001
1000
,
0001
0000
0100
0001
0100
0000
0010
1000
0010
1000
0000
1000
0000
0000
0001
1000
,
0001
0000
0010
0001
0010
0000
0001
0100
0001
0100
0000
0100
0000
0000
0001
0000
,
1001
0000
0000
0001
0100
0000
0010
0000
1000
0000
0000
1000
0100
0000
0010
0000
,
0011
0000
0000
0010
1000
0000
0010
0000
0001
0000
0000
0001
0100
0000
0010
0000
,
1010
0000
0000
1000
0100
0000
0001
0000
0100
0000
0000
1000
0001
0000
0100
0000
,
0110
0000
0000
0010
1000
0000
0001
0000
1000
0000
0000
1000
0010
0000
0100
0000
,
0001
0000
1000
0100
0010
0000
0010
0100
1000
0000
0100
0000
1100
0000
0000
0000
,
0000
0000
0100
0010
0001
0000
0010
0000
0010
0000
0000
0001
0100
0000
0010
0000
,
1000
0000
0001
0100
0010
0000
0010
0100
0001
0000
0100
0000
0101
0000
0000
0000
,
0100
0010
1000
0000
0010
0000
0010
0000
1000
0000
0000
0100
0010
0000
0001
0000
,
0101
0000
0000
0001
0000
0000
1000
0000
0100
0000
0100
0000
0010
0000
0001
0000
,
0021
0000
0000
0100
0000
0000
0031
0000
0100
0000
0100
0000
0010
0000
1000
0000
,
1020
0000
0000
0100
0000
0000
1030
0000
0001
0000
0010
0000
0100
0000
1000
0000
,
0012
0000
0000
1000
0000
0000
0013
0000
0001
0000
0100
0000
0010
0000
1000
0000
,
1001
0000
0001
0100
0010
0000
0010
0100
0001
0000
0010
0000
0001
0000
0000
0000
,
0000
0000
1000
0010
1000
0000
0001
0000
1000
0000
0100
0010
0001
0010
0100
1000
,
0001
0000
1000
0010
0100
0000
0001
0010
0100
0000
1000
0000
1000
0000
0000
0000
,
0001
0100
0001
0000
0010
0000
0001
0000
0100
0000
0010
0100
0010
0000
1000
0000
,
0010
0000
0000
1000
0000
0000
0001
0000
1000
0000
0100
0010
0001
0010
0001
0020
,
0000
0000
0031
0000
0000
0000
0100
0000
0010
0000
1000
0010
1000
0000
0001
1000
,
0001
0000
0000
0100
0000
0000
0010
0000
1000
0000
0100
0010
0001
0010
0001
0020
,
0000
0000
0031
0000
0000
0000
0001
0000
0100
0000
0001
0100
0010
1000
0100
0010
,
0001
0000
0000
0000
0000
0000
0000
0000
0000
0000
0000
0000
0000
0000
0000
0000
0000
0000
0000
0000
0000
0000
0000
0000
0000
0000
0000
0000
0000
0000
0000
0000
0000
0000
0000
0000
1000
0000
0000
0000
0000
0000
0000
0000
0000
0000
0000
0000
0000
0000
0000
0000
0000
0000
0000
0000
0000
0000
0000
0000
0000
0000
0000
0000
0000
0000
0000
0000
0000
0000
0000
0000
0100
0000
0000
0000
0000
00M0
0000
0000
0000
0000
0000
0000
0100
0000
0000
0000
0000
0000
0000
0000
0000
0000
0000
0000
0001
0000
0000
0000
0000
0000
0000
0000
0000
0000
0000
0000
0000
0000
0000
0000
0000
0000
0000
0000
0000
0000
0000
0000
0010
0000
0000
0000
0000
0000
0000
0000
0000
0000
0000
0000
0000
0000
0000
0000
0000
0000
0000
0000
0000
0000
0000
0000
0001
0000
0000
0000
0000
0000
0000
0000
0000
0000
0000
0000
0000
0000
0000
0000
0000
0000
0000
0000
0000
0000
0000
0000
0100
0000
0000
0000
0000
0000
0000
0000
0000
0000
0000
0000
0000
0000
0000
0000
0000
0000
0000
0000
0000
0000
0000
0000
,
0010
0000
0000
0000
0000
0000
0000
0000
0000
0000
0000
0000
0000
0000
0000
0000
0000
0000
0000
0000
0000
0000
0000
0000
0000
0000
0000
0000
0000
0000
0000
0000
0000
0000
0000
0000
1000
0000
0000
0000
0000
0000
0000
0000
0000
0000
0000
0000
0000
0000
0000
0000
0000
0000
0000
0000
0000
0000
0000
0000
0000
0000
0000
0000
0000
0000
0000
0000
0000
0000
0000
0000
0100
0000
0000
0000
0000
00M0
0000
0000
0000
0000
0000
0000
0100
0000
0000
0000
0000
0000
0000
0000
0000
0000
0000
0000
0001
0000
0000
0000
0000
0000
0000
0000
0000
0000
0000
0000
0000
0000
0000
0000
0000
0000
0000
0000
0000
0000
0000
0000
0010
0000
0000
0000
0000
0000
0000
0000
0000
0000
0000
0000
0000
0000
0000
0000
0000
0000
0000
0000
0000
0000
0000
0000
0000
0000
0000
0000
0000
0000
0000
0000
0000
0000
0000
0000
0000
0000
0000
0000
0000
0000
0000
0000
0000
0000
0000
0000
0001
0000
0000
0000
0000
0000
0000
0000
0000
0000
0000
0000
0000
0000
0000
0000
0000
0000
0000
0000
0000
0000
0000
0000
,
0100
0000
0010
0000
1000
0000
0010
0000
1000
0000
0000
0000
0000
0000
0100
0010
,
0001
0001
0100
0010
1000
0001
0000
0010
,
0001
0100
1000
0100
0001
0000
0000
1000
,
0001
0000
1000
0100
1000
0000
0001
0100
0001
0000
0100
0000
0010
0000
1000
0000
,
0001
0000
0000
0000
0000
0000
0000
0000
0000
0000
0000
0000
0000
0000
0000
0000
0000
0000
0000
0000
0000
0000
0000
0000
0000
0000
0000
0000
0000
0000
0000
0000
0000
0000
0000
0000
1000
0000
0000
0000
0000
0000
0000
0000
0000
0000
0000
0000
0000
0000
0000
0000
0000
0000
0000
0000
0000
0000
0000
0000
0000
0000
0000
0000
0000
0000
0000
0000
0000
0000
0000
0000
0100
0000
0000
0000
0000
00M0
0000
0000
0000
0000
0000
0000
0100
0000
0000
0000
0000
0000
0000
0000
0000
0000
0000
0000
0001
0000
0000
0000
0000
0000
0000
0000
0000
0000
0000
0000
0000
0000
0000
0000
0000
0000
0000
0000
0000
0000
0000
0000
0010
0000
0000
0000
0000
0000
0000
0000
0000
0000
0000
0000
0000
0000
0M00
0000
0000
0000
0000
0000
0000
0000
0000
0000
0010
0000
0000
0000
0000
0000
0000
0000
0000
0000
0000
0000
0000
0000
0000
0000
0000
0000
0000
0000
0000
0000
0000
0000
1000
0000
0000
0000
0000
0000
0000
0000
0000
0000
0000
0000
0000
0000
0000
0000
0000
0000
0000
0000
0000
0000
0000
0000
,
0100
0000
0000
0000
0000
0000
0000
0000
0000
0000
0000
0000
0000
0000
0000
0000
0000
0000
0000
0000
0000
0000
0000
0000
0000
0000
0000
0000
0000
0000
0000
0000
0000
0000
0000
0000
1000
0000
0000
0000
0000
0000
0000
0000
0000
0000
0000
0000
0000
0000
0000
0000
0000
0000
0000
0000
0000
0000
0000
0000
0000
0000
0000
0000
0000
0000
0000
0000
0000
0000
0000
0000
0010
0000
0000
0000
0000
0M00
0000
0000
0000
0000
0000
0000
0010
0000
0000
0000
0000
0000
0000
0000
0000
0000
0000
0000
0001
0000
0000
0000
0000
0000
0000
0000
0000
0000
0000
0000
0000
0000
0000
0000
0000
0000
0000
0000
0000
0000
0000
0000
0100
0000
0000
0000
0000
0000
0000
0000
0000
0000
0000
0000
00M0
0000
0000
0000
0000
0000
0000
0000
0000
0000
0000
0000
0100
0000
0000
0000
0000
0000
0000
0000
0000
0000
0000
0000
0000
0000
0000
0000
0000
0000
0000
0000
0000
0000
0000
0000
1000
0000
0000
0000
0000
0000
0000
0000
0000
0000
0000
0000
0000
0000
0000
0000
0000
0000
0000
0000
0000
0000
0000
0000
,
0001
0000
0000
0000
0000
0000
0000
0000
0000
0000
0000
0000
0000
0000
0000
0000
0000
0000
0000
0000
0000
0000
0000
0000
0000
0000
0000
0000
0000
0000
0000
0000
0000
0000
0000
0000
1000
0000
0000
0000
0000
0000
0000
0000
0000
0000
0000
0000
0000
0000
0000
0000
0000
0000
0000
0000
0000
0000
0000
0000
0000
0000
0000
0000
0000
0000
0000
0000
0000
0000
0000
0000
0100
0000
0000
0000
0000
00M0
0000
0000
0000
0000
0000
0000
0100
0000
0000
0000
0000
0000
0000
0000
0000
0000
0000
0000
0001
0000
0000
0000
0000
0000
0000
0000
0000
0000
0000
0000
0000
0000
0000
0000
0000
0000
0000
0000
0000
0000
0000
0000
0010
0000
0000
0000
0000
0000
0000
0000
0000
0000
0000
0000
0M00
0000
0000
0000
0000
0000
0000
0000
0000
0000
0000
0000
0010
0000
0000
0000
0000
0000
0000
0000
0000
0000
0000
0000
0000
0000
0000
0000
0000
0000
0000
0000
0000
0000
0000
0000
1000
0000
0000
0000
0000
0000
0000
0000
0000
0000
0000
0000
0000
0000
0000
0000
0000
0000
0000
0000
0000
0000
0000
0000
,
0001
0000
0000
0000
0000
0000
0000
0000
0000
0000
0000
0000
0000
0000
0000
0000
0000
0000
0000
0000
0000
0000
0000
0000
0000
0000
0000
0000
0000
0000
0000
0000
0000
0000
0000
0000
1000
0000
0000
0000
0000
0000
0000
0000
0000
0000
0000
0000
0000
0000
0000
0000
0000
0000
0000
0000
0000
0000
0000
0000
0000
0000
0000
0000
0000
0000
0000
0000
0000
0000
0000
0000
0010
0000
0000
0000
0000
0M00
0000
0000
0000
0000
0000
0000
0010
0000
0000
0000
0000
0000
0000
0000
0000
0000
0000
0000
0001
0000
0000
0000
0000
0000
0000
0000
0000
0000
0000
0000
0000
0000
0000
0000
0000
0000
0000
0000
0000
0000
0000
0000
0100
0000
0000
0000
0000
0000
0000
0000
0000
0000
0000
0000
0000
0000
0000
0000
0000
0000
0000
0000
0000
0000
0000
0000
0010
0000
0000
0000
0000
0000
0000
0000
0000
0000
0000
0000
0000
0000
0000
0000
0000
0000
0000
0000
0000
0000
0000
0000
1000
0000
0000
0000
0000
0000
0000
0000
0000
0000
0000
0000
0000
0000
0000
0000
0000
0000
0000
0000
0000
0000
0000
0000
,
0001
0100
0010
0000
1000
0100
0010
0000
0001
0010
0001
0010
0001
1000
0001
0000
,
0100
0010
1000
0000
0100
0010
0001
0000
0100
0010
1000
0010
1000
0001
1000
0000
,
0001
0010
0100
0000
1000
0010
0100
0000
0001
0100
0001
0100
0001
1000
0001
0000
,
0100
0010
1000
0000
0100
0010
0001
0000
0010
0100
1000
0100
1000
0001
1000
0000
,
0001
0000
0010
0001
0100
0000
0100
0001
0010
0000
0001
0000
0001
0000
0100
0000
,
0010
0000
1000
0100
0010
0000
0001
0000
0010
0001
0100
0010
1000
0010
1000
0000
,
0001
0000
1000
0010
0100
0000
0100
0010
1000
0000
0001
0000
1000
0000
0000
0000
,
0001
1000
0001
0000
1000
0000
0100
0000
0010
0001
0100
0010
1000
0010
1000
0000
,
0010
1000
0100
0010
0011
0000
0000
0001
,
0100
0010
1000
0100
1100
0000
0000
1000
,
0100
0010
0001
1000
1001
0000
0000
0001
,
0100
0010
0100
0001
0101
0000
0000
0000
,
0000
0000
0001
0100
0010
0000
0010
0100
0001
0000
0100
0000
0100
0000
0000
0000
,
0000
0000
0100
0010
1000
0000
0010
0000
0020
0000
0000
0000
0030
0000
0000
0000
,
0000
0000
1000
0100
0010
0000
0010
0100
1000
0000
0100
0000
0100
0000
0000
0000
,
0100
0010
0001
0000
0010
0000
0010
0000
0002
0000
0000
0000
0000
0000
0003
0000
;
