#VERSION:0.83;
#TITLE:BATTLE NO.2;
#SUBTITLE:;
#ARTIST:Cheryl Stelli;
#TITLETRANSLIT:;
#SUBTITLETRANSLIT:;
#ARTISTTRANSLIT:;
#GENRE:;
#CREDIT:;
#MUSIC:BATTLE NO.2.ogg;
#BANNER:BATTLE NO.2-bn.png;
#BACKGROUND:BATTLE NO.2-bg.png;
#CDTITLE:;
#SAMPLESTART:40.805;
#SAMPLELENGTH:19.200;
#SELECTABLE:YES;
#OFFSET:1.195;
#BPMS:0.000=200.000;
#STOPS:;
#BGCHANGES:;
#FGCHANGES:;

//--------------- dance-single - XO+ DS JA SJ Mines- ----------------
#NOTEDATA:;
#STEPSTYPE:dance-single;
#DESCRIPTION:XO+ DS JA SJ Mines-;
#DIFFICULTY:Hard;
#METER:15;
#RADARVALUES:0,0,0,0,0;
#CREDIT:Talkion;
#NOTES:
0000
0000
0000
0000
,
0000
0000
0000
0000
,
0000
0000
0000
0000
,
1100
0000
0100
0000
0100
0000
0100
0010
,
0002
0000
0100
0000
1003
0000
1000
0010
,
0200
0000
0001
0000
0310
0010
1000
0100
,
0100
0010
0100
0010
0001
0000
1001
0000
,
1000
1000
0010
0000
0101
0000
0001
0010
,
0000
1100
0000
0011
0000
1000
0010
0100
,
0001
0000
0000
0001
0000
0000
0010
0000
0000
0100
0000
0000
1000
0000
0001
0000
0100
0000
0010
0000
0100
0000
0001
0000
,
2000
0100
3002
0100
1003
0010
0100
0000
,
0201
0000
0010
0000
0302
0000
1003
0200
,
0000
0010
0000
1300
0000
0001
0100
0010
,
2000
0000
0100
0000
3002
0010
0000
1003
,
1010
0000
0000
0000
0101
0000
0000
0000
0011
0000
0000
0011
0000
0000
0011
0000
,
0020
0000
0100
0000
0032
0000
1003
0020
,
0000
0100
0000
1030
0000
0001
0010
0100
,
1000
0010
1000
0001
0010
0001
0100
0010
,
0001
0010
1000
0100
,
1001
0001
0010
0001
0100
0000
0110
0000
,
0001
1000
0010
1000
0100
0000
0110
0000
,
1000
1000
0010
0010
0100
0100
0001
0001
,
1000
0100
1000
0100
1000
0000
0001
0100
0001
0100
0001
0000
0020
0000
0030
0000
,
0100
1000
0010
1000
0001
0000
0101
0000
,
0100
0001
0010
0001
1000
0000
1100
0000
,
0100
0010
0001
1000
0010
1000
0001
0010
,
0001
0000
0100
0000
0110
0000
0000
0000
1000
0000
0001
1000
0002
0000
0000
0000
,
0013
0000
0000
0000
0021
0000
0000
1000
0000
0000
0031
0000
1001
0000
0000
0000
,
1000
0000
0000
0000
1020
0000
0000
0001
0000
0000
1030
0000
0001
0000
0010
0000
,
0100
1000
1200
0001
0000
1300
1001
0000
,
0001
0100
0010
0020
0001
0000
1030
0000
,
2001
0000
0000
0000
3200
0000
0000
0010
0000
0000
0001
0000
0000
0010
0000
0000
,
2300
0000
0000
3020
0000
0000
0001
0000
0000
1000
0000
0000
0031
0000
0010
0000
,
1000
0100
0010
0001
0100
0010
0100
0010
,
1000
0000
0000
1000
0001
0000
0010
0000
0100
0000
0010
0000
0001
0000
0000
0000
,
1000
0020
0100
0000
1030
0200
0010
1300
,
0010
0100
2000
0000
3100
0010
1000
0000
,
0001
0020
0100
0000
0031
0200
0010
0301
,
0010
0100
0002
0000
0103
0010
0001
0000
,
1000
0020
0100
0000
1030
0200
0010
1300
,
0010
0000
0100
0000
2000
0000
0000
0000
3100
0000
0001
0000
0000
0010
0000
0000
,
0011
0001
1000
0000
1010
1000
0001
0010
,
0100
0000
1001
0000
1000
0010
0100
0001
,
1000
0100
0010
0001
0010
0100
1000
0001
,
0100
0010
0002
0013
0100
0010
1000
0000
,
0001
1000
0100
0010
0100
1000
0001
0100
,
0010
0000
0100
0000
2000
0000
3000
0000
1100
0000
0000
0100
0010
0000
1000
0000
,
0001
0010
0001
0100
0001
1000
0010
1000
,
0100
0010
2000
3010
0100
0010
0001
1000
,
0010
0100
0010
1000
0100
0010
0100
1000
,
0010
0000
1001
0000
1000
0100
0010
0001
,
0100
0001
1000
0100
,
1000
0002
0000
0000
0103
0000
0010
2000
,
0000
0000
0000
0000
3002
0000
0000
0013
,
0000
0100
0000
1000
0001
0000
0100
0000
,
0010
1000
0010
0000
0100
0000
0001
0000
,
1000
0100
1000
0100
0010
0000
0001
1000
,
0010
0100
0010
0100
0010
0100
0010
0100
,
0002
0010
2003
0010
3001
0100
0010
0000
,
1000
0001
0010
0100
0001
1000
0010
0100
,
1000
0001
0010
0100
0002
0000
0103
1000
,
0001
0100
0010
0001
1000
0100
0010
1000
,
0001
0100
0010
0001
1000
1000
0100
0000
,
0120
0000
1030
0001
0010
0100
0010
1000
,
0120
0000
0031
1000
0010
0100
0010
0001
,
0120
0000
1030
0001
0010
0100
0010
1000
,
0120
0000
0031
0100
0002
0000
1003
0100
,
1000
0001
0100
0100
0100
0010
1000
0100
,
1000
0010
1000
0100
0010
0000
0101
0000
,
0001
1000
0100
0100
0100
0010
0001
0100
,
0001
0010
0001
0100
0010
0000
1100
0000
,
1000
0001
0010
0001
0100
0010
1000
0100
,
1000
0001
0100
0001
0010
0100
1000
0010
,
0001
0000
0000
0010
0000
0000
1000
0000
0100
0000
0010
0000
0100
0000
1000
0000
,
0001
0000
0001
0000
0001
0000
0001
0000
0100
0010
1000
0010
0200
0000
0000
0000
,
0301
1000
0100
0100
0100
0010
0001
0010
,
0100
1000
0010
0100
0001
0000
1001
0000
,
1000
0001
0100
0100
0100
0010
1000
0010
,
0100
0001
0011
0000
1010
1000
0100
0000
,
1000
0010
0001
0010
1000
0010
0001
0010
,
1000
0000
0100
0000
0001
0000
0100
0000
1000
0000
0100
0010
0100
0000
0000
0000
,
0120
0000
0031
1000
0010
0100
0010
0001
,
0120
0000
1030
0001
0010
0100
1000
0000
,
0001
0100
0010
1000
0100
1000
0010
0100
,
0001
1000
0100
0010
0002
0100
1003
0000
,
1100
0100
0010
0011
0001
1000
1010
0000
,
0021
0000
0000
0000
0130
0000
0000
0000
2100
0000
0000
0100
0000
0000
3001
0000
,
1000
0010
0100
0001
0010
0001
0100
0010
,
2000
0000
3100
0010
0002
0000
0103
0000
,
0101
0000
0100
0000
0010
0000
1000
0000
1001
0000
0000
0110
0000
0000
1001
0000
,
1000
0000
0100
0000
0010
0000
0001
0000
1001
0000
0000
0110
0000
0000
1001
0000
,
0000
0001
0010
0100
1000
0010
0200
M0MM
,
0000
0301
0100
0010
1000
0100
0020
MM0M
,
0000
0031
0010
0100
1000
0001
0010
0001
,
0100
0001
1000
0010
1000
0100
1000
0000
,
0001
1000
0010
0100
0001
0010
0200
M0MM
,
0000
1300
0100
0010
0001
0100
0020
MM0M
,
0000
1030
1000
1000
0001
0010
0100
0010
,
1000
1020
0031
1001
,
1000
1000
0010
0000
0101
0001
1000
1100
,
0000
0000
0100
0010
0100
0000
1000
0000
0002
0000
0000
0000
0103
0000
0000
0000
,
0001
0001
0010
0000
1100
1000
0001
0101
,
0100
0010
1000
0010
0100
0001
0010
0100
,
1000
1000
0010
0000
0101
0001
1000
1100
,
0100
0010
0001
0010
0100
1000
0001
0100
,
0010
0100
0001
0010
0100
0010
0001
0100
,
2000
0000
3100
0002
0000
0013
1000
0000
,
0000
0000
0000
0000
,
0000
0000
0000
0000
0000
0000
0000
0000
0000
0000
0000
0M00
0000
0000
0000
0000
;

//--------------- dance-single - SJ XO BU- FS- Mines- ----------------
#NOTEDATA:;
#STEPSTYPE:dance-single;
#DESCRIPTION:SJ XO BU- FS- Mines-;
#DIFFICULTY:Challenge;
#METER:18;
#RADARVALUES:0,0,0,0,0;
#CREDIT:Talkion;
#NOTES:
0000
0000
0000
0000
,
0000
0000
0000
0000
,
0000
0000
0000
0000
,
1100
0000
0100
0000
0100
0000
0100
0010
,
0002
0000
0000
0000
0100
0000
0000
0000
1003
0000
0010
0000
1000
0000
0001
0010
,
0001
0000
0201
0000
0310
0010
1000
0100
,
0001
0100
1000
0010
0001
0000
1010
0000
,
1001
0001
0101
0000
1010
1000
0001
0011
,
0000
1100
0000
1001
0000
0001
0101
0100
,
0010
0000
0000
1000
0000
0000
0100
0000
0000
0010
0000
0000
0001
0000
1000
0000
0100
0000
1000
0000
0001
0000
0100
0000
,
0020
0100
2030
0100
3001
0010
1000
0000
,
1020
0000
0100
0000
0032
0000
0010
2003
,
0000
0000
0100
0000
0000
0000
0001
0000
0000
0000
3010
0000
0100
0010
0100
0000
,
0002
0000
0100
0000
2003
0010
0000
3001
,
0011
0000
0000
0000
1100
0000
0000
0000
1010
0000
0000
1010
0000
0000
1010
0000
,
0201
0000
0010
0000
0302
0000
0100
1003
,
0100
0010
0001
0100
0001
1000
0100
1000
,
0010
0000
1000
0001
1000
0000
0001
0010
0001
0000
1000
0010
1000
0000
0100
0000
,
0001
1001
0110
1001
,
1000
0001
0010
0001
0100
0000
0110
0000
,
0001
1000
0010
1000
0100
0000
0110
0000
,
1000
0001
0100
0010
1000
0010
0100
0001
1000
0000
0100
0010
0001
0010
0100
1000
,
0001
0100
0010
0100
0001
0000
1000
0100
0010
0100
1000
0000
0020
0000
0000
0000
,
0130
0001
0010
0001
1000
0000
1100
0000
,
0100
1000
0010
1000
0001
0000
0101
0000
,
0100
0000
0010
0000
1000
0000
0010
0000
0100
0000
0001
0010
0001
0000
1000
0010
,
1000
0000
0001
0010
0100
0000
1000
0010
0100
0000
1000
0100
0002
0000
0003
0000
,
0010
0000
0000
0000
0021
0000
0000
1000
0000
0000
0031
0000
1001
0000
1000
0000
,
0010
0000
0100
0000
0201
0000
0000
1000
0000
0000
0301
0000
1001
0000
1000
0010
,
1000
0000
0100
0000
1200
0000
0000
0001
0000
0000
1300
0000
1001
0000
0001
0000
,
0100
0010
1010
1010
0200
0000
0301
0000
,
2001
0000
0000
0000
3200
0000
0000
0010
0000
0000
0001
0000
0000
0010
0000
0000
,
2300
0000
0000
3020
0000
0000
0001
0000
0000
1000
0000
0000
0031
0000
0010
0000
,
1000
0000
0100
0000
0010
0000
0001
0000
1000
0010
1000
0010
0100
0001
0100
0002
,
1000
0000
0000
0013
0100
0000
1000
0000
0010
0100
0010
0000
1000
0000
0000
0000
,
1100
00M0
0100
0000
0001
0000
0000
0000
0100
00M0
0100
0000
1000
0000
0100
000M
,
0100
0000
0010
0000
0002
0000
0000
0000
0013
0100
0010
0000
1000
0000
0000
0000
,
1010
0M00
0010
0000
0001
0000
0000
0000
0010
0M00
0010
0000
1000
0000
0010
000M
,
0010
0000
0100
0000
0002
0000
0000
0000
0103
0010
0100
1000
0001
0000
0000
0000
,
0011
0M00
0010
0000
1000
0000
0000
0000
0010
0M00
0010
0000
0001
0000
0010
M000
,
0010
0000
0100
0000
2000
0000
0000
0000
3100
0000
0101
0000
0000
1010
0000
0000
,
1001
1000
0200
0300
1001
0001
0100
0010
,
1010
0000
0000
0000
0011
0000
0000
0000
0001
0100
0010
1000
0001
0010
0100
1000
,
0001
0000
1000
0000
0010
0000
0100
0001
0100
0000
0010
0000
1000
0000
0000
0000
,
0100
0000
0010
0000
2000
0000
3010
0000
0100
0000
1000
0000
0001
0000
0100
0010
,
0100
0000
0001
0000
1000
0000
0100
0010
0100
0000
1000
0000
0001
0000
0100
0000
,
0010
0000
0100
0000
2000
0000
3000
0000
1100
0000
0000
0100
0010
0000
0100
0000
,
0001
0000
1000
0100
1000
0000
0010
0000
1000
0000
0001
0100
0001
0000
0010
0000
,
0100
0000
0010
0000
2000
0000
3010
0000
0100
0000
0010
0000
0001
0000
0100
0010
,
0100
0000
0001
0010
0001
0000
1000
0010
1000
0000
0100
0010
0100
0000
1000
0000
,
0001
0000
0000
0000
1001
0000
0000
0000
1000
0010
0100
0001
1000
0100
0010
0001
,
0100
0001
1000
0100
,
1000
0002
0000
0000
0103
0000
0010
2000
,
0000
0000
0000
0000
3002
0000
0000
0013
,
0000
0100
0000
1000
0001
0000
0100
0000
,
0010
1000
0010
0000
0100
0000
0001
0000
,
1000
0100
1000
0100
0010
0000
1000
0010
,
0001
0100
1000
0100
0001
0010
1000
0010
,
0002
0100
2003
0100
3001
0010
1000
0000
,
0010
0001
0010
0001
1000
0010
1000
0010
0200
0000
0301
1000
0100
1000
0001
0010
,
0100
1000
0100
1000
0001
0100
0001
0100
0020
0000
0000
0000
1030
0001
0010
0001
,
1000
0010
1000
0010
0100
0001
0100
0001
2000
0000
3100
0010
0001
0010
0100
1000
,
0001
0100
0001
0100
0010
1000
0010
1000
0001
0000
0010
0100
0001
0000
0000
0000
,
0210
0000
1300
0001
0100
0010
0100
1000
,
0210
0000
0301
1000
0100
0010
0100
0001
,
0210
0000
1300
0001
0100
0010
0100
1000
,
0210
0000
0000
0000
0301
0000
0010
0000
2001
0000
0000
0000
3100
0010
0100
0000
,
1000
0001
0100
0100
0100
0010
2000
0100
,
3001
0010
0001
0100
0010
0000
0101
0000
,
0001
1000
0100
0100
0100
0010
0002
0100
,
1003
0010
1000
0100
0010
0000
1100
0000
,
1000
0001
0010
0001
1000
0000
0001
1000
0010
1000
0001
0000
0100
0010
1000
0000
,
0001
0000
1000
0100
1000
0000
0001
0010
0100
0010
0001
0000
1000
0000
0010
0100
,
0010
0000
1000
0001
0000
0010
0100
0000
1000
0010
1000
0000
0001
0000
0100
0000
,
0010
1000
0010
1000
0001
0010
0001
0010
0100
1000
0001
1000
0020
0000
0000
0000
,
0130
0001
0100
0001
1000
0100
1000
0100
0020
0000
0031
1000
0010
1000
0001
0100
,
0010
1000
0010
1000
0001
0000
1000
0100
0010
0000
1000
0010
0002
0000
0003
0000
,
1002
0000
0103
0100
0100
0010
1000
0100
,
0010
0000
0001
0000
0101
0000
1000
0000
1100
0000
0001
0100
0010
0000
0000
0000
,
1000
0001
0100
0001
1000
0000
0001
1000
0100
1000
0001
0000
0010
0100
1000
0000
,
0001
0000
1000
0010
1000
0000
0001
0100
0010
0000
0001
0010
2000
0000
3100
0000
,
0120
0000
0031
1000
0010
0100
0010
0001
,
0120
0000
0000
0000
1030
0000
0001
0010
0001
0000
0100
0010
0100
0000
0000
0000
,
0001
0010
1000
0001
0100
1000
0010
0100
,
0001
0000
0010
0000
0100
0000
0010
0000
0001
0000
0100
0010
0200
0000
0300
0000
,
1001
0000
0001
0010
0100
0000
1100
0000
1000
0010
0100
0000
0101
0000
0001
0010
,
0100
0000
1000
0010
1000
0000
0000
0000
1010
0000
0000
0011
0000
0000
1010
0000
,
1000
0100
0001
1000
0010
0001
0100
0010
,
2000
0100
3001
1000
0002
0100
0023
0030
,
1001
0000
0001
0100
0010
0000
1010
0000
1000
0001
0010
0001
1000
0000
0001
0000
,
1001
0000
1000
0100
0010
0000
0001
0000
0100
0010
0100
0001
1000
0000
0100
0000
,
1100
1000
0010
0100
0001
0010
0200
M0MM
,
0000
1300
0100
0010
0001
0100
0020
MM0M
,
0000
1030
0010
0100
0001
0010
0001
0100
,
0010
0000
1000
0000
0001
1000
0100
1000
0001
0000
0100
0000
0010
0000
0000
0000
,
1000
0001
0010
0100
1000
0010
0200
M0MM
,
0000
0301
0100
0010
1000
0100
0020
MM0M
,
0000
0000
0031
0000
0010
0000
0100
0000
1000
0001
1000
0001
0100
0010
0100
0010
,
1000
1200
0301
1100
,
1001
1000
1010
0000
0101
0001
1000
1100
,
0000
0000
0100
0010
0100
0000
1000
0000
0010
0000
0100
0000
0010
0000
1000
0000
,
1001
0001
0011
0000
1100
1000
0001
0101
,
0100
0000
0010
0100
0001
0000
0010
0100
2000
0000
0000
0000
3001
0000
0000
0000
,
1001
1000
1100
0000
0011
0001
1000
1010
,
0010
0110
0100
0101
0001
1000
0100
0010
,
0001
1000
0100
1000
0001
0100
0010
1000
0001
0010
0001
1000
0010
0100
0001
0010
,
2000
0000
3010
0002
0000
0103
1000
0000
,
0000
0000
0000
0000
,
0000
0000
0000
0000
0000
0000
0000
0000
0000
0000
0000
00M0
0000
0000
0000
0000
;
