#VERSION:0.83;
#TITLE:Axium Crisis;
#SUBTITLE:;
#ARTIST:ak+q;
#TITLETRANSLIT:;
#SUBTITLETRANSLIT:;
#ARTISTTRANSLIT:;
#GENRE:Artcore;
#ORIGIN:Arcaea;
#TAGS:;
#CREDIT:;
#BANNER:Axium Crisis.png;
#BACKGROUND:Axium Crisis-bg.png;
#PREVIEWVID:;
#JACKET:Axium Crisis-jacket.png;
#CDIMAGE:;
#DISCIMAGE:;
#LYRICSPATH:;
#CDTITLE:cdtitle.png;
#MUSIC:Axium Crisis.ogg;
#OFFSET:-0.002000;
#SAMPLESTART:110.600998;
#SAMPLELENGTH:22.587999;
#SELECTABLE:YES;
#DISPLAYBPM:85.000000:170.000000;
#BPMS:0.000000=85.000000
,15.500000=170.000000
,48.000000=85.000000
,79.500000=170.000000
,79.750000=85.000000
,79.875000=42.500000
,80.000000=170.000000
,134.000000=85.000000
,136.000000=170.000000
,193.000000=160.000000
,194.000000=156.500000
,195.000000=152.000000
,196.000000=148.000000
,197.000000=144.000000
,198.000000=140.000000
,199.000000=136.000000
,200.000000=132.000000
,201.000000=115.000000
,202.000000=100.000000
,203.000000=92.540001
,204.000000=85.000000
,222.000000=170.000000
,318.000000=85.000000
;
#STOPS:15.500000=0.176000
;
#DELAYS:;
#WARPS:122.000000=12.000000
;
#TIMESIGNATURES:0.000000=4=4
,200.000000=6=4
,206.000000=4=4
;
#TICKCOUNTS:0.000000=4
;
#COMBOS:0.000000=1
;
#SPEEDS:0.000000=1.000000=0.000000=0
;
#SCROLLS:0.000000=1.000000
,122.000000=0.000000
,122.125000=0.063000
,122.250000=0.125000
,122.375000=0.188000
,122.500000=0.250000
,122.625000=0.313000
,122.750000=0.375000
,122.875000=0.438000
,123.000000=0.500000
,123.125000=0.563000
,123.250000=0.625000
,123.375000=0.688000
,123.500000=0.750000
,123.625000=0.813000
,123.750000=0.875000
,123.875000=0.938000
,124.000000=1.000000
,134.000000=0.000000
,134.125000=0.063000
,134.250000=0.125000
,134.375000=0.188000
,134.500000=0.250000
,134.625000=0.313000
,134.750000=0.375000
,134.875000=0.438000
,135.000000=0.500000
,135.125000=0.563000
,135.250000=0.625000
,135.375000=0.688000
,135.500000=0.750000
,135.625000=0.813000
,135.750000=0.875000
,135.875000=0.938000
,136.000000=1.000000
;
#FAKES:;
#LABELS:0.000000=Song Start
;
#BGCHANGES:;
#KEYSOUNDS:;
#ATTACKS:
;

//---------------dance-single - ----------------
#NOTEDATA:;
#CHARTNAME:;
#CHARTHASH:4042009815;
#STEPSTYPE:dance-single;
#BANNER:;
#DESCRIPTION:;
#CHARTSTYLE:;
#DIFFICULTY:Beginner;
#METER:4;
#METERF:0.000000;
#LASTSECONDHINT:143.777008;
#RADARVALUES:0.159457,0.225269,0.175886,0.040589,0.003382,165.000000,139.000000,26.000000,6.000000,0.000000,0.000000,0.000000,0.000000,0.000000,0.159457,0.225269,0.175886,0.040589,0.003382,165.000000,139.000000,26.000000,6.000000,0.000000,0.000000,0.000000,0.000000,0.000000;
#CREDIT:-YOSEFU-;
#DISPLAYBPM:85.000000:170.000000;
#NOTES:
0000
0000
0000
0000
,
0000
0000
0000
0000
,
1000
0000
0001
0000
,
0010
0000
0100
0000
,
1001
0000
0000
0000
,
1000
0000
0000
0000
,
0010
0000
0100
0000
,
0001
0000
1000
0000
,
0100
0000
0000
0000
,
0010
0000
0001
0000
,
1000
0000
0010
0000
,
0100
0000
0001
0000
,
1001
0000
0000
0001
,
1000
0000
0100
0000
,
0010
0000
0000
0001
,
1000
0000
0010
0000
,
0100
0000
0001
0000
,
1000
0000
0100
0000
,
0010
0000
0001
0000
,
1000
0000
0010
0000
,
1001
0000
0000
1001
,
0000
0000
0110
0000
,
1001
0000
0000
1001
,
0000
0000
0110
0000
,
1001
0000
0000
0110
,
0000
0000
0110
0000
,
1001
0000
0000
1001
,
0000
0000
0110
0000
,
2000
0000
0000
0000
,
0000
3000
0220
0000
,
0330
0000
0000
0000
,
0000
0000
0000
0000
,
0000
0000
0000
0000
,
0000
0000
0000
0000
,
1001
0000
0001
0000
,
0010
0000
0001
0000
,
1000
0000
0010
0000
,
0100
0000
0010
0000
,
0100
0000
0001
0000
,
1000
0000
0100
0000
,
0110
0000
0010
0000
,
0001
0000
1000
0000
,
0010
0000
0100
0000
,
0110
0000
0010
0000
,
1000
0000
0001
0000
,
0010
0000
0100
0000
,
1001
0000
0000
0000
,
0110
0000
0000
0000
,
1001
0000
0001
0000
,
1000
0000
0010
0010
,
0020
0000
0000
0000
0000
0000
0000
0000
0000
0000
0000
0000
0000
0030
0000
0000
,
0000
0000
1000
0000
,
0001
0000
0010
0000
,
0100
0000
1000
0000
,
0010
0000
0100
0000
,
0001
0000
1001
0000
,
1000
0000
0100
0000
,
0010
0000
0001
0000
,
0100
0000
0010
0000
,
1000
0000
0001
0000
,
0010
0000
0100
0000
,
1000
0000
0010
0000
,
0100
0000
0110
0000
,
0000
0000
1001
0000
,
0001
0000
1000
0000
,
0100
0000
0010
0000
,
0001
0000
1000
0000
,
0010
0000
0100
0000
,
0001
0000
0010
0000
,
0100
0000
1000
0000
,
0010
0000
0100
0000
,
0001
0000
1001
0000
,
1000
0000
0100
0000
,
0010
0000
0001
0000
,
0100
0000
0010
0000
,
1000
0000
0100
0000
,
0010
0000
0001
0000
,
0100
0000
0010
0000
,
1000
0000
0100
0000
,
0010
0000
2002
0000
,
3003
0000
0001
0000
,
0000
0000
0100
0000
,
0000
0000
0010
0000
,
0000
1000
0000
0000
;

//---------------dance-single - ----------------
#NOTEDATA:;
#CHARTNAME:;
#CHARTHASH:3800244424;
#STEPSTYPE:dance-single;
#BANNER:;
#DESCRIPTION:;
#CHARTSTYLE:;
#DIFFICULTY:Easy;
#METER:9;
#METERF:0.000000;
#LASTSECONDHINT:146.600525;
#RADARVALUES:0.322780,0.484448,0.202945,0.250299,0.033824,334.000000,304.000000,30.000000,37.000000,0.000000,0.000000,0.000000,0.000000,7.000000,0.322780,0.484448,0.202945,0.250299,0.033824,334.000000,304.000000,30.000000,37.000000,0.000000,0.000000,0.000000,0.000000,7.000000;
#CREDIT:-YOSEFU-;
#DISPLAYBPM:85.000000:170.000000;
#NOTES:
0000
0000
0000
0000
,
0000
0000
0000
0000
,
1000
0000
0000
0001
0000
0000
0000
0000
0010
0000
0000
0000
0100
0000
0000
0000
,
1000
0000
0000
0010
0000
0000
0000
0000
0100
0000
0000
0001
0000
0000
0000
0000
,
1001
0000
0000
1000
0000
0000
0001
0000
,
0100
0000
0000
0010
0000
0000
0100
0000
,
0001
0000
1000
0100
0010
0000
0100
0000
,
2000
0000
0000
0000
3002
0000
1003
0010
,
1000
0000
0000
0001
0000
0000
0010
0000
,
0100
0000
0000
1000
0000
0000
0001
0000
,
0100
1000
0100
0001
,
0010
0100
1000
0001
,
2001
0000
0000
3020
,
0230
0000
0000
0000
0000
0302
0000
0000
0023
0000
0000
0000
0000
0000
0000
0000
,
0230
0000
0000
0000
0000
2300
3002
0000
,
0203
0000
0000
0000
0320
0000
0000
0000
2030
0000
0000
3002
0000
0000
0000
0000
,
0023
0000
0230
0320
,
0032
0000
0000
0000
0000
2003
0000
0000
3020
0000
0000
0230
0000
0000
0302
0000
,
2003
0000
0000
0000
0000
0000
0000
0000
3200
0000
0000
0320
0000
0000
0032
0000
,
2003
0000
0000
0000
,
3001
0000
0000
0101
0000
0000
1000
0000
,
0000
1100
0000
0000
0110
0000
1001
0000
,
0001
0000
0000
0011
0000
0000
1000
0000
,
0000
1010
0000
0000
0110
0000
1001
0000
,
1010
0000
1000
0001
0000
0000
0011
0000
,
0001
1000
0000
0000
1100
0000
0011
0000
,
0101
0000
0001
1000
0000
0000
1100
0000
,
1000
0001
0000
0000
0101
0000
1010
0000
,
2000
0000
0001
0000
0000
0001
0000
0000
,
0001
0000
3200
0000
,
0320
0000
0000
0000
0000
0000
0000
0000
0000
0000
0000
0000
0000
0000
0000
0000
0000
0000
0000
0000
0000
0000
0000
0000
0000
0000
0000
0000
0000
0000
0000
0030
0002
0000
0000
0000
0000
0000
0000
0000
0000
0000
0000
0000
0000
0000
0000
0000
0000
0000
0000
0000
0000
0000
0000
0000
0000
0000
0000
0000
0000
0000
0000
0000
,
0M03
00M0
M000
000M
,
00M0
0000
0000
0000
,
0000
0000
0002
0000
,
0103
0010
1000
0001
,
0010
0000
0100
1000
0001
0000
0100
0000
,
0010
0000
1000
0000
0001
0000
0010
0100
,
1000
0001
0100
0100
,
0010
1000
0001
0010
,
0100
0000
1000
0100
0010
0000
0001
0100
,
0010
1000
0001
0010
,
0100
0000
0010
0000
0001
0000
0100
0010
,
1000
0000
0001
0010
0100
0000
0010
0000
,
0001
1000
0010
0100
,
0010
0000
1000
0000
0001
0000
0010
0100
,
1000
0000
0100
0010
0001
0000
1010
0000
,
0101
0000
0001
1000
0100
0000
0110
0000
,
0011
0000
0001
1000
0010
0000
0110
0000
,
0101
0011
0110
1100
,
1001
0000
0101
0000
0100
0010
1000
0001
,
0020
0000
0000
0000
0000
0000
0000
0000
0000
0000
0000
0000
0000
0030
0000
0000
,
0000
0000
0100
0000
,
1000
0001
0100
0010
,
0010
1000
0100
0010
,
0010
0100
1000
0001
,
0100
0010
1000
0001
,
1000
0000
0100
0000
0010
0000
0000
0001
,
0000
0100
0010
1000
,
0100
0000
0010
0000
0001
0000
0000
0010
,
0000
0000
0100
1000
0001
0000
0100
0000
,
0010
0000
1000
0000
0001
0000
0000
0010
,
0000
0100
0010
0001
,
1000
0010
0120
0000
,
1000
0000
0000
0000
0130
0010
0000
1000
,
0000
0001
0000
0001
0000
0010
0000
0100
,
0000
0010
0000
0010
0000
0001
0000
1000
,
0000
0001
0000
0001
0000
0100
0000
0010
,
0000
1000
0010
1000
0010
0100
0000
0001
,
0000
1000
0000
1000
0100
0000
0000
1000
,
0000
0001
0000
1000
0100
0000
0010
0000
,
0001
0000
0100
0010
2000
0000
0000
0000
,
3200
0000
0000
0000
0310
0001
0000
1000
,
0000
0001
0000
0001
0000
0100
0000
0010
,
0000
0100
0000
0100
0000
0001
0000
1000
,
0000
0100
0000
0100
0000
0010
0000
0001
,
0000
1000
0001
1000
0001
0100
0000
0010
,
0000
1000
0000
1000
0001
0000
0000
1000
,
0000
0010
0000
1000
0001
1000
0000
0100
,
0000
0010
0000
0010
0100
0000
1000
0000
,
0001
0100
0010
0000
2000
0000
0000
0000
,
3010
1000
0001
0010
,
0100
0001
0100
1000
,
0010
0100
0001
0010
,
0100
1000
0020
0000
0000
0000
0000
0000
,
0000
0030
0000
0000
;

//---------------dance-single - ----------------
#NOTEDATA:;
#CHARTNAME:;
#CHARTHASH:965743332;
#STEPSTYPE:dance-single;
#BANNER:;
#DESCRIPTION:;
#CHARTSTYLE:;
#DIFFICULTY:Medium;
#METER:13;
#METERF:0.000000;
#LASTSECONDHINT:146.600525;
#RADARVALUES:0.469674,0.598435,0.196181,0.284124,0.165739,486.000000,457.000000,29.000000,42.000000,0.000000,0.000000,0.000000,0.000000,10.000000,0.469674,0.598435,0.196181,0.284124,0.165739,486.000000,457.000000,29.000000,42.000000,0.000000,0.000000,0.000000,0.000000,10.000000;
#CREDIT:-YOSEFU-;
#DISPLAYBPM:85.000000:170.000000;
#NOTES:
// measure 0
0000
0000
0000
0000
,  // measure 1
0000
0000
0000
0000
,  // measure 2
1000
0000
0000
0001
0000
0010
0000
0000
0100
0000
0000
0000
0001
0000
0000
0000
,  // measure 3
0100
0000
0000
1000
0000
0001
1000
0000
0010
0000
0000
0100
0000
0001
0000
0000
,  // measure 4
1001
0000
0000
1000
0000
0000
0001
0000
1000
0000
0100
0000
,  // measure 5
0010
0000
0001
0100
0000
0001
0100
0000
,  // measure 6
0010
0000
0000
0000
0000
0000
0000
0000
0000
0000
0000
0000
1000
0000
0000
0001
0000
0000
1000
0000
0000
0000
0000
0000
0100
0000
0000
0000
0000
0000
0000
0000
0010
0000
0000
0000
0000
0000
0000
0000
0001
0000
0000
0000
0000
0000
0000
0000
,  // measure 7
1000
0000
0010
1000
0000
0001
0010
0100
,  // measure 8
1001
0000
0000
1000
0000
0000
0100
0000
0010
0000
0001
0000
,  // measure 9
0100
0000
0001
0010
1000
0000
0010
0100
,  // measure 10
2000
3020
0230
0302
,  // measure 11
0013
0100
1000
0001
0200
0000
0320
0000
,  // measure 12
2030
0000
0000
0000
0000
0000
3020
2030
,  // measure 13
3200
0000
0000
0000
0000
0320
0000
0000
0032
0000
0000
0000
0000
0000
0000
0000
,  // measure 14
2003
0000
0000
0000
0000
3020
0230
0302
,  // measure 15
0203
0000
0000
0000
0320
0000
0000
0000
2030
0000
0000
3200
0000
0000
0000
0000
,  // measure 16
0302
0000
0203
2300
,  // measure 17
3020
0000
0000
0000
0000
0230
0000
0000
0302
0000
0000
0023
0000
0000
0230
0000
,  // measure 18
2300
0000
0000
0000
0000
0000
0000
0000
3200
0000
0000
0320
0000
0000
0032
0000
,  // measure 19
0203
0000
0000
0000
0000
0000
0000
0300
,  // measure 20
1001
0000
0000
1001
0000
0000
1010
0000
,  // measure 21
0000
1010
0000
0000
1001
0000
1010
0000
,  // measure 22
0110
0000
0000
0110
0000
0000
0101
0000
,  // measure 23
0000
0101
0000
0000
0110
0000
0101
0000
,  // measure 24
0001
0000
1000
0001
1000
0000
0001
0000
0000
0000
0000
0000
1000
0000
0100
1000
,  // measure 25
0100
1000
0000
0000
1001
0000
1100
0000
,  // measure 26
1000
0000
0001
1000
0001
0000
1000
0000
0000
0000
0000
0000
0001
0000
0100
0001
,  // measure 27
0100
0001
0000
1000
0100
0010
1001
0000
,  // measure 28
0002
0000
0010
0000
0000
1000
0000
0000
,  // measure 29
0010
0000
0203
0000
,  // measure 30
0320
0000
0000
0000
0000
0000
0000
0000
0000
0000
0000
0000
0000
0000
0000
0000
0000
0000
0000
0000
0000
0000
0000
0000
0000
0000
0000
0000
0000
0000
0000
0030
2000
0000
0000
0000
0000
0000
0000
0000
0000
0000
0000
0000
0000
0000
0000
0000
0000
0000
0000
0000
0000
0000
0000
0000
0000
0000
0000
0000
0000
0000
0000
0000
,  // measure 31
300M
00M0
0M00
0000
00M0
M000
00M0
000M
,  // measure 32
M000
0000
0000
0000
,  // measure 33
0000
0000
2000
0000
,  // measure 34
3001
0010
0100
0000
0010
1000
0010
0001
,  // measure 35
1000
0010
0100
0001
0010
0100
0010
0001
,  // measure 36
1000
0010
0100
0001
0010
0001
1000
0010
,  // measure 37
1010
0000
1000
0001
0010
0000
0010
0000
,  // measure 38
0100
0000
1000
0001
0100
0010
0100
0001
,  // measure 39
1000
0100
0001
0100
1000
0010
0100
0001
,  // measure 40
1001
0000
1000
0100
0010
0100
1000
0001
,  // measure 41
0100
0010
0100
0001
1000
0100
0010
0001
,  // measure 42
0100
0010
1000
0001
0010
0100
0010
0001
,  // measure 43
1001
0000
1000
0010
0100
0001
0010
0100
,  // measure 44
0010
0001
0100
1000
0100
0010
1000
0100
,  // measure 45
0001
0100
0010
0001
1001
0000
1100
0000
,  // measure 46
1010
0000
0000
0000
1000
0010
1000
0000
1010
0000
0000
0000
1001
0000
0000
0000
,  // measure 47
0011
0000
0000
0000
0001
0010
0001
0000
0011
0000
0000
0000
0101
0000
0000
0000
,  // measure 48
0100
1000
0100
0001
0010
1000
0010
0100
,  // measure 49
1000
0000
0010
0000
0001
0000
0010
0000
0100
0000
0001
0000
1000
0001
1000
0001
,  // measure 50
2000
0000
0000
0000
0000
0000
0000
0000
0000
0000
0000
0000
0000
3000
0000
0000
,  // measure 51
0000
0000
0000
0000
0000
0000
0000
0000
0001
0010
0100
1000
0000
0000
0000
0000
,  // measure 52
0001
0100
0010
1000
0000
0000
0000
0000
0010
1000
0001
0010
0000
0000
0000
0000
,  // measure 53
0001
0100
0010
0001
0000
0000
0000
0000
0010
0100
0001
1000
0000
0000
0000
0000
,  // measure 54
0100
0010
0001
1000
0000
0000
0000
0000
0010
0100
0001
1000
0000
0000
0000
0000
,  // measure 55
0100
0010
0100
1000
0001
0000
0000
0000
0100
0000
0010
0000
1000
0000
0001
0000
,  // measure 56
0010
0000
0100
0000
1000
0100
0010
0001
,  // measure 57
1000
0000
0010
0000
0100
0001
1000
0100
,  // measure 58
0010
0000
0100
0000
1000
0010
0100
1000
,  // measure 59
0100
0000
0010
0000
1000
0001
0010
0100
,  // measure 60
1000
0000
0001
0000
0100
0010
0100
0001
,  // measure 61
1000
0000
0100
0000
0010
0100
1000
0001
,  // measure 62
0100
0010
1020
0000
,  // measure 63
0100
0000
1030
0001
0010
0100
0000
1000
,  // measure 64
0000
0001
0000
0100
0010
0100
0000
0001
,  // measure 65
0000
1000
0100
0010
0001
0100
0000
0010
,  // measure 66
0000
0100
1000
0100
0010
1000
0000
0001
,  // measure 67
0000
0010
0100
1000
0010
0100
0000
0001
,  // measure 68
0000
0100
0010
1000
0100
0000
0010
0001
,  // measure 69
0000
1000
0010
0100
0001
0010
0100
1000
,  // measure 70
0010
1000
0100
0010
0002
0000
0000
0103
,  // measure 71
0020
0000
1030
0001
0010
0100
0000
0010
,  // measure 72
0000
0001
0000
1000
0010
1000
0000
0001
,  // measure 73
0000
0010
0000
0100
1000
0100
0000
0010
,  // measure 74
0001
0100
0001
0010
1000
0010
0000
0001
,  // measure 75
0000
0100
0010
1000
0001
0010
0000
0100
,  // measure 76
0000
1000
0000
0001
0100
0000
0010
1000
,  // measure 77
0000
0001
0000
0010
1000
0010
0100
1000
,  // measure 78
0001
0100
1000
0100
0010
1000
0001
0010
,  // measure 79
0100
1000
0001
0000
0100
0010
1000
0010
,  // measure 80
0100
0000
0001
0000
1000
0001
1000
0000
0100
0000
0010
0000
0001
0000
0010
0000
,  // measure 81
0100
0000
1000
0000
0001
0100
0001
0000
1000
0000
0010
0000
0100
0000
0010
0000
,  // measure 82
1000
0000
0001
0000
0010
0100
0010
0000
0001
0000
1000
0000
0010
0000
0100
0000
,  // measure 83
0001
0010
0100
1000
0020
0000
0000
0000
0000
0000
0000
0000
0000
0000
0000
0000
,  // measure 84
0000
0030
0000
0000
;

//---------------dance-single - ----------------
#NOTEDATA:;
#CHARTNAME:Devoid of Meaning;
#CHARTHASH:3026524649;
#STEPSTYPE:dance-single;
#BANNER:;
#DESCRIPTION:;
#CHARTSTYLE:;
#DIFFICULTY:Hard;
#METER:15;
#METERF:15.000000;
#LASTSECONDHINT:146.600525;
#RADARVALUES:0.577911,0.797914,0.209710,0.338242,0.436333,598.000000,567.000000,31.000000,50.000000,0.000000,0.000000,0.000000,0.000000,12.000000,0.577911,0.797914,0.209710,0.338242,0.436333,598.000000,567.000000,31.000000,50.000000,0.000000,0.000000,0.000000,0.000000,12.000000;
#CREDIT:Yosefu's Existential Crisis;
#DISPLAYBPM:85.000000:170.000000;
#NOTES:
0000
0000
0000
0000
,
0000
0000
0000
0000
,
1000
0000
0001
0100
0000
0010
0000
0000
1000
0001
0010
0100
0001
0100
0010
0000
,
0001
0000
1000
0010
0000
0100
0001
1000
0100
0010
0100
1000
0000
0010
0000
0000
,
0101
0000
0000
0000
0000
0000
0001
0000
0000
1000
0000
0000
0001
0000
0000
0000
0100
0000
0000
0000
0010
0000
0000
0000
,
1000
0000
0000
0000
0001
0000
0010
0000
0000
0001
1000
0000
0010
0000
0100
0000
,
0001
0000
0000
0000
0000
0000
0000
0000
0000
0000
0000
0000
1000
0000
0000
0100
0000
0000
0010
0000
0000
0001
0000
0000
1000
0000
0000
0000
0000
0000
0000
0000
0010
0000
0000
0000
0000
0000
0000
0000
0100
0000
0000
0000
0000
0000
0000
0000
,
0001
0000
0000
1000
0100
0000
1000
0000
0001
0000
0100
0001
0100
0000
0001
0000
,
1001
0000
0000
0000
0000
0000
1000
0000
0000
0100
0000
0000
1000
0000
0000
0000
0010
0000
0000
0000
1000
0000
0000
0000
,
0100
0000
0010
0100
0001
0100
0010
0000
,
0001
0000
1000
0010
0100
0001
0010
0100
,
1000
0000
0001
0000
1000
0001
1000
0001
2000
0000
0000
0000
3020
0000
0000
0000
,
0230
0000
0000
0000
0000
0000
0000
0000
0000
0000
0000
0000
0302
2003
3002
0023
,
0230
0000
0000
0000
0000
2300
0000
0000
3002
0000
0000
0000
0000
0000
0000
0000
,
0203
0000
0000
0000
0000
0000
0000
0000
0000
0000
0320
2030
3002
0023
0032
2003
,
3020
0000
0000
0000
0230
0000
0000
0000
0302
0000
0000
0023
0000
0000
0000
0000
,
2030
0000
3020
0032
,
0203
0000
0000
0000
0000
0320
0000
2030
3002
0000
0000
0023
0000
0000
0230
0000
,
2300
0000
0000
0000
0000
0000
0000
0000
3200
0000
0000
2300
0000
0000
3020
0000
,
0230
0000
0000
0000
0000
0000
0000
0300
,
1001
0000
0000
1010
0000
0000
1001
0000
,
0000
0011
0000
0000
0110
0000
1100
0000
,
1001
0000
0001
0101
0000
0000
1001
0000
,
1000
1100
0000
0000
1001
0000
1010
0000
,
1100
0000
1000
0100
0010
0001
1000
0000
0000
0000
0010
0000
1010
0000
1000
0010
,
0100
0001
1000
0000
0000
0000
0001
0000
0011
0000
0000
0000
0110
0000
0000
0000
,
1001
0000
1000
0100
0010
0001
1000
0000
0000
0000
0001
0000
1001
0000
1000
0010
,
0100
0001
1000
0000
0000
0000
0001
0000
1001
0000
1000
0000
1010
0000
0000
0000
,
0020
0000
1000
0000
0000
0001
0000
0000
,
1000
0000
0000
0000
0130
0001
0010
0100
2000
0000
0000
0000
0000
0000
0000
0000
,
3002
0000
0000
0000
0000
0000
0000
0000
0000
0000
0000
0000
0000
0000
0000
0000
0000
0000
0000
0000
0000
0000
0000
0000
0000
0000
0000
0000
0000
0000
0000
0003
0020
0000
0000
0000
0000
0000
0000
0000
0000
0000
0000
0000
0000
0000
0000
0000
0000
0000
0000
0000
0000
0000
0000
0000
0000
0000
0000
0000
0000
0000
0000
0000
,
003M
0000
M000
0000
00M0
0000
0000
0000
0M00
0000
M000
0M00
00M0
M000
000M
0000
,
M000
0000
0000
0000
,
0000
0000
0020
0000
,
0031
0000
1000
0000
0010
0000
0000
0000
0100
0000
1000
0100
0010
1000
0001
0000
,
1000
0000
0100
0000
0010
0000
0100
0000
1000
0000
0001
0100
0010
1000
0001
0000
,
0010
0000
0001
1000
0010
0100
0001
0000
1000
0000
0100
0000
0001
0000
0100
0000
,
1000
0000
0000
0001
0100
0000
0010
0000
1000
0000
0000
0000
1000
0000
0000
1000
,
0100
0000
0000
0010
0001
1000
0001
0000
0100
0000
0010
0000
0001
0000
0010
0000
,
1000
0000
0001
0010
0100
0010
0001
0000
1000
0000
0001
0100
0010
0100
0001
0000
,
1001
0000
1000
0100
0010
0001
1000
0001
,
0100
0010
0100
0001
0010
0001
0100
0010
,
0001
0010
0100
0001
1000
0100
0010
0001
,
1001
0000
1000
0010
0100
0001
1000
0100
,
1000
0010
0100
1000
0100
0001
0010
0100
,
0001
0100
1000
0010
0110
0000
0101
0000
,
1001
0000
0000
0000
1000
0100
0010
0001
1000
0000
0000
0000
1100
0000
0000
0000
,
1001
0000
0000
0000
0001
0010
0100
1000
0001
0000
0000
0000
0101
0000
0000
0000
,
0100
0001
0100
0000
0001
1000
0001
0000
1000
0100
1000
0000
0001
0100
0001
0000
,
1000
0010
1000
0000
0001
0010
0001
0000
1000
0010
1000
0010
0100
0001
0100
0001
,
0020
0000
0000
0000
0000
0000
0000
0000
0000
0000
0000
0000
0000
0030
0000
0000
,
0000
0000
0000
0000
0000
0000
0000
0000
0001
0010
0100
1000
0000
0000
0000
0000
,
0010
0100
0001
1000
0100
0000
0000
0000
0010
0001
0100
0010
0001
0000
0000
0000
,
0001
0010
0100
0001
1000
0000
0000
0000
0100
0010
0001
1000
0010
0000
0000
0000
,
0010
0100
0001
0010
0100
0000
0000
0000
1000
0001
0010
0001
0100
0000
0000
0000
,
0001
1000
0100
1000
0010
0000
0000
0000
1000
0000
0010
0000
0100
0000
0001
0000
,
1000
0000
0001
1000
0000
1000
0000
0010
,
0000
0100
0001
0000
1000
0000
0000
0001
0010
0000
0100
0000
0010
0000
1000
0000
,
0010
0000
0001
0000
0001
0000
1000
0001
,
0000
0000
0100
0000
0001
1000
0001
1000
0001
0000
0010
0000
0100
0000
1000
0000
,
0010
0000
0100
0001
0000
0001
0000
1000
,
0000
0100
1000
0000
0001
0000
0000
0100
0001
0000
1000
0000
0100
0000
0010
0000
,
0001
0100
0010
0000
1020
0000
0000
0000
,
0000
0000
0130
0001
1000
0000
0100
1000
0001
0000
0100
0000
0001
0000
1000
0000
,
0020
0000
0000
0000
0000
0000
0130
0001
0020
0000
0000
0000
0000
0000
0001
0000
,
0000
0000
0130
1000
0020
0000
0000
0031
,
0010
1000
0100
0001
0200
0000
0000
1300
,
0001
0000
0100
0001
1000
0000
0100
1000
0002
0000
0000
0000
0000
0000
0100
0000
,
0000
1003
0010
1000
0200
0000
0000
0320
,
0000
0130
1000
0001
1000
0100
0010
0001
,
0100
0001
0010
0100
2000
0000
0000
3010
,
0100
0000
0010
1000
0001
0000
0010
0001
1000
0000
0100
0000
1000
0000
0001
0000
,
0100
0000
0001
0000
0010
0000
0100
0000
1000
0000
0001
0000
0000
0000
1000
0100
,
1000
0001
0100
0010
0001
0010
0000
0100
,
0001
0010
0100
0010
1000
0010
0000
0100
,
1000
0000
0001
1000
0010
0000
0100
0001
0100
0000
0001
0000
0000
0000
0010
0000
,
0100
1000
0001
0100
0001
0010
0100
0010
,
1000
0010
0100
1000
0001
0100
0000
0001
,
0010
0100
0001
0100
0010
0001
1000
0010
,
1000
0000
0010
1000
0001
0000
0000
0000
1000
0000
0001
0010
0100
0000
0010
0001
,
1000
0000
0010
0100
0001
0100
0010
1000
0001
0000
0010
0100
1000
0000
0100
0010
,
0001
0000
0010
0100
0001
0100
0010
0001
1000
0000
0010
0100
0001
0000
0100
0010
,
1000
0000
0001
0010
0100
1000
0100
0010
0001
0000
1000
0010
0100
0000
0001
0010
,
0100
1000
0010
0100
2000
0000
0000
0000
0000
0000
0000
0000
0000
0000
0000
0000
,
0000
3000
0000
0000
;
