#TITLE:Autoscopy;
#SUBTITLE:;
#ARTIST:妖精帝國;
#TITLETRANSLIT:;
#SUBTITLETRANSLIT:;
#ARTISTTRANSLIT:Yousei Teikoku;
#GENRE:;
#CREDIT:;
#BANNER:;
#BACKGROUND:;
#LYRICSPATH:;
#CDTITLE:;
#MUSIC:Autoscopy.ogg;
#OFFSET:-0.176415;
#SAMPLESTART:44.967999;
#SAMPLELENGTH:12.000000;
#SELECTABLE:YES;
#BPMS:0.000000=150.000000
,185.000000=149.203995
,189.500000=150.000000
;
#STOPS:
;
#BGCHANGES:;
#KEYSOUNDS:;
#ATTACKS:;

//---------------dance-single - ----------------
#NOTES:
     dance-single:
     :
     Hard:
     17:
     0.887292,0.933308,0.234933,0.925049,1.068211,846.000000,814.000000,32.000000,126.000000,1.000000,0.000000,0.887292,0.933308,0.234933,0.925049,1.068211,846.000000,814.000000,32.000000,126.000000,1.000000,0.000000:
0000
0000
0000
0000
,
0000
0000
0000
0000
,
0000
0000
0000
0000
,
0000
0000
0000
0000
,
0001
0000
0100
0000
0010
1000
0000
0010
1000
0000
0100
0000
0010
0001
0000
0010
,
0001
0000
0000
1000
0001
0100
0000
0010
0100
0001
0000
0010
0100
0010
0001
1000
,
0100
0000
1000
0000
0010
0100
0000
0100
0001
0010
0100
0000
1000
0000
0001
0000
,
0100
0010
0100
0010
0200
0000
0000
0000
0310
1000
0100
0010
0001
1000
0010
0100
,
0002
0000
1003
0010
0000
0100
0020
0000
2030
0000
3001
0010
0000
0100
0020
0000
,
0032
0000
1003
0010
0000
0100
0010
1000
0001
1000
0100
1000
0001
1000
0100
1000
,
0002
0000
0013
0001
0000
1000
0020
0000
0230
0000
0310
1000
0000
0001
0020
0000
,
0230
0000
1300
0001
0000
0100
0020
0000
1030
0001
0010
0001
1000
0001
0010
0001
,
2000
0000
3100
0010
0000
0001
0200
0000
0302
0000
0103
0010
0000
1000
0200
0000
,
2300
0000
3010
0100
0000
0001
0010
0100
1000
0010
0100
0010
1000
0001
0100
0001
,
2000
0000
3100
0001
0000
0100
0020
0000
0032
0000
0103
1000
0000
0100
0020
0000
,
1030
0100
0010
0001
1000
0100
0010
0001
1000
0010
0100
0001
0010
0100
0000
0000
,
1000
0000
0001
0010
0001
0000
0010
0000
0100
0000
1000
0010
1000
0000
0010
0000
,
0100
0001
0010
0000
0100
0010
0001
0100
0020
0000
2030
0000
3002
0000
0013
0000
,
0100
0000
1000
0001
0010
0001
1000
0010
0200
0000
0302
0000
0023
0000
0230
0000
,
1300
0000
0100
0010
0001
0000
0100
0010
2000
0000
3002
0000
0013
0100
0010
0100
,
1000
0000
0001
0010
0100
0000
1000
0100
0020
0000
0032
0000
2003
0000
3020
0000
,
0130
0000
0001
0100
0010
1000
0010
0100
0002
0000
0023
0000
0230
0000
0310
0001
,
1000
0000
0010
1000
0200
0000
0320
0000
0032
0000
0203
0000
0320
0000
2030
0000
,
3001
0000
0001
0000
0100
0010
1000
0000
0100
1000
0010
1000
0100
1000
0010
1000
,
0001
0010
0100
0010
0000
0001
1000
0000
0010
1000
0010
0100
0000
0001
0100
0000
,
0001
1000
0100
1000
0000
0100
0010
0000
0001
0010
0001
1000
0000
0001
0100
0000
,
0010
0100
0001
1000
0000
0010
1000
0000
0100
0010
0001
1000
0000
0001
0100
0000
,
0010
1000
0001
0010
0000
0100
0010
0000
0011
0000
0110
0000
1001
0000
0000
0000
,
2000
0000
0000
3002
0000
0000
0023
0000
0000
0000
0230
0000
0310
1000
0000
0010
,
0002
0000
0000
2003
0000
0000
3020
0000
0000
0000
0230
0000
0310
0001
0000
0010
,
2000
0000
0000
3200
0000
0000
0320
0000
0000
0000
0230
0000
0310
1000
0000
0010
,
0002
0000
0000
0000
1003
0010
0000
0001
0000
0010
0100
0000
0001
0010
0000
0100
,
0020
0000
0000
0230
0000
0000
0302
0000
0000
0000
2003
0000
3010
0100
0000
1000
,
0020
0000
0000
0230
0000
0000
2300
0000
0000
0000
3002
0000
0013
0100
0000
0001
,
0020
0000
0000
0230
0000
0000
0302
0000
0000
0000
2003
0000
3010
0100
0000
1000
,
0020
0000
0000
0000
1030
0100
0000
0001
0100
0000
1000
0100
0000
0001
0100
0000
,
0020
0000
0031
0100
0000
1000
0100
0000
0001
0100
0000
1000
0100
0000
0001
0010
,
0100
0000
1100
0000
1000
0001
0100
0000
0101
0000
0001
0010
0100
0000
1100
0000
,
1000
0010
0100
0000
0110
0000
0010
1000
0100
0000
0010
0001
0100
0000
0001
0010
,
0000
0001
0100
0001
0100
0000
0010
1000
0000
0100
1000
0100
1000
0000
0001
0010
,
0000
0100
2000
0000
3002
0000
0103
0000
0020
0000
1030
0100
0010
0000
0020
0000
,
0031
0000
1000
0001
0100
0000
0200
0000
0310
0000
1000
0001
0010
0000
0020
0000
,
0130
0000
1000
0001
0100
0001
1000
0100
0020
0000
0031
1000
0000
1000
0010
0000
,
0100
0000
0010
0100
0001
0000
0010
0000
0110
0000
0100
1000
0001
0100
0010
1000
,
0001
0010
0001
0010
0100
1000
0100
1000
0002
0000
0000
0000
0000
0000
0000
0000
,
0003
0000
0000
0000
0000
0000
0000
0000
1000
0001
0010
0001
1000
0000
0001
1000
,
0010
1000
0001
0000
0100
0010
1000
0001
0010
0000
0100
1000
0001
0100
0010
0000
,
1000
0010
1000
0010
0100
0001
1000
0100
0010
0000
0100
0010
0001
0000
0010
0001
,
1000
0000
0001
1000
0010
0000
0220
0000
0330
0000
0001
0010
0100
0000
0010
0100
,
1000
0000
0100
1000
0002
0000
0203
0000
0320
0000
1030
0100
0010
0000
0100
0010
,
0001
0000
0010
0001
1000
0000
2020
0000
3030
0000
0001
0100
0010
0000
0100
0010
,
1000
0000
0010
1000
0001
1000
0010
0000
0120
0000
1030
0001
0020
0000
0031
1000
,
0020
0000
1030
0001
0010
0000
0220
0000
0330
0000
1000
0001
0200
0000
0301
1000
,
0200
0000
1300
0001
0200
0000
0301
1000
0020
0000
1030
0001
0020
0000
0031
1000
,
0020
0000
1030
0001
0010
0000
0220
0000
0330
0000
0001
0010
0200
0000
1300
0001
,
0200
0000
0310
1000
0200
0000
0320
0000
0032
0000
0103
0010
0002
0000
1003
0100
,
0002
0000
1003
0100
0001
0000
0220
0000
0300
0030
0001
0010
2000
0000
3010
0100
,
2000
0000
3001
0100
2000
0000
3100
0010
0002
0000
1003
0100
0002
0000
0013
0100
,
0002
0000
1003
0010
0001
0000
0220
0000
0300
0030
0001
0100
2000
0000
3001
0010
,
1000
0001
0100
0000
0100
0000
0010
0000
0210
0000
0000
0000
0000
0000
0301
0000
,
0010
0000
1000
0010
0000
0001
1000
0010
,
0100
0100
0010
0010
0120
0000
0000
1030
,
0100
0000
0001
0100
0000
1000
0010
0100
,
0001
0001
0010
0010
0210
0000
0000
1300
,
0010
0000
0001
0010
0000
1000
0100
0010
,
0001
0001
1000
1000
1002
0000
0000
0103
,
1000
0000
0100
0001
0000
0010
0100
1000
,
0010
0010
0100
0100
0001
0010
0000
1000
,
0010
0000
0000
0000
0000
0000
0000
0000
0011
0000
0110
0000
1000
0001
0101
0000
,
0110
0000
0010
1000
1001
0000
0011
0000
0010
0100
1100
0000
1001
0000
0001
0100
,
00M0
0100
0000
1000
0001
0000
1000
0100
1000
0000
0100
0010
0000
0001
1000
0001
,
0100
0000
0010
1000
0000
0001
1000
0001
0010
0000
0100
1000
0000
0001
0200
0000
,
0320
0000
1030
0000
0002
0000
0013
0100
1000
0000
1100
0000
0001
0000
1000
0010
,
0100
0000
0101
0000
1000
0000
0001
0010
0100
0000
0110
0000
1000
0000
0001
0100
,
0010
0100
0001
1000
0020
0000
0100
0000
0130
0000
0010
0000
0100
0000
0001
1000
,
0010
0000
1000
0001
0010
0000
0001
0100
0010
0100
0010
1000
0001
0010
0100
1000
,
0001
0100
0010
0000
0110
0000
0000
1000
0100
1000
0000
1000
0010
0000
1000
0000
,
0001
0010
0000
0010
0100
0000
0000
1000
0100
1000
0000
1000
0001
1000
0000
1000
,
0010
0100
0001
0000
0000
0000
0001
0000
1000
0001
0000
0001
0010
0001
0100
0000
,
0001
0000
0001
0000
0100
0001
0000
0000
0010
0001
0000
0000
1000
0000
0001
0010
,
0100
1000
0001
0100
0010
0000
0000
0100
0010
0100
0000
0100
1000
0000
0100
0000
,
0100
0010
0000
0100
0001
0000
0000
0010
0001
0010
0000
0010
0100
0010
0000
0010
,
1000
0010
0100
0000
0000
0000
0100
0000
1000
0100
0000
0100
0010
0100
0001
0000
,
0100
0000
0000
0000
0000
0000
0100
0000
0000
0000
0000
0000
0010
0000
0000
0001
0000
0000
1000
0000
0100
0000
1000
0000
0100
0000
0000
0010
0000
0000
0001
0000
1000
0000
0001
0000
1000
0000
0000
0000
0000
0000
0010
0000
0000
1000
0000
0000
,
0001
0010
0100
1000
2002
0000
0000
0000
0000
0000
0000
0000
3003
0000
0000
0000
;

//---------------dance-single - ----------------
#NOTES:
     dance-single:
     :
     Medium:
     14:
     0.603065,0.715536,0.132150,1.042516,0.392779,575.000000,557.000000,18.000000,142.000000,0.000000,0.000000,0.603065,0.715536,0.132150,1.042516,0.392779,575.000000,557.000000,18.000000,142.000000,0.000000,0.000000:
// measure 0
0000
0000
0000
0000
,  // measure 1
0000
0000
0000
0000
,  // measure 2
0000
0000
0000
0000
,  // measure 3
0000
0000
0000
0000
,  // measure 4
0001
0100
0010
0000
1000
0100
0010
0000
,  // measure 5
0100
0100
0010
0001
0100
0010
1000
0000
,  // measure 6
0001
0010
0100
0000
1000
0010
0100
0000
,  // measure 7
0001
1000
0001
1000
0001
0000
0000
0000
1000
0000
0100
0000
0010
0000
0001
0000
,  // measure 8
2000
0010
3000
0010
0200
0010
0300
0010
,  // measure 9
2000
0001
3000
0001
0020
0100
0030
0100
,  // measure 10
0002
0100
0003
0100
2000
0010
3000
0010
,  // measure 11
0200
0010
0300
0010
0002
0010
0013
0100
,  // measure 12
0002
0010
0003
0010
0200
0010
0300
0010
,  // measure 13
0002
1000
0003
1000
0020
0100
0030
0100
,  // measure 14
2000
0100
3000
0100
0002
0010
0003
0010
,  // measure 15
0200
0320
0032
1003
,  // measure 16
1000
0010
0010
0100
0010
1000
0100
0010
,  // measure 17
0100
1000
0100
0000
0010
0000
0001
1000
0001
0000
0100
0000
0010
0000
0000
0000
,  // measure 18
0100
0000
0001
0100
0001
0000
1000
0000
0100
0000
0001
0000
0100
0000
1000
0000
,  // measure 19
0100
0000
0010
0001
0010
0000
0001
0100
0001
0000
1000
0000
0010
0000
0000
0000
,  // measure 20
1000
0000
0100
0010
0100
0000
0001
0000
0100
0000
1000
0000
0001
0000
0100
0000
,  // measure 21
0010
0000
0100
0010
0100
0000
1000
0000
0100
0000
0001
0000
1000
0000
0001
0010
,  // measure 22
0100
0000
1000
0100
1000
0000
0010
0000
0100
0000
0010
0000
0001
0000
0010
0000
,  // measure 23
1000
0000
1000
0000
0001
0000
0001
0000
0010
0100
0010
0000
0001
0000
0001
0000
,  // measure 24
1000
0100
0000
1000
0000
0000
0000
0000
0001
0010
0000
0001
0000
0000
0000
0000
,  // measure 25
1000
0010
0000
1000
0000
0000
0000
0000
0001
0100
0000
0001
0000
0000
0000
0000
,  // measure 26
1000
0100
0000
0010
0000
0000
0000
0000
0001
1000
0000
0010
0000
0000
0000
0000
,  // measure 27
0100
0001
0000
0010
0000
0000
0000
0000
0100
0000
0010
0000
0110
0000
0000
0000
,  // measure 28
0002
0000
0000
0203
0000
0000
0320
0000
0000
0000
2030
0000
0000
0000
0000
0000
,  // measure 29
3200
0000
0000
0320
0000
0000
0032
0000
0000
0000
2003
0000
0000
0000
0000
0000
,  // measure 30
3020
0000
0000
2030
0000
0000
3200
0000
0000
0000
0320
0000
0000
0000
0000
0000
,  // measure 31
0032
0000
0000
0000
1003
0010
0000
0100
0000
0010
1000
0000
0001
0010
0000
0100
,  // measure 32
2000
0000
0000
3020
0000
0000
0230
0000
0000
0000
2000
0000
3000
0000
0000
0000
,  // measure 33
0302
0000
0000
0023
0000
0000
0230
0000
0000
0000
0002
0000
0003
0000
0000
0000
,  // measure 34
0320
0000
0000
0032
0000
0000
0203
0000
0000
0000
2000
0000
3000
0000
0301
0000
,  // measure 35
0020
0000
0000
0000
0130
1000
0000
0100
1000
0000
0100
1000
0000
0100
1000
0000
,  // measure 36
0020
0000
0130
0001
0000
0100
0001
0000
0100
0001
0000
0100
0001
0000
0000
0000
,  // measure 37
0101
0101
0000
1100
1100
0000
1010
1010
,  // measure 38
0000
0000
0011
0000
0011
0000
0000
0000
1000
0000
0001
0000
0001
0000
0100
0010
,  // measure 39
0000
0000
1000
0000
1000
0000
0100
0010
0000
0000
0001
0000
0001
0000
1000
0010
,  // measure 40
0000
0100
0001
0000
0020
0000
0130
1000
,  // measure 41
0000
0001
1000
0020
0000
0130
0001
0020
,  // measure 42
0000
0130
0010
0001
2000
0010
0000
3010
,  // measure 43
0100
0000
1000
0000
0100
0000
0001
0000
1000
0000
0000
0000
0001
0000
0000
0010
,  // measure 44
0100
1000
0001
0000
0200
0000
0000
0000
,  // measure 45
0300
0000
0000
0000
0000
0000
0000
0000
0010
1000
0010
0000
0100
0000
0001
0100
,  // measure 46
0001
0000
0100
0000
0001
1000
0001
0000
1000
0000
0100
1000
0100
0000
1000
0000
,  // measure 47
0100
0010
0001
1000
0020
0031
0020
1030
,  // measure 48
0020
0031
0020
0230
0000
0301
0020
1030
,  // measure 49
0020
0031
0010
0010
0010
0001
0200
1300
,  // measure 50
0200
0301
0200
0320
0000
0130
0020
0031
,  // measure 51
0020
0000
1030
0000
0001
0020
0000
0000
0230
0000
1300
0000
0200
0000
0301
0000
,  // measure 52
0200
1300
0200
0320
0000
0031
0200
1300
,  // measure 53
0200
0310
0200
0301
0020
1030
0020
0031
,  // measure 54
0020
1030
0020
0230
0000
1300
0020
0031
,  // measure 55
0020
0000
1030
0000
0010
0000
0010
0000
0020
0000
1030
0100
2000
0000
3100
0010
,  // measure 56
0200
0000
0310
0001
0020
0000
0032
0000
0000
0000
0103
0010
0200
0000
0310
1000
,  // measure 57
0020
0000
1030
0001
2000
0000
3100
0010
0002
0000
1003
0001
2000
0000
3001
0100
,  // measure 58
0002
0000
0103
0010
2000
0000
3002
0000
0000
0000
1003
0100
0020
0000
0031
0000
,  // measure 59
1000
0001
0100
0010
0200
0000
0000
0000
,  // measure 60
2300
3200
0302
2003
,  // measure 61
3200
0302
0203
2300
,  // measure 62
3020
0230
0302
0023
,  // measure 63
0230
2300
3020
0000
,  // measure 64
0032
0023
2030
3002
,  // measure 65
0023
2030
3020
0032
,  // measure 66
0203
0320
2030
3200
,  // measure 67
0320
0000
0032
0000
1003
1000
0000
0001
,  // measure 68
0001
0000
0000
0000
1010
0110
0000
0101
,  // measure 69
0011
0000
0110
1100
0000
1010
1001
0000
,  // measure 70
0000
0000
0000
0000
1000
0000
0100
0000
0100
0000
0010
0001
0000
0000
0100
0000
,  // measure 71
0100
0000
0010
1000
0000
0000
0001
0000
0001
0000
0010
0100
0000
0000
1000
0000
,  // measure 72
0002
0000
2003
0010
3020
0230
1000
2300
,  // measure 73
3200
0302
1003
2000
3200
0320
0031
0002
,  // measure 74
0203
0320
2030
0001
3001
0010
0100
2000
,  // measure 75
3002
0000
0203
0000
0320
0000
0000
0000
2030
0000
0000
3100
0010
0000
0001
0000
,  // measure 76
1000
0000
0000
0000
1001
0000
0000
0001
0000
0100
0000
0001
1000
0000
0100
0000
,  // measure 77
1000
0100
0000
1000
0010
0000
0000
0100
0000
0001
0000
0100
0001
1000
0000
0100
,  // measure 78
1000
0001
1000
0000
0000
0000
0001
0000
0000
0010
0000
0100
0000
0010
0001
0000
,  // measure 79
1000
0000
0001
0000
0010
0100
0000
0000
1000
0001
0000
0000
0010
0000
0001
0100
,  // measure 80
0010
0100
0001
0100
0010
0000
0000
1000
0000
0100
0000
1000
0001
0000
0100
0000
,  // measure 81
0001
0100
0000
0001
0010
0000
0000
0100
0000
1000
0000
0100
1000
0001
0000
0100
,  // measure 82
0001
1000
0001
0000
0000
0000
1000
0000
0000
0010
0000
0100
0000
0010
1000
0000
,  // measure 83
0001
0000
1000
0000
0010
0100
0010
0000
1000
0001
1000
0000
0010
0000
1000
0100
,  // measure 84
0010
0001
0010
0100
2000
0000
0000
0000
0000
0000
0000
0000
3000
0000
0000
0000
;

//---------------dance-single - ----------------
#NOTES:
     dance-single:
     :
     Easy:
     10:
     0.449939,0.559985,0.455183,0.256958,0.022025,429.000000,367.000000,62.000000,35.000000,0.000000,0.000000,0.449939,0.559985,0.455183,0.256958,0.022025,429.000000,367.000000,62.000000,35.000000,0.000000,0.000000:
0000
0000
0000
0000
,
0000
0000
0000
0000
,
0000
0000
0000
0000
,
0000
0000
0000
0000
,
0001
0100
0001
0000
1000
0100
1000
0000
,
0100
0010
0001
1000
,
0001
0100
0001
0000
1000
0100
1000
0000
,
0002
1003
2002
3003
,
2000
0000
3000
0001
0100
0000
0000
0001
,
1000
0000
0000
0100
1000
0000
0000
0100
,
0010
0000
0000
0001
1000
0000
0000
0010
,
0100
0000
0000
0001
1000
0000
0000
0100
,
0010
0000
0000
0010
0001
0000
0000
0001
,
1000
0000
0000
1000
0010
0000
0000
1000
,
0100
0000
0000
0100
0010
0000
0000
0010
,
0002
2003
3020
0230
,
0301
0000
0010
0000
0100
1000
0100
0000
,
1000
0010
0100
0000
0001
1000
0001
0000
,
1000
0000
0100
0000
0001
0100
1000
0000
,
0001
0100
0010
0000
1000
0001
1000
0000
,
0010
0000
0100
0000
0001
0100
0001
0100
,
0010
0000
1000
0000
0100
0010
0100
0010
,
0001
0000
1000
0000
0001
0100
0001
0000
,
1000
0100
1000
0000
0010
0000
1001
0000
,
0001
0100
0001
0000
0100
0010
0100
0000
,
0010
1000
0010
0000
1000
0001
1000
0000
,
0100
1000
0100
0000
0010
0100
0010
0000
,
0001
0010
0001
0000
1000
0010
0100
0000
,
0001
0000
0000
0001
0000
0000
0002
0000
0000
0000
0000
0000
1003
0000
0000
0000
,
1000
0000
0000
1000
0000
0000
2000
0000
0000
0000
0000
0000
3010
0000
0000
0000
,
0010
0000
0000
0010
0000
0000
0020
0000
0000
0000
0000
0000
0130
0000
0000
0000
,
0200
0000
0301
0000
1000
0000
0001
0010
,
0100
0000
0000
1000
0000
0000
0200
0000
0000
0000
1300
0000
0000
0000
0000
0000
,
0001
0000
0000
0100
0000
0000
0002
0000
0000
0000
0103
0000
0000
0000
0000
0000
,
0010
0000
0000
1000
0000
0000
0020
0000
0000
0000
0230
0000
0000
0000
0000
0000
,
0301
0010
0110
0011
,
1000
0010
0110
1010
,
0001
0001
0000
1000
1000
0000
0100
0100
,
0000
0010
0010
0000
0001
0010
0001
0000
,
0010
0100
1000
0000
0010
1000
0010
0000
,
0100
0001
1000
0000
0002
0000
0010
0000
,
0100
1003
2000
0010
,
0100
3001
0002
1000
,
1003
0010
0100
0001
1000
0000
0001
0000
,
0010
0100
1000
0000
2002
0000
0000
0000
,
3003
0000
0000
0000
0101
0000
0000
1100
,
0000
0000
1001
0000
0000
0110
0000
0000
,
1001
0000
0001
1000
0100
0000
1100
0000
,
1100
0000
0010
0002
0000
0103
0010
0000
,
0110
0000
0100
0010
0100
0000
1010
0000
,
1010
0000
0100
0002
0000
1003
0001
0000
,
0011
0011
1100
1100
,
1100
0000
0001
0200
0000
0310
1000
0000
,
1010
1010
0101
0101
,
0101
0000
1000
0200
0000
0310
0001
0000
,
0011
0000
1000
0001
0100
0000
0101
0000
,
1001
0000
0001
0200
0000
0310
1000
0000
,
1010
1001
0011
1001
,
0101
0000
0100
0020
0000
1030
0100
1000
,
0100
0010
0001
1000
0002
0000
0000
0000
,
0103
0010
1000
0100
,
0010
0001
0100
0001
,
0100
0010
1000
0001
,
0010
0100
2000
0000
,
3100
0010
0001
0100
,
0010
1000
0100
1000
,
0100
0010
0001
1000
,
0010
0100
0002
0000
,
0003
0000
0000
0000
1000
0010
0000
0100
,
0001
0000
0010
0100
0000
1000
0001
0000
,
0000
0000
1000
0100
0010
0000
0001
1000
,
0010
0000
0100
0001
0100
0000
0010
1000
,
0001
0200
0010
1000
,
0310
0020
0001
0100
,
1030
0000
2000
0000
0001
0000
3001
0010
,
0100
1000
0001
0000
1000
0000
0100
0010
,
0001
1001
1001
1100
,
1100
1001
1001
0101
,
0001
0100
0000
0000
1010
0000
1100
0000
,
1100
0011
0011
0101
,
0101
1001
1001
0101
,
0101
1001
1001
1100
,
1000
0100
0000
0000
0011
0000
0101
0000
,
0101
0000
0110
0000
1001
0000
1000
0100
,
0010
0001
2002
0000
0000
0000
3003
0000
;
