#VERSION:0.83;
#TITLE:アタシは問題作;
#SUBTITLE:;
#ARTIST:Ado;
#TITLETRANSLIT:Atashi wa Mondai Saku;
#SUBTITLETRANSLIT:;
#ARTISTTRANSLIT:;
#GENRE:;
#ORIGIN:;
#CREDIT:;
#BANNER:Atashi wa Mondai Saku.png;
#BACKGROUND:Atashi wa Mondai Saku-bg.png;
#PREVIEWVID:;
#JACKET:Atashi wa Mondai Saku-jacket.png;
#CDIMAGE:;
#DISCIMAGE:;
#LYRICSPATH:;
#CDTITLE:;
#MUSIC:Atashi wa Mondai Saku.ogg;
#OFFSET:-1.042806;
#SAMPLESTART:38.694458;
#SAMPLELENGTH:12.799999;
#SELECTABLE:YES;
#DISPLAYBPM:150.000000;
#BPMS:0.000=150.000,
27.000=300.000,
27.500=150.000,
27.750=75.000,
28.000=150.000,
35.000=300.000,
35.500=150.000,
43.000=300.000,
43.500=150.000,
43.750=75.000,
44.000=150.000,
51.000=300.000,
52.000=150.000,
90.000=75.000,
90.250=150.000,
90.500=300.000,
92.000=150.000,
219.000=75.000,
219.500=150.000,
233.000=75.000,
233.250=150.000,
233.500=300.000,
234.000=150.000;
#STOPS:19.000=1.200,
35.000=0.100,
51.000=0.200,
91.000=0.200,
255.500=2.000;
#DELAYS:;
#WARPS:;
#TIMESIGNATURES:0.000=4=4;
#TICKCOUNTS:0.000=4;
#COMBOS:0.000=1;
#SPEEDS:0.000=1.000=0.000=0;
#SCROLLS:0.000=1.000;
#FAKES:;
#LABELS:0.000=Song Start;
#BGCHANGES:;
#KEYSOUNDS:;
#ATTACKS:
;

//---------------dance-single - ----------------
#NOTEDATA:;
#CHARTNAME:;
#STEPSTYPE:dance-single;
#DESCRIPTION:;
#CHARTSTYLE:;
#DIFFICULTY:Hard;
#METER:15;
#RADARVALUES:0.687284,0.747595,0.554099,0.738799,0.466147,547.000000,484.000000,63.000000,84.000000,0.000000,0.000000,0.000000,0.000000,0.000000,0.687284,0.747595,0.554099,0.738799,0.466147,547.000000,484.000000,63.000000,84.000000,0.000000,0.000000,0.000000,0.000000,0.000000;
#CREDIT:;
#DISPLAYBPM:150.000000;
#NOTES:
0000
0000
0000
0000
,
0000
0000
0000
0000
,
0000
0000
0000
0000
,
0000
0000
0000
0000
,
0000
0000
0000
0000
0000
0000
0000
1000
,
0001
0000
0000
0001
0000
0000
0100
0000
0010
0000
0000
1002
0000
0000
0013
0000
,
0100
0000
0000
0100
0000
0000
1000
0000
0001
0100
0001
0100
0002
0000
0000
0000
,
0103
0000
0010
0000
1000
0000
0100
0000
0010
0000
0000
0100
0000
0000
1000
0000
,
1100
0000
0000
0101
0000
0000
0110
0000
0102
0000
0000
0000
0023
0000
0130
0000
,
0010
0000
0000
0010
0000
0000
0001
0000
1000
0000
0000
2010
0000
0000
3001
0000
,
0100
0000
0000
0100
0000
0000
0010
0000
1000
0100
1000
0100
2000
0000
0000
0000
,
3100
0000
0010
0000
0001
0000
0100
0000
0010
0000
0000
1000
0000
0000
0001
0000
,
0011
0000
0000
0110
0000
0000
1100
0000
0201
0000
0310
1000
0001
0000
0000
0000
,
2100
0000
0000
0000
3001
0000
0010
0000
0100
0000
0010
0001
1000
0000
0010
0000
,
0100
0000
0010
1000
0001
0000
0010
0000
0011
0000
1010
0000
2002
0000
3003
0000
,
0102
0000
0000
0000
1003
0000
0100
0000
0010
0000
0001
0100
0010
0000
0100
0000
,
0010
0000
1000
0100
0010
0000
0100
0000
1100
0000
0101
0000
2002
0000
3003
0000
,
0201
0000
0310
2000
0001
3000
1000
0100
,
0220
0000
0330
0022
0000
0033
2020
0000
0030
0000
3001
0000
0100
0000
0010
0000
,
0110
0000
0220
0000
0300
0000
0030
0000
1000
0000
0000
0000
0001
0010
0100
1000
,
0001
0000
2002
0000
0003
0000
3000
0000
0010
0000
0000
0000
1000
0100
0010
0001
,
1000
1000
0010
0010
,
0100
0000
0100
0000
0010
1000
0100
0010
0002
0000
0000
0000
2003
0000
0000
0000
,
3010
0000
1000
0001
0010
0000
0100
0000
0010
0000
0001
0000
1100
0000
0000
0000
,
0010
0000
0001
1000
0010
0000
0100
0000
0010
0000
1000
0000
0101
0000
0100
0000
,
0110
2000
0000
3100
0110
0002
0000
0203
,
0010
0000
0302
0000
0010
0000
2003
0000
0010
0000
3001
0000
1000
0100
0010
0001
,
0010
0000
0001
1000
0010
0000
0100
0000
0010
0000
1000
0000
0101
0000
0000
0000
,
0010
0000
1000
0001
0010
0000
0100
0000
0010
0000
0001
0000
1100
0000
0100
0000
,
0110
0002
0000
0103
0110
2000
0000
3020
,
0100
0000
2030
0000
0100
0000
3002
0000
0100
0000
1003
0000
0001
0010
0100
1000
,
0001
0000
1000
0100
1000
0000
0001
0100
0001
0000
1000
0100
1000
0000
0001
0100
,
0001
0000
1000
0100
1000
0000
0010
0000
0000
0000
1002
0000
0000
0000
0103
0000
,
0001
0000
1000
0010
1000
0000
0001
0100
0001
0000
1000
0100
1000
0000
0001
0010
,
0001
0000
1000
0010
1000
0000
0002
0000
0000
0000
1003
0100
0010
0001
0100
0010
,
1000
0000
0010
1000
0001
0000
1000
0000
0100
0000
0010
0000
1100
0000
0000
0000
,
0001
0000
0010
0001
1000
0000
0001
0000
0100
0000
0010
0000
0101
0000
0001
0000
,
0010
0200
1000
0000
0300
0000
1000
0000
0010
0200
0001
0000
0300
0000
1000
0000
,
2200
3300
2200
3300
2020
3030
0202
0303
,
2000
0000
3001
0010
0000
0100
0010
0000
0000
0100
1000
0000
0010
0000
0110
0000
,
0002
0000
1003
0100
0000
0010
0100
0000
0000
0010
0001
0000
0100
0000
0110
0000
,
0020
0000
1030
0001
0000
0000
0011
0000
0020
0000
0031
1000
0000
0000
1010
0000
,
1100
0000
0000
1100
0000
0000
0101
0000
0000
0001
0100
0000
0001
0010
0100
0000
,
2000
0000
3100
0010
0000
0010
0001
0000
0000
1000
0001
0000
0100
0000
0110
0000
,
0002
0000
0013
0100
0000
0100
1000
0000
0000
0001
1000
0000
0010
0000
0110
0000
,
2000
0000
3100
0010
0000
0000
0110
0000
0002
0000
0103
0010
0000
0000
0110
0000
,
2000
0000
3001
0010
0000
0100
1000
0000
0001
0100
0000
0001
0010
0100
0010
0100
,
2000
0100
0000
0100
,
3002
0100
0000
0100
,
2003
0000
0010
0010
0000
0000
0010
0010
,
3002
0000
0010
0000
0000
0000
0010
0000
0000
0000
0010
0000
0010
0000
0013
0100
,
2000
0000
0010
0000
0001
0001
0001
0000
,
3002
0000
0010
0000
1000
1000
1003
0000
,
2200
0000
0000
3300
0202
0000
0000
0300
,
0100
0000
0000
0000
2003
0000
0000
0000
0100
0000
0000
0000
3002
0000
0000
0000
0100
0000
0000
0000
1003
0000
0000
0000
0001
0010
0100
1000
0001
0000
0000
0000
,
1000
0100
0010
0000
0001
0100
0010
0000
1000
0100
0010
0000
0001
0100
0010
0000
,
1000
0100
0010
0000
0001
0000
0000
0000
1002
0000
0000
0000
0103
0000
0010
0000
,
0100
0001
0010
0000
0100
1000
0010
0000
0100
0001
0010
0000
0100
1000
0010
0000
,
0100
0001
0010
0000
0200
0000
0000
0000
1300
0010
0100
0001
0010
0100
1000
0000
,
0001
0100
1000
0000
0100
0000
0110
0000
0001
0000
1100
0000
0000
0000
0001
0000
,
1000
0100
0001
0000
0100
0000
0110
0000
1000
0000
0101
0000
0100
0000
0001
1000
,
0020
0000
0000
0000
1030
0001
0010
0000
0020
0000
0000
0000
0130
0000
2100
0000
,
3001
0102
2000
0000
0003
3010
0000
0102
,
1003
2100
0002
0000
3000
0013
0000
0220
,
0330
0000
0002
0000
1003
0100
0010
0001
0100
0010
1000
0000
0000
1000
0001
0000
,
0010
0000
0000
0100
0010
0000
0001
0000
0000
0000
0100
0000
0000
0100
0010
0000
,
0100
0000
0000
0000
0000
0000
0100
0000
0000
0000
0001
0000
0000
0001
0010
0000
,
0100
0000
0000
0010
0001
0000
1000
0000
0000
0000
0010
0000
1000
0100
0020
0000
,
1030
0000
0000
0000
;

//---------------dance-single - ----------------
#NOTEDATA:;
#CHARTNAME:;
#STEPSTYPE:dance-single;
#DESCRIPTION:;
#CHARTSTYLE:;
#DIFFICULTY:Medium;
#METER:11;
#RADARVALUES:0.482481,0.568172,0.175905,0.492533,0.109940,384.000000,364.000000,20.000000,56.000000,0.000000,0.000000,0.000000,0.000000,0.000000,0.482481,0.568172,0.175905,0.492533,0.109940,384.000000,364.000000,20.000000,56.000000,0.000000,0.000000,0.000000,0.000000,0.000000;
#CREDIT:;
#DISPLAYBPM:150.000000;
#NOTES:
0000
0000
0000
0000
,
0000
0000
0000
0000
,
0000
0000
0000
0000
,
0000
0000
0000
0000
,
0000
0000
0000
0000
,
1000
0000
0001
0100
0000
0100
0010
1000
,
0001
0000
0001
0010
0200
0000
1300
0000
,
1000
0000
0010
0000
1000
0000
0100
0000
0010
0000
0000
0001
0000
0000
1000
0000
,
0010
0000
0000
0110
0000
0000
0100
0000
0020
0000
0000
0000
1030
0000
0000
0000
,
0001
0000
1000
0010
0000
0010
0100
0001
,
1000
0000
1000
0100
0020
0000
0031
0000
,
0001
0000
0100
0000
0001
0000
0010
0000
0100
0000
0000
1000
0000
0000
0001
0000
,
0100
0000
0000
0110
0000
0000
0010
0000
0200
0000
0000
0000
0301
0000
0000
0000
,
2000
0000
3001
0100
1000
0100
0001
0100
,
0010
1000
0100
0010
0001
0001
0021
0000
,
0032
0000
1003
0100
0001
0100
1000
0100
,
0010
0001
0100
0010
1000
1000
1020
0000
,
0230
0000
0000
0302
0000
0000
0000
0000
,
0013
0000
0000
0010
0000
0000
0020
0000
0000
0000
0000
0000
0130
0000
0000
0000
,
1000
2000
0000
0000
3001
0000
0000
0000
,
0001
0002
0000
0000
1003
0000
0000
0000
,
0010
0010
0100
0100
,
0010
1000
0100
0010
0002
0000
1003
0000
,
0001
0010
0100
1000
0001
0100
1010
0000
,
1000
0100
0010
0001
1000
0010
0101
0000
,
0001
0200
0000
0300
1000
0200
0000
0300
,
0001
0000
0010
0000
1000
0000
0010
0000
0001
0000
1000
0000
0001
1000
0001
0000
,
1000
0010
0100
0001
1000
0100
0011
0000
,
0001
0100
0010
1000
0001
0010
1100
0000
,
1000
0200
0000
0300
0001
0200
0000
0300
,
1000
0000
0010
0000
0001
0000
0010
0000
1000
0000
0001
0000
1000
0001
1000
0000
,
0001
0100
0010
1000
0001
0100
0010
1000
,
0001
0010
0100
1000
0000
2001
0000
3010
,
1000
0100
0010
0001
1000
0100
0010
0001
,
1000
0000
0010
0000
0100
0000
0002
0000
0000
0000
0013
0000
0001
1000
0001
0000
,
1000
0100
0010
0001
1000
0010
0101
0000
,
0001
0010
0100
1000
0001
0100
1010
0000
,
1000
0020
0000
0030
0001
0020
0000
0030
,
2000
3200
0320
0032
,
2003
0000
3000
0101
0000
1000
0100
0010
,
0002
0000
0003
1100
0000
0001
0100
0010
,
2000
0000
0000
3100
0000
0000
0010
0000
0002
0000
0000
0103
0000
0000
0010
0000
,
1000
0000
0000
1000
0000
0000
0001
0000
0000
0001
0000
0000
0010
0000
0000
0000
,
0002
0000
0000
0010
0000
0000
1003
0000
0000
0000
0001
0000
0100
0000
0001
0000
,
2000
0000
0000
0010
0000
0000
3001
0000
0000
0000
1000
0000
0100
0000
1000
0000
,
0002
0000
0000
0013
0000
0000
0001
0000
2000
0000
0000
3010
0000
0000
0100
0000
,
0001
0000
0000
0001
0000
0000
1000
0000
0000
1000
0000
0000
0200
0000
0000
0000
,
0320
0001
0000
0001
,
0032
1000
0000
1000
,
2003
0010
0000
0010
,
3020
0100
0000
0130
,
0001
0010
0100
1000
0001
0100
0010
0000
,
1000
0100
0010
0001
1000
0010
0100
0000
,
2020
3030
0202
0303
,
1000
0000
0100
0000
0001
0000
0100
0000
1000
0000
0001
0000
2000
3000
0001
0000
,
0010
1000
0010
0001
0010
1000
0010
0001
,
1000
0010
0100
0000
1002
0000
0013
0001
,
0100
1000
0100
0001
0100
1000
0100
0001
,
1000
0000
0100
0000
0020
0000
0000
0000
0031
0000
1000
0001
1000
0000
0001
0000
,
0100
0010
1000
0001
0010
1100
0000
1000
,
0010
0100
0001
1000
0100
0011
0010
0001
,
0200
0000
0310
1000
0200
0000
0310
0002
,
0203
2300
3200
0000
0000
0301
0000
2000
,
3200
0302
0203
0000
0000
1300
0000
1001
,
0000
0000
0000
0000
0000
0000
0000
0000
0000
0000
0001
0000
0000
1000
0000
0000
,
0010
0000
0000
0010
1000
0000
0001
0000
0000
0000
0010
0000
0000
0100
0000
0000
,
1000
0000
0000
0000
0000
0000
0110
0000
0000
0000
1000
0000
0000
0001
0000
0000
,
0100
0000
0000
0100
0001
0000
1000
0000
0000
0000
0010
0000
1000
0001
1000
0000
,
0001
0000
0000
0000
;

//---------------dance-single - ----------------
#NOTEDATA:;
#CHARTNAME:;
#STEPSTYPE:dance-single;
#DESCRIPTION:;
#CHARTSTYLE:;
#DIFFICULTY:Easy;
#METER:7;
#RADARVALUES:0.315372,0.388749,0.149519,0.228676,0.004398,251.000000,234.000000,17.000000,26.000000,0.000000,0.000000,0.000000,0.000000,0.000000,0.315372,0.388749,0.149519,0.228676,0.004398,251.000000,234.000000,17.000000,26.000000,0.000000,0.000000,0.000000,0.000000,0.000000;
#CREDIT:;
#DISPLAYBPM:150.000000;
#NOTES:
0000
0000
0000
0000
,
0000
0000
0000
0000
,
0000
0000
0000
0000
,
0000
0000
0000
0000
,
0000
0000
0000
0000
,
1000
1000
0001
0001
,
0100
0001
2000
3000
,
0001
0001
0010
0010
,
0100
0010
0110
0000
,
0001
0001
1000
1000
,
0010
1000
0002
0003
,
1000
1000
0100
0100
,
0010
0100
0110
0000
,
0002
0103
1000
0100
,
0001
0000
0100
0000
0010
1000
0020
0000
,
2030
3100
0001
0100
,
1000
0000
0100
0000
0010
0001
0020
0000
,
0032
0000
1003
0000
,
0020
0000
0130
0000
,
0001
0002
0000
0000
0003
0000
0000
0000
,
1000
2000
0000
0000
3000
0000
0000
0000
,
0001
0001
1000
1000
,
0001
0010
0100
1000
0002
0000
0003
0000
,
1000
0000
0010
0000
0100
0001
0100
0000
,
0001
0000
0010
0000
0100
1000
0100
0000
,
0110
0000
1001
0000
,
1000
0000
0010
0000
0001
0010
1000
0000
,
0001
0000
0100
0000
0010
1000
0010
0000
,
1000
0000
0100
0000
0010
0001
0010
0000
,
1001
0000
0110
0000
,
0001
0000
0010
0000
1000
0010
0001
0000
,
1000
0100
0010
0001
,
1000
0001
1000
0002
0000
0000
1003
0000
,
0001
0100
0010
1000
,
0001
1000
0001
2000
0000
0000
3010
0000
,
1000
0000
0100
0000
0010
0001
0010
0000
,
0001
0000
0100
0000
0010
1000
0010
0000
,
1001
0000
0110
0000
,
1000
0001
1000
0001
,
0010
0000
0100
1000
0000
0000
1000
0000
,
0010
0000
0100
0001
0000
0000
0001
0000
,
1001
0000
0110
0000
,
0001
0000
0000
0001
0000
0000
0002
0000
0000
0000
0000
0000
0000
0000
0000
0000
,
1003
0000
0100
0010
0000
0000
0010
0000
,
0001
0000
0100
0010
0000
0000
1000
0000
,
1001
0000
0110
0000
,
0001
0100
1000
0100
,
0002
0000
0000
0000
,
2003
0000
0000
0000
,
3200
0000
0000
0000
,
0320
0000
0000
0000
,
0031
0000
0010
0000
0001
0010
0001
0000
,
1000
0000
0010
0000
1000
0010
1000
0000
,
2002
3003
0220
0330
,
1000
0000
0100
0000
0010
0100
1000
0001
,
0100
0010
0000
1000
0000
0001
0000
1000
,
0100
0010
0002
0000
0000
1003
0000
0001
,
0010
0100
0000
1000
0000
0001
0000
1000
,
0010
0100
0002
0000
0000
1003
0000
0001
,
0000
0010
0000
0100
1000
0001
0000
1000
,
0000
0010
0000
0100
0001
1000
0000
1001
,
0000
0000
0000
0110
0000
0000
0000
1000
,
0000
2000
0000
0000
0000
3010
0000
0001
,
0000
0002
0000
0000
0000
0013
0000
0110
,
0000
0000
0000
0000
0000
1000
0000
0001
,
0001
0000
0000
0001
0000
0001
0000
1000
,
1000
0000
0000
1000
0000
0100
0000
0100
,
0100
0000
0000
0100
0000
1000
0001
1000
,
0001
0000
0000
0000
;
