#VERSION:0.83;
#TITLE:Astrogirl;
#SUBTITLE:;
#ARTIST:九十九佐命;
#TITLETRANSLIT:;
#SUBTITLETRANSLIT:;
#ARTISTTRANSLIT:Tsukumo Sana;
#GENRE:;
#ORIGIN:;
#CREDIT:;
#BANNER:Astrogirl.png;
#BACKGROUND:Astrogirl-bg.png;
#PREVIEWVID:;
#JACKET:Astrogirl-jacket.png;
#CDIMAGE:;
#DISCIMAGE:;
#LYRICSPATH:;
#CDTITLE:;
#MUSIC:Astrogirl.ogg;
#OFFSET:-0.220000;
#SAMPLESTART:73.366814;
#SAMPLELENGTH:22.295082;
#SELECTABLE:YES;
#BPMS:0.000=183.000,
96.000=91.500,
112.000=183.000,
173.000=91.500,
189.000=183.000;
#STOPS:139.500=0.984;
#DELAYS:;
#WARPS:;
#TIMESIGNATURES:0.000=4=4;
#TICKCOUNTS:0.000=4;
#COMBOS:0.000=1;
#SPEEDS:0.000=1.000=0.000=0;
#SCROLLS:0.000=1.000;
#FAKES:;
#LABELS:0.000=Song Start;
#BGCHANGES:;
#KEYSOUNDS:;
#ATTACKS:
;

//---------------dance-single - ----------------
#NOTEDATA:;
#CHARTNAME:;
#STEPSTYPE:dance-single;
#DESCRIPTION:;
#CHARTSTYLE:;
#DIFFICULTY:Challenge;
#METER:13;
#RADARVALUES:0.560852,1.180622,0.427665,0.076980,0.124023,459.000000,409.000000,50.000000,9.000000,0.000000,0.000000,0.000000,0.000000,0.000000,0.560852,1.180622,0.427665,0.076980,0.124023,459.000000,409.000000,50.000000,9.000000,0.000000,0.000000,0.000000,0.000000,0.000000;
#CREDIT:;
#NOTES:
// measure 0
0000
0000
0000
0000
,  // measure 1
0000
0000
0000
0000
,  // measure 2
0000
0000
0000
0000
,  // measure 3
0000
0000
0000
0000
,  // measure 4
0001
0000
0000
0000
0000
0000
0000
0000
0000
0000
0000
0000
1000
0100
0010
0000
,  // measure 5
0000
0000
0010
0000
0000
0000
0010
0100
0010
0000
0000
0000
0010
0000
0000
0000
,  // measure 6
0001
0000
0001
0100
0010
0000
0000
0100
,  // measure 7
0000
0000
0100
0000
0000
0000
0100
0010
1000
0000
0001
0000
0000
0000
0000
0000
,  // measure 8
0021
0000
0100
0000
0001
0001
0000
0100
,  // measure 9
0000
0100
0000
0130
0010
0001
1000
0000
,  // measure 10
0020
0000
0100
0000
1000
1000
0000
0100
,  // measure 11
0000
0100
0000
0130
0010
1000
0001
0010
,  // measure 12
0200
0000
1000
0000
0010
0010
0000
0001
,  // measure 13
0000
0001
0000
0310
0100
1000
0010
0000
,  // measure 14
0200
0000
0001
0000
0010
0010
0000
1000
,  // measure 15
0000
1000
0000
0310
0100
0001
0000
0000
,  // measure 16
0010
0000
0011
0000
0010
0100
1000
0010
,  // measure 17
0000
0010
1000
0100
0010
0001
1000
0000
,  // measure 18
0010
0000
1010
0000
0010
1000
0100
0010
,  // measure 19
0000
0100
0010
0001
0000
0001
1001
0000
,  // measure 20
1000
0000
1010
0000
1000
0001
0010
0100
,  // measure 21
0000
0100
0010
0001
1000
0100
0010
0000
,  // measure 22
0001
0000
0011
0000
0001
1000
0010
0100
,  // measure 23
0000
0010
0100
0001
0000
0001
1001
0000
,  // measure 24
0011
0000
0000
0000
,  // measure 25
0110
0000
0000
0000
,  // measure 26
1100
0000
1001
0000
,  // measure 27
1010
0000
0000
0110
0000
0000
0101
0000
0000
0000
0000
0000
0000
0000
0000
0000
,  // measure 28
0001
0010
0110
0000
0100
1000
1010
0100
,  // measure 29
0000
0010
0110
1000
0000
1000
1001
0000
,  // measure 30
1000
0100
0110
0000
0010
0001
0101
0010
,  // measure 31
0000
0100
0110
0001
0000
0001
1001
0000
,  // measure 32
1000
0001
0010
0100
1000
0010
0100
1000
,  // measure 33
0000
1000
0100
0010
1000
0100
0010
0001
,  // measure 34
1000
0000
0100
0000
0010
0100
0010
0000
0100
1000
0100
0000
1000
0001
1000
0000
,  // measure 35
0000
0000
1020
0000
0100
0000
1000
1000
,  // measure 36
0000
0100
0000
0100
0000
0130
0010
1000
,  // measure 37
0001
0000
0020
0000
0100
0000
0001
0001
,  // measure 38
0000
0100
0000
0100
0000
0130
0010
0001
,  // measure 39
1000
1010
1010
1001
,  // measure 40
1001
0011
0011
0110
,  // measure 41
0110
0000
0001
0010
0001
0010
0001
1000
,  // measure 42
0001
0000
1000
0000
0010
0000
0100
0000
0001
0000
1000
0100
0010
0000
0000
0010
,  // measure 43
0001
0000
0001
1000
0002
0000
0000
0000
0000
0000
0000
0000
0000
0000
0000
0000
,  // measure 44
0000
0003
0000
0000
,  // measure 45
0000
0000
0011
0011
1001
1001
1010
1010
,  // measure 46
0110
0000
0000
0000
0110
0000
0000
0000
1000
0000
0010
0000
1000
0000
0010
0000
1000
0000
0001
0000
1000
0000
0001
0000
0010
0000
0100
0000
1000
0000
0001
0100
,  // measure 47
0010
0000
0000
0010
1000
0000
1000
0001
1000
0000
0000
0000
0100
0000
0000
0000
1000
0000
0000
0000
0100
0000
0000
0000
0010
0000
0000
0000
0100
0000
0000
0000
,  // measure 48
0010
0100
0001
0100
0001
0100
1000
0000
,  // measure 49
1001
0000
0001
0100
0001
0100
0010
0100
,  // measure 50
0010
0100
1000
0100
1000
0100
0001
0000
,  // measure 51
1001
0000
1000
0100
1000
0100
0001
0100
,  // measure 52
0001
0100
1000
0010
1000
0010
0100
0000
,  // measure 53
0100
0010
1000
0000
1000
0100
0000
0010
,  // measure 54
0000
0001
0000
0001
0100
0010
0000
0010
,  // measure 55
0110
0000
0100
0001
1000
0100
0001
0000
,  // measure 56
0100
0010
0100
1000
0001
0100
1000
0000
,  // measure 57
1000
0100
0010
1000
0100
0010
0100
0000
,  // measure 58
0001
0100
0010
0001
0100
0010
0100
0000
,  // measure 59
0010
1000
0100
0000
0110
0001
0100
0000
,  // measure 60
0110
1000
0100
0000
0110
0001
0100
0010
,  // measure 61
0100
0001
0000
0001
0010
0100
0000
0100
,  // measure 62
0110
0000
0100
1000
0100
1000
0001
1000
,  // measure 63
0001
1000
0020
0000
0000
0200
0000
0000
,  // measure 64
0330
0000
0000
0000
,  // measure 65
0000
0000
0000
0000
,  // measure 66
0000
0000
0000
0000
,  // measure 67
0000
1000
1010
0100
,  // measure 68
0110
0001
0101
1000
,  // measure 69
1001
0000
1000
0010
1000
0010
1000
0001
,  // measure 70
1000
0000
0001
0000
0010
0000
0100
0000
1000
0000
0001
0100
0010
0000
0000
0010
,  // measure 71
1000
0000
1000
0001
1000
0000
0000
0000
0100
0000
0000
0000
0000
0000
0000
0000
,  // measure 72
0100
0010
0001
0000
0000
0000
0001
0000
0000
0000
0001
1000
0001
0000
0000
0000
,  // measure 73
0001
0000
0100
0000
0010
0100
0001
0000
,  // measure 74
0000
0000
1000
0000
0000
0000
1000
0000
0000
0000
0001
0010
0100
0000
1000
0000
,  // measure 75
0000
0001
0000
0000
,  // measure 76
1000
0100
0010
0000
0000
0000
0010
0000
0000
0000
0010
0100
0010
0000
0000
0000
,  // measure 77
0010
0000
0001
0000
0001
0100
0010
0000
,  // measure 78
0000
0000
0100
0000
0000
0000
0100
0000
0000
0000
0100
0010
1000
0000
0001
0000
;

//---------------dance-single - ----------------
#NOTEDATA:;
#CHARTNAME:;
#STEPSTYPE:dance-single;
#DESCRIPTION:;
#CHARTSTYLE:;
#DIFFICULTY:Hard;
#METER:10;
#RADARVALUES:0.426443,0.775837,0.213832,0.085533,0.021383,349.000000,324.000000,25.000000,10.000000,0.000000,0.000000,0.000000,0.000000,0.000000,0.426443,0.775837,0.213832,0.085533,0.021383,349.000000,324.000000,25.000000,10.000000,0.000000,0.000000,0.000000,0.000000,0.000000;
#CREDIT:;
#NOTES:
// measure 0
0000
0000
0000
0000
,  // measure 1
0000
0000
0000
0000
,  // measure 2
0000
0000
0000
0000
,  // measure 3
0000
0000
0000
0000
,  // measure 4
1000
0000
0000
0000
0000
0000
1000
0100
,  // measure 5
0000
0100
0000
0100
0010
0000
0010
0000
,  // measure 6
0001
0000
1000
0001
1000
0000
0000
0010
,  // measure 7
0000
0010
0000
0010
1000
0001
0000
0000
,  // measure 8
2000
0100
0001
0000
,  // measure 9
0001
0010
3001
0000
,  // measure 10
0002
0100
1000
0000
,  // measure 11
1000
0010
1003
0010
,  // measure 12
0200
0001
0010
0000
,  // measure 13
0010
1000
0310
1000
,  // measure 14
0200
1000
0010
0000
,  // measure 15
0010
0001
0310
0000
,  // measure 16
0100
1100
1000
1001
,  // measure 17
0001
0000
0101
0000
0100
0010
0100
0000
,  // measure 18
0010
1010
1000
1001
,  // measure 19
0001
0000
0011
0000
0010
0100
0010
0100
,  // measure 20
1000
1010
0010
0110
,  // measure 21
0100
0000
0101
0000
0001
1000
0001
0000
,  // measure 22
1000
1100
0100
0110
,  // measure 23
0010
0000
0011
0000
0001
1000
0001
1000
,  // measure 24
0010
0000
0000
0000
,  // measure 25
0100
0000
0000
0000
,  // measure 26
0001
0000
1000
0000
,  // measure 27
0001
0000
0000
0010
0000
0000
0100
0000
0000
0000
0000
0000
0000
0000
0000
0000
,  // measure 28
1000
0000
0010
0000
0100
0000
0010
1000
,  // measure 29
0000
0001
0000
0010
0000
0100
0000
0010
,  // measure 30
0001
0000
1000
0010
0100
0000
0100
0001
,  // measure 31
0000
0001
0000
1000
0000
0100
0010
0000
,  // measure 32
0000
0100
1000
0001
1000
0000
0010
0100
,  // measure 33
0000
0100
0001
1000
0001
0000
0010
0100
,  // measure 34
1000
0000
1100
0000
1001
0000
1010
0010
,  // measure 35
0000
2000
0100
0001
,  // measure 36
0000
0001
0010
3001
,  // measure 37
0000
0002
0100
1000
,  // measure 38
0000
1000
0010
1003
,  // measure 39
0000
0001
0001
0100
,  // measure 40
0100
0010
0010
1000
,  // measure 41
1000
0000
0001
0010
0100
0000
0010
0100
,  // measure 42
1000
0000
0001
0100
0010
1000
0001
0000
,  // measure 43
0110
2002
0000
0000
,  // measure 44
0000
3003
0000
0000
,  // measure 45
0000
0000
1000
1000
0100
0100
0010
0010
,  // measure 46
0001
0000
0001
0000
1000
0010
0100
0000
0010
0100
0001
0000
1000
0100
0010
0001
,  // measure 47
1000
0110
1001
0000
1000
0100
1000
0000
,  // measure 48
0100
0010
0100
0000
0010
0001
0010
0000
,  // measure 49
0001
1000
0001
0000
1000
0010
1000
0000
,  // measure 50
0010
0100
0010
0000
0100
0001
0100
0000
,  // measure 51
0001
1000
0100
0000
0010
0001
0010
0000
,  // measure 52
0001
1000
0010
0000
0100
0001
0100
0000
,  // measure 53
0001
1000
0100
0000
0010
0100
0000
1000
,  // measure 54
0000
0001
0000
0001
0100
0010
0000
0100
,  // measure 55
0001
0000
0100
0000
0001
0010
0100
0000
,  // measure 56
0010
0001
0010
0000
0001
0100
0010
0000
,  // measure 57
0100
0000
0001
1000
0001
1000
0100
0000
,  // measure 58
0010
0000
0100
1000
0100
1000
0001
0000
,  // measure 59
1000
0000
0010
0000
0100
0010
0100
0000
,  // measure 60
0010
1000
0100
0000
0010
0100
0010
0000
,  // measure 61
0010
0001
0100
0000
0010
0000
0100
0001
,  // measure 62
1000
0001
0010
0000
0010
0100
0100
0000
,  // measure 63
0100
1000
2000
0000
0000
0002
0000
0000
,  // measure 64
3003
0000
0000
0000
,  // measure 65
0000
0000
0000
0000
,  // measure 66
0000
0000
0000
0000
,  // measure 67
0000
1000
1010
0100
,  // measure 68
0110
0001
0101
1000
,  // measure 69
1001
0000
1000
0010
0100
0000
0010
0100
,  // measure 70
0001
0000
1000
0100
0010
0001
1000
0000
,  // measure 71
0110
1001
0001
0000
,  // measure 72
0010
0100
0000
0100
0000
0100
1000
0000
,  // measure 73
0001
0000
1000
0000
0010
0100
0010
0000
,  // measure 74
0000
0100
0000
0100
0000
0100
0001
1000
,  // measure 75
0000
0001
0000
0000
,  // measure 76
0001
0010
0000
0010
0000
0010
0100
0000
,  // measure 77
0100
0000
1000
0000
0001
1000
0001
0000
,  // measure 78
0000
0100
0000
0100
0000
0100
0001
1000
;

//---------------dance-single - ----------------
#NOTEDATA:;
#CHARTNAME:;
#STEPSTYPE:dance-single;
#DESCRIPTION:;
#CHARTSTYLE:;
#DIFFICULTY:Medium;
#METER:8;
#RADARVALUES:0.332357,0.708373,0.222386,0.239492,0.008553,272.000000,246.000000,26.000000,28.000000,0.000000,0.000000,0.000000,0.000000,0.000000,0.332357,0.708373,0.222386,0.239492,0.008553,272.000000,246.000000,26.000000,28.000000,0.000000,0.000000,0.000000,0.000000,0.000000;
#CREDIT:;
#NOTES:
0000
0000
0000
0000
,
0000
0000
0000
0000
,
0000
0000
0000
0000
,
0000
0000
0000
0000
,
0001
0000
0000
0000
0000
0000
0000
0001
,
0000
0001
0000
0000
1000
0000
0001
0000
,
1000
0000
0000
0000
0010
0000
0000
0100
,
0000
0100
0000
0010
0000
0100
0000
0000
,
0002
0000
0100
0000
,
1000
0000
0013
0000
,
0002
0000
0010
0000
,
1000
0000
0103
0000
,
0020
0000
0001
0000
,
0100
0000
1030
0000
,
0200
0000
0001
0000
,
0010
0000
1300
0000
,
0001
1000
0010
0100
,
0001
0010
0100
1100
,
1000
0001
0100
0010
,
1000
0100
0010
0011
,
0001
0100
0010
1000
,
0001
0010
0100
1100
,
1000
0010
0100
0001
,
1000
0100
0010
0011
,
1000
0000
0000
0000
,
0001
0000
0000
0000
,
1000
0000
0010
0000
,
0100
0000
0000
0100
0000
0000
0100
0000
0000
0000
0000
0000
0000
0000
0000
0000
,
0010
0000
0110
0000
0000
0100
0001
0100
,
0000
0000
0001
1000
0000
1000
0001
0000
,
1000
0000
1001
0000
0000
0001
0010
0001
,
0000
0000
0010
0100
0000
0100
0010
0000
,
0000
0010
0001
0000
0001
0000
0100
0010
,
0000
0010
1000
0000
1000
0000
0001
0000
,
0010
0000
0110
0000
1100
0000
1000
0001
,
0000
2000
0000
0100
,
0000
0001
0000
3010
,
0000
2000
0000
0010
,
0000
0001
0000
3100
,
0100
1000
1000
0001
,
0001
0100
0100
0010
,
0010
0100
0001
0010
,
0100
0000
1000
0100
1000
0000
1100
0000
,
0110
0022
0000
0000
,
0000
0033
0000
0000
,
0000
0000
0001
0001
1000
1000
0010
0010
,
0100
0000
0100
0000
0010
0000
1000
0000
0100
0000
0010
0000
0001
0010
0001
0000
,
0011
0110
2100
0000
3000
1000
0020
0000
,
0030
0010
0200
0000
0300
0100
0001
0000
,
1001
0000
0002
0000
0003
0001
0020
0000
,
0030
0010
0200
0000
0300
0100
1000
0000
,
1001
0000
2000
0000
0000
3010
0200
0000
,
0000
0310
2000
0000
0000
3100
0010
0000
,
0110
0000
0001
0000
0000
1000
0000
0001
,
0000
2000
0000
0000
0000
0020
0000
0000
,
3030
0000
0200
0000
0000
0310
1000
0000
,
1100
0000
0200
0000
0000
0310
0001
0000
,
0101
0000
0001
0010
0001
0000
0010
0000
,
0100
0000
1000
0010
1000
0000
0010
0000
,
0100
0000
0010
0000
0000
1000
0100
0000
,
0000
0010
0100
0000
0000
1000
0010
0000
,
0010
0200
0000
0000
0302
0000
0000
0000
,
0003
1000
0200
0000
0000
0310
0002
0000
,
0000
1003
0002
0000
0000
2000
0000
0000
,
3003
0000
0000
0000
,
0000
0000
0000
0000
,
0000
0000
0000
0000
,
0000
1000
1010
0100
,
0110
0001
0101
1000
,
1001
0010
1000
0100
,
0010
0000
0001
0010
0001
0000
0011
0000
,
0110
2100
3010
0000
,
0000
0100
0000
0100
0000
0000
0010
0000
,
0100
0010
0000
1000
,
0000
0001
0000
0001
0000
1000
0000
0001
,
0000
1000
0000
0000
,
0000
1000
0000
1000
0000
0000
0001
0000
,
1000
0001
0000
0100
,
0000
0010
0000
0010
0000
0100
0000
0010
;

//---------------dance-single - ----------------
#NOTEDATA:;
#CHARTNAME:;
#STEPSTYPE:dance-single;
#DESCRIPTION:;
#CHARTSTYLE:;
#DIFFICULTY:Easy;
#METER:6;
#RADARVALUES:0.238270,0.573445,0.171066,0.256599,0.000000,195.000000,175.000000,20.000000,30.000000,0.000000,0.000000,0.000000,0.000000,0.000000,0.238270,0.573445,0.171066,0.256599,0.000000,195.000000,175.000000,20.000000,30.000000,0.000000,0.000000,0.000000,0.000000,0.000000;
#CREDIT:;
#NOTES:
0000
0000
0000
0000
,
0000
0000
0000
0000
,
0000
0000
0000
0000
,
0000
0000
0000
0000
,
1000
0000
0000
0000
0000
0000
0000
1000
,
0000
0000
0001
0001
,
1000
0000
0000
0000
0010
0000
0000
0010
,
0000
0000
0000
0000
0000
0010
0000
0000
,
0200
0000
0010
0000
,
0000
0000
0310
0000
,
2000
0000
0001
0000
,
0000
0000
3001
0000
,
0020
0000
0100
0000
,
0000
0000
0130
0000
,
2000
0000
0001
0000
,
0000
0000
3001
0000
,
0000
1001
0000
1010
,
0000
1001
0000
0011
,
0000
1001
0000
0101
,
0000
1001
0000
1100
,
0000
0110
0000
0011
,
0000
1001
0000
1010
,
0000
0110
0000
0101
,
0000
1001
0000
1100
,
1000
0000
0000
0000
,
0001
0000
0000
0000
,
1000
0000
0010
0000
,
0100
0000
0000
0100
0000
0000
0000
0000
,
0010
0100
0000
0001
,
0010
0100
0000
1000
,
0010
0100
0000
0001
,
0010
0100
1000
0001
,
0000
0000
1000
0000
1000
0000
0000
0010
,
0000
0000
0100
0000
0100
0000
0000
0001
,
0000
0000
1000
0000
0001
0000
0000
0110
,
0000
2000
0000
0001
,
0000
0000
0000
3001
,
0000
0200
0000
0010
,
0000
0000
0000
0310
,
0000
1000
0001
1000
,
0001
0010
0001
0010
,
0001
1000
1000
0010
,
0010
0200
0302
1003
,
1000
0002
0000
0000
,
0000
0003
0000
0000
,
0000
0000
1000
0001
1000
0001
0010
0001
,
0010
0001
1000
1000
0010
0010
0200
0302
,
1003
1000
0002
0000
0000
0000
0023
0000
,
0000
2030
0000
3200
,
0000
0302
0000
0023
,
0000
0230
0000
2300
,
0000
3020
0000
0032
,
0000
0023
0000
1030
,
1000
0000
0001
0000
0000
0001
0000
0000
,
0000
0000
0010
0000
0000
0010
0000
0000
,
0001
2000
0000
3010
,
0000
0002
0000
0010
,
0013
0100
1000
0001
,
0000
0100
0001
1000
,
0000
0011
0000
0110
,
0000
1100
0000
0001
,
1000
0001
0001
0000
,
0000
2000
0000
3020
,
0000
0000
0230
0000
0000
0020
0000
0000
,
0330
0000
0000
0000
,
0000
0000
0000
0000
,
0000
0000
0000
0000
,
0000
1000
0001
1000
,
0001
0010
0001
0010
,
0001
1000
1000
0010
,
0010
0200
0302
1003
,
1000
0001
0000
0000
,
0000
0001
0000
0000
0000
0000
0100
0000
,
0010
0100
0000
0100
,
0000
0010
0000
0000
0000
0000
0000
0010
,
0000
1000
0000
0000
,
0000
1000
0000
0000
0000
0000
0001
0000
,
0001
1000
0000
0100
,
0000
0100
0000
0000
0000
0000
0000
0100
;

//---------------dance-single - ----------------
#NOTEDATA:;
#CHARTNAME:;
#STEPSTYPE:dance-single;
#DESCRIPTION:;
#CHARTSTYLE:;
#DIFFICULTY:Beginner;
#METER:3;
#RADARVALUES:0.150294,0.303107,0.025660,0.094086,0.000000,123.000000,120.000000,3.000000,11.000000,0.000000,0.000000,0.000000,0.000000,0.000000,0.150294,0.303107,0.025660,0.094086,0.000000,123.000000,120.000000,3.000000,11.000000,0.000000,0.000000,0.000000,0.000000,0.000000;
#CREDIT:;
#NOTES:
0000
0000
0000
0000
,
0000
0000
0000
0000
,
0000
0000
0000
0000
,
0000
0000
0000
0000
,
1000
0000
0000
0000
,
1000
0000
1000
0000
,
0010
0000
0010
0000
,
0100
0000
0001
0000
,
2000
0000
0000
0000
,
0000
0000
3000
0000
,
0200
0000
0000
0000
,
0000
0000
0300
0000
,
0020
0000
0000
0000
,
0000
0000
0000
0000
,
0000
0000
0000
0000
,
0000
0000
0030
0000
,
0001
0001
0000
0001
,
0000
1000
0000
1000
,
0000
0010
0000
0010
,
0000
0100
0000
0100
,
0000
0001
0000
0001
,
0000
1000
0000
1000
,
0000
0100
0000
0100
,
0000
0010
0000
0010
,
0010
0000
0000
0000
,
0001
0000
0000
0000
,
1000
0000
1000
0000
,
1000
0000
0000
0000
,
0001
0001
0000
0010
,
0000
0100
0000
1000
,
0000
0010
0000
0100
,
0000
0001
0000
0010
,
0000
0100
0000
0010
,
0000
0001
0000
0001
,
0000
1000
1000
1000
,
0000
0002
0000
0000
,
0000
0000
0000
0003
,
0000
0200
0000
0000
,
0000
0000
0000
0300
,
0000
0010
0000
0010
,
0000
1000
0000
1000
,
0000
0001
0001
0001
,
0000
2000
0000
3000
,
0000
2002
0000
0000
,
0000
3003
0000
0000
,
0000
0010
0010
1000
,
1000
0000
0001
0001
0001
0000
2000
0000
,
3000
0001
0000
0100
,
0000
1000
0000
0100
,
0000
0001
0000
0010
,
0000
0100
0000
1000
,
0000
0010
0000
0100
,
0000
0001
0000
1000
,
0000
0100
0000
0010
,
0000
0002
0000
0003
,
0000
1000
0000
1000
,
0000
0001
0000
0001
,
0000
0100
0000
0100
,
0000
0010
0000
0010
,
0000
0100
0000
0001
,
0000
1000
0000
0100
,
0000
0010
0000
0000
,
0000
0001
0000
1000
,
0000
1001
0000
0000
,
0000
0000
0000
0000
,
0000
0000
0000
0000
,
0000
0000
0000
0000
,
0000
0100
0000
0100
,
0000
0001
0000
0001
,
0000
1000
1000
1000
,
0000
0002
0000
0003
,
0000
1001
0000
0000
,
0000
0001
0000
0001
,
0000
0010
0000
0010
,
0000
0001
0000
1000
,
0000
0001
0000
0000
,
0000
0001
0000
0001
,
0000
0100
0000
0100
,
0000
0010
0000
0100
;
