#VERSION:0.83;
#TITLE:Aqua Wave;
#SUBTITLE:;
#ARTIST:PODA;
#TITLETRANSLIT:;
#SUBTITLETRANSLIT:;
#ARTISTTRANSLIT:;
#GENRE:;
#CREDIT:;
#MUSIC:Aqua Wave.ogg;
#BANNER:Aqua Wave-BN.png;
#BACKGROUND:;
#CDTITLE:;
#SAMPLESTART:22.801;
#SAMPLELENGTH:13.900;
#SELECTABLE:YES;
#OFFSET:-0.001;
#BPMS:0.000=150.000;
#STOPS:;
#SPEEDS:0.000=1.000=0.000=0;
#SCROLLS:0.000=1.000;
#TICKCOUNTS:0.000=4;
#TIMESIGNATURES:0.000=4=4;
#LABELS:0.000=Song Start;
#COMBOS:0.000=1;
#ORIGIN:;
#PREVIEWVID:;
#JACKET:;
#CDIMAGE:;
#DISCIMAGE:;
#BGCHANGES:;
#FGCHANGES:;

//--------------- dance-single - omgukk ----------------
#NOTEDATA:;
#STEPSTYPE:dance-single;
#DESCRIPTION:omgukk;
#DIFFICULTY:Challenge;
#METER:14;
#RADARVALUES:0,0,0,0,0,0,0,0,0,0,0,0,0,0,0,0,0,0,0,0,0,0,0,0,0,0,0,0;
#CHARTNAME:;
#CHARTSTYLE:;
#CREDIT:;
#NOTES:
0000
0000
0000
0000
,
0000
0000
0000
0000
,
0000
0000
0000
0000
,
0000
0000
0000
0000
,
0000
0000
0000
0000
,
0000
0000
0000
0000
,
0000
0000
0000
0000
1000
0000
0000
0010
0000
0000
1000
0100
0001
0000
0000
0100
,
0000
0000
1000
0001
0100
0000
0000
1000
0000
0000
0100
0010
0100
0000
0000
0001
,
0000
0000
1000
0100
0001
0000
0000
0100
0000
0000
1000
0001
0010
0000
0000
1000
,
0000
0000
0010
0001
1000
0000
0000
0010
0000
0000
0100
0010
0100
0000
0000
0001
,
0000
0000
0100
0000
0001
0000
0000
0100
0000
0000
0001
0010
1000
0000
0000
0010
,
0000
0000
0001
1000
0010
0000
0000
0001
0000
0000
0010
0100
0010
0000
0000
1000
,
0000
0000
0000
0000
0000
0000
0100
0000
0000
0010
0000
0000
0001
0000
0000
0000
1000
0000
0000
0000
0010
0000
0000
0000
0100
0000
0000
0000
0010
0000
0000
0000
1000
0000
0000
0000
0100
0000
0000
0000
0010
0000
0000
0000
0100
0000
0000
0000
,
1000
0000
0000
0000
0010
0000
0000
0000
0100
0000
0000
0000
0001
0000
0000
0100
0000
0000
0001
0000
0000
0010
0000
0000
0001
0000
0000
0000
0100
0000
0000
0000
0100
0000
0000
0000
1000
0000
0000
0000
0000
0000
0200
0000
0000
0000
0000
0000
,
0301
0000
0000
0000
1001
0000
0000
1000
0000
0010
0001
0010
1000
0000
0000
0001
,
0000
1000
0100
0001
0100
0000
0000
1000
0000
0000
0001
1000
0010
0000
0000
0100
,
0000
0001
0010
0000
0100
0000
0000
1000
0000
0010
0000
0000
0100
0000
0000
0001
,
0000
0000
1000
0100
0001
0000
0000
0100
0000
0000
1000
0010
0100
0000
0000
0001
,
1000
0000
0000
0000
0100
0000
0000
0000
0010
0000
0000
0000
0001
0000
0000
0000
0000
0000
0000
0000
0000
1000
0000
0000
0000
0000
0000
0001
0000
0000
0100
0000
0000
0001
0000
0000
1000
0000
0000
0000
0000
0000
0000
0000
0000
0100
0000
0000
,
0000
0000
0010
0000
0001
0000
0000
1000
0000
0000
0001
0100
1000
0000
0000
0100
,
0000
0001
0010
0000
0100
0000
0000
2000
0000
0000
0000
0000
3010
0000
0000
0100
,
0000
0000
0001
0010
1000
0000
0000
0010
0000
0000
0001
1000
0010
0000
0000
0100
,
0001
0000
0000
0000
0010
0000
0000
0000
0100
0000
0000
0000
1000
0000
0000
0000
0000
0000
0000
0000
0000
0200
0000
0000
0000
0000
0000
0000
0000
0000
0000
0000
0000
0000
0000
0000
0310
0000
0000
0000
0000
0000
0000
0000
0000
0001
0000
0000
,
0000
0100
1000
0100
0001
0000
0000
1000
0000
0000
0010
0100
0001
0000
0000
1000
,
0000
0100
0010
0000
0001
0000
0000
1000
0000
0010
0000
0100
0010
0000
0000
1000
,
0000
0000
0001
0010
0100
0000
0000
1000
0000
0000
0010
0100
0001
0000
0000
1000
,
0001
0000
0000
0000
0010
0000
0000
0000
0100
0000
0000
0000
1000
0000
0000
0000
0000
0000
0000
0000
0000
0010
0000
0000
0000
0000
0000
1000
0000
0000
0010
0000
0000
1000
0000
0000
0001
0000
0000
0000
0000
0000
0000
0000
0000
0010
0000
0000
,
0000
0000
0100
0000
1000
0000
0000
0010
0000
0000
0010
0100
0001
0000
0000
1000
,
0000
0000
0000
0100
0000
0000
0000
0001
0000
0000
0000
0000
0100
0000
0000
0000
0000
0000
0000
0000
0000
2000
0000
0000
0000
0000
0000
0000
0000
0000
0000
0000
0000
0000
0000
0000
3001
0000
0000
0000
0000
0000
0000
0000
0000
0100
0000
0000
,
0000
0000
0010
1000
0001
0000
0000
0010
0100
1000
0001
0100
0010
0100
0001
0010
,
0100
1000
0010
0100
0001
0000
0000
0010
0000
0000
0100
0000
1000
0000
0000
0000
,
0000
0000
0010
0000
0100
0000
0000
0001
0000
0000
0100
0000
0001
1000
0010
1000
,
0001
0000
0010
0000
0100
0000
0000
1000
0000
0000
0010
0000
0100
0000
0000
0000
,
0000
0000
0001
0000
0010
0000
0000
0100
0000
0000
0010
0000
0001
0000
0000
0100
,
0000
0010
1000
0000
0000
0100
0010
0000
,
0000
0000
0001
0000
0010
0000
0000
0100
0000
0000
1000
0000
0001
0100
0010
0100
,
0001
0000
0010
0000
0100
0000
0000
1000
0000
0000
0001
0000
0100
0000
0010
0000
,
1000
0100
0020
0000
0032
0000
0023
0000
,
0130
0000
1000
0000
0001
0000
0000
0100
0000
0000
0010
0000
1000
0000
0000
0000
,
0000
0000
0010
0000
0100
0000
0000
0001
0000
0000
0010
0000
0100
0000
0000
1000
,
0000
0000
0001
0000
0010
0000
0000
0001
0000
0000
0100
0000
0010
0000
0001
0000
,
0010
1000
0001
0000
2000
0000
3200
0000
,
0320
0000
0000
0000
0031
0000
0000
1000
0000
0000
0010
0000
0100
0000
0000
0000
,
0000
0000
0001
0000
0100
0000
0000
0010
0000
0000
1000
0000
0100
0000
0000
0010
,
0000
0000
0001
0000
1000
0000
0000
0001
0000
0000
0100
0000
0010
0000
1000
0000
,
0100
0010
0002
0000
0203
0000
0320
0000
,
2030
0000
0000
0000
3001
0000
0000
0100
0000
0000
0001
0010
1000
0000
0000
0010
,
0000
0000
0001
1000
0010
0000
0000
0001
0000
0000
0010
0100
0010
0000
0000
1000
,
0000
0000
0001
0010
1000
0000
0000
0010
0000
0000
0001
1000
0100
0000
0000
0001
,
0000
0000
0100
1000
0001
0000
0000
0100
0000
0000
0010
0100
0010
0000
0000
1000
,
0000
0000
0010
0000
1000
0000
0000
0010
0000
0000
1000
0100
0001
0000
0000
0100
,
0000
0000
1000
0001
0100
0000
0000
1000
0000
0000
0100
0010
0100
0000
0000
0001
,
0000
0000
0000
0000
0000
0000
0010
0000
0000
0100
0000
0000
1000
0000
0000
0000
0001
0000
0000
0000
0100
0000
0000
0000
0010
0000
0000
0000
0100
0000
0000
0000
0001
0000
0000
0000
0010
0000
0000
0000
0100
0000
0000
0000
0010
0000
0000
0000
,
0001
0000
0000
0000
0100
0000
0000
0000
0010
0000
0000
0000
1000
0000
0000
0010
0000
0000
1000
0000
0000
0100
0000
0000
1000
0000
0000
0000
0010
0000
0000
0000
0010
0000
0000
0000
0001
0000
0000
0000
0000
0000
0020
0000
0000
0000
0000
0000
,
1030
0000
0000
0000
1001
0000
0000
0001
0000
0100
1000
0100
0001
0000
0000
1000
,
0000
0001
0010
1000
0010
0000
0000
0001
0000
0000
1000
0001
0100
0000
0000
0010
,
0000
1000
0100
0000
0010
0000
0000
0001
0000
0100
0000
0000
0010
0000
0000
1000
,
0000
0000
0001
0010
1000
0000
0000
0010
0000
0000
0001
0100
0010
0000
0000
1000
,
0001
0000
0000
0000
0010
0000
0000
0000
0100
0000
0000
0000
1000
0000
0000
0000
0000
0000
0000
0000
0000
0001
0000
0000
0000
0000
0000
1000
0000
0000
0010
0000
0000
1000
0000
0000
0001
0000
0000
0000
0000
0000
0000
0000
0000
0010
0000
0000
,
0000
0000
0100
0000
1000
0000
0000
0001
0000
0000
1000
0010
0001
0000
0000
0010
,
0000
1000
0100
0000
0010
0000
0000
0002
0000
0000
0000
0000
0103
0000
0000
0010
,
0000
0000
1000
0100
0001
0000
0000
0100
0000
0000
1000
0001
0100
0000
0000
0010
,
1000
0000
0000
0000
0100
0000
0000
0000
0010
0000
0000
0000
0001
0000
0000
0000
0000
0000
0000
0000
0000
0020
0000
0000
0000
0000
0000
0000
0000
0000
0000
0000
0000
0000
0000
0000
0130
0000
0000
0000
0000
0000
0000
0000
0000
1000
0000
0000
,
0000
0010
0001
0010
1000
0000
0000
0001
0000
0000
0100
0010
1000
0000
0000
0001
,
0000
0010
0100
0000
1000
0000
0000
0001
0000
0100
0000
0010
0100
0000
0000
0001
,
0000
0000
1000
0100
0010
0000
0000
0001
0000
0000
0100
0010
1000
0000
0000
0001
,
1000
0000
0000
0000
0100
0000
0000
0000
0010
0000
0000
0000
0001
0000
0000
0000
0000
0000
0000
0000
0000
0100
0000
0000
0000
0000
0000
0001
0000
0000
0100
0000
0000
0001
0000
0000
1000
0000
0000
0000
0000
0000
0000
0000
0000
0100
0000
0000
,
0000
0000
0010
0000
0001
0000
0000
0100
0000
0000
0100
0010
1000
0000
0000
0001
,
0000
0000
0000
0010
0000
0000
0000
1000
0000
0000
0000
0000
0010
0000
0000
0000
0000
0000
0000
0000
0000
0002
0000
0000
0000
0000
0000
0000
0000
0000
0000
0000
0000
0000
0000
0000
1003
0000
0000
0000
0000
0000
0000
0000
0000
0010
0000
0000
,
0000
0000
0100
0001
1000
0000
0000
0100
0010
0001
1000
0010
0100
0010
1000
0100
,
0010
0001
0100
0010
2000
0000
0000
0000
0000
0000
0000
0000
0000
0000
0000
0000
,
0000
0000
0000
3000
;
