#VERSION:0.83;
#TITLE:碧空を翔る;
#SUBTITLE:;
#ARTIST:ウラボロシ;
#TITLETRANSLIT:Aozora wo kakeru;
#SUBTITLETRANSLIT:;
#ARTISTTRANSLIT:uraboroshi;
#GENRE:FANTASY FUSION;
#ORIGIN:;
#CREDIT:;
#BANNER:Aozora wo kakeru.png;
#BACKGROUND:Aozora wo kakeru-bg.png;
#PREVIEWVID:;
#JACKET:Aozora wo kakeru-jacket.png;
#CDIMAGE:;
#DISCIMAGE:;
#LYRICSPATH:;
#CDTITLE:;
#MUSIC:Aozora wo kakeru.ogg;
#OFFSET:1.557469;
#SAMPLESTART:46.782227;
#SAMPLELENGTH:16.420000;
#SELECTABLE:YES;
#BPMS:0.000=144.000;
#STOPS:;
#DELAYS:;
#WARPS:;
#TIMESIGNATURES:0.000=4=4,
244.000=3=4;
#TICKCOUNTS:0.000=4;
#COMBOS:0.000=1;
#SPEEDS:0.000=1.000=0.000=0;
#SCROLLS:0.000=1.000;
#FAKES:;
#LABELS:0.000=Song Start;
#BGCHANGES:0.000=Aozora wo kakeru.mp4=1.000=1=0=1===CrossFade==,
99999=-nosongbg-=1.000=0=0=0 // don't automatically add -songbackground-
;
#KEYSOUNDS:;
#ATTACKS:
;

//---------------dance-single - ----------------
#NOTEDATA:;
#CHARTNAME:;
#STEPSTYPE:dance-single;
#DESCRIPTION:;
#CHARTSTYLE:;
#DIFFICULTY:Hard;
#METER:15;
#RADARVALUES:0.639059,1.020583,0.102916,1.303602,0.754717,652.000000,637.000000,15.000000,190.000000,0.000000,0.000000,0.000000,0.000000,0.000000,0.639059,1.020583,0.102916,1.303602,0.754717,652.000000,637.000000,15.000000,190.000000,0.000000,0.000000,0.000000,0.000000,0.000000;
#CREDIT:BlindedVanguard573;
#NOTES:
// measure 0
0000
0000
0000
0000
,  // measure 1
0000
0000
0000
0000
,  // measure 2
0000
0000
0000
0000
,  // measure 3
1000
0000
0001
0100
0000
0100
0010
0000
0100
0000
0001
0000
1000
0000
0001
0010
,  // measure 4
0000
0010
0100
0000
0010
0000
0001
0000
1000
0000
0010
0100
0000
0100
0001
0000
,  // measure 5
1000
0000
0100
0010
0000
0010
0001
0000
1000
0000
0010
0000
0100
0000
0001
0010
,  // measure 6
0000
0010
0100
0000
1000
0000
0001
0000
0100
0000
0010
1000
0000
1000
0001
1000
,  // measure 7
0000
1100
0000
0000
0011
0000
0000
1001
0000
0000
0001
0100
0001
0100
0020
0000
,  // measure 8
0000
0000
1030
0001
0000
0010
0000
0010
0200
0000
0000
1000
0000
0310
0000
0000
,  // measure 9
0001
0100
0000
0001
1000
0000
0001
0010
0000
0000
0001
1000
0000
1000
0100
0000
,  // measure 10
1000
0010
0000
1000
0000
0000
0001
0000
0010
0001
0000
1000
0000
0001
0000
0000
,  // measure 11
1000
0010
0000
1000
0001
0000
1000
0100
0000
0000
1000
0001
0000
0001
0010
0000
,  // measure 12
0021
0000
0000
2030
0000
0000
3002
0000
0000
0203
0000
0000
1300
0001
1000
0001
,  // measure 13
0000
1000
0010
0000
0100
0000
2000
0000
0000
3100
0001
0000
1000
0000
0001
0000
,  // measure 14
1000
0000
0100
0020
0000
0000
0130
0000
1000
0002
0000
0010
0000
1003
0000
0000
,  // measure 15
0000
0001
0010
0000
0100
0000
0002
0000
0000
0103
1000
0000
0001
0000
1000
0000
,  // measure 16
0001
0000
0100
0020
0000
0000
0130
0000
0001
2000
0000
0010
0000
3001
0000
0000
,  // measure 17
2000
0000
3100
0000
0010
0001
2000
0000
0000
0010
0000
3001
1000
0000
0001
0000
,  // measure 18
2000
0000
3010
0000
0100
0001
2000
0000
0000
3100
1000
0000
0001
1000
0001
0000
,  // measure 19
1000
0000
1000
0010
0000
0010
0002
0000
0003
0000
0010
0000
0100
0000
0001
0000
,  // measure 20
1000
0000
1000
0100
0000
0010
0001
1000
0002
0000
0000
0000
1003
0010
0100
0001
,  // measure 21
2000
0000
0000
3020
0000
0000
0230
0000
0000
0000
2300
0000
0000
0000
3200
0000
,  // measure 22
0302
0000
0000
0000
0023
0000
0230
0000
0000
0000
0302
0000
0000
0203
0000
0000
,  // measure 23
2300
0000
0000
0000
3020
0000
0000
0000
0032
0000
0000
2003
0000
0000
3200
0000
,  // measure 24
0302
0000
0000
0000
0010
0000
0000
0000
2003
0000
0000
0000
3010
1000
0001
0100
,  // measure 25
0002
0010
1003
0001
2000
0010
3001
1000
,  // measure 26
0002
0100
1003
0001
2000
0100
3001
1000
,  // measure 27
0002
0000
0010
0000
0103
0000
0001
0000
2000
0000
3010
1000
0100
0000
1000
0000
,  // measure 28
0012
0000
1000
0000
0103
0000
0001
0000
1001
0000
1000
0100
0010
0001
0010
0100
,  // measure 29
2000
0000
0000
3020
0000
0000
0230
0000
0000
0000
0310
0000
0100
0001
0010
0001
,  // measure 30
0020
0000
0000
2030
3000
0000
0020
0000
0000
0000
0032
0000
0203
0000
2300
0000
,  // measure 31
3200
0000
0000
0320
0000
0000
2030
0000
3200
0000
0000
0302
0000
0000
0203
0000
,  // measure 32
0320
0000
0000
0001
0000
0001
0000
0000
1000
0030
0000
0010
0001
0010
0100
1000
,  // measure 33
0002
0000
0000
0000
0100
0000
0000
0000
2003
0000
0000
3200
0000
0000
0302
0000
,  // measure 34
0203
0000
0000
0000
0000
0000
0310
0000
0000
0001
1000
0001
2000
0000
0000
0000
0000
0000
3100
0000
0000
2000
0000
0000
,  // measure 35
3020
0000
0000
0230
0000
0000
2300
0000
3000
0000
0200
0000
0302
0000
2003
0000
,  // measure 36
3002
0000
0000
0000
0013
0100
1000
0001
2000
0000
0000
0000
3010
0100
0001
1000
,  // measure 37
0002
0000
0000
0000
0000
0000
0003
0000
0002
0000
0000
0023
0000
0000
0230
0000
,  // measure 38
0302
0203
2300
3002
,  // measure 39
2003
0000
0000
3020
0000
0000
0230
0000
0000
0000
0310
0000
1000
0000
0001
0000
,  // measure 40
1000
0000
0100
0000
0010
0000
0002
0000
0000
0000
2003
0000
0000
3200
0000
0000
,  // measure 41
2300
0000
0000
0000
0000
0000
3000
0000
2000
0000
0000
3020
0000
0000
0032
0000
,  // measure 42
0023
2030
3002
0203
,  // measure 43
0302
0000
0000
0023
0000
0000
0230
0000
0000
0000
0000
0000
0000
0000
0000
0000
,  // measure 44
2300
0000
3001
0100
1000
0100
0001
1000
,  // measure 45
0001
0010
0100
0020
0000
0000
0032
0000
0000
1003
0010
0100
,  // measure 46
0001
0010
0100
2000
0000
0000
3002
0000
0000
1003
0010
0100
,  // measure 47
0001
0000
0010
0000
0001
0000
1000
0000
0001
0000
0100
0000
0020
0000
0000
0000
0230
0000
0000
0000
0301
0000
0000
0001
,  // measure 48
1000
0000
0000
0000
0000
1000
0100
0000
0000
0000
0000
0100
0010
0000
0000
0000
0000
0010
0001
0000
0000
0000
0000
0000
,  // measure 49
1000
0000
0010
0000
0100
0000
2000
0000
0000
0000
0000
0000
3200
0000
0000
0000
0000
0000
0301
0000
0000
0000
1000
0001
,  // measure 50
2000
0000
0000
0000
0000
0000
3100
0000
0000
0000
0001
1000
0002
0000
0000
0000
0000
0000
0203
0000
0000
0000
0000
0000
,  // measure 51
0301
0010
0100
1000
0001
0100
1000
0100
0001
1000
0001
0010
,  // measure 52
0100
0000
1000
0010
1000
0000
0100
0000
0010
0001
0010
0000
0100
0000
1000
0010
1000
0010
0100
0001
0100
0001
1000
0001
,  // measure 53
1000
0000
0001
0010
0001
0010
0001
0000
0010
0000
0100
0000
2000
0000
0000
0000
3020
0000
0000
0000
0130
0001
0100
0001
,  // measure 54
1000
0000
0100
0000
0010
0000
0001
0000
1000
0010
0100
0000
0001
0100
0010
0000
1000
0100
0010
0000
0001
0000
1000
0000
,  // measure 55
0001
0000
0100
0010
0100
0010
0100
0000
0001
0000
1000
0000
0100
0000
0001
0000
0100
0000
0010
0000
0001
1000
0001
1000
,  // measure 56
0001
0100
0010
0001
0010
0100
0001
0010
0100
0001
0100
0010
,  // measure 57
0001
0100
0010
1000
0010
0100
0001
0010
0100
1000
0100
0010
0001
0100
0010
1000
,  // measure 58
0100
0000
0000
0010
0000
0000
0001
0000
0000
1000
0000
0000
0001
0000
0010
0000
0100
0000
1000
0000
0000
0000
0000
0000
0001
0000
0100
0000
0010
0000
1000
0000
0000
0000
0000
0000
0001
0000
1000
0000
0010
0000
0200
0000
0000
0000
0000
0000
,  // measure 59
0000
0000
0000
0000
,  // measure 60
0300
0000
0000
0000
,  // measure 61
0002
0003
0000
0020
,  // measure 62
0030
0000
0200
0300
,  // measure 63
0000
2000
3000
0001
,  // measure 64
2000
0000
0000
3020
0000
0000
0230
0000
,  // measure 65
0000
0302
0000
0000
2003
0000
0000
0000
,  // measure 66
3000
0002
0000
0003
,  // measure 67
1000
0100
0100
0010
0010
0001
2000
0010
,  // measure 68
3010
0101
0002
0023
2030
0010
3010
0011
,  // measure 69
0002
0203
2300
3200
0320
2030
3002
0023
,  // measure 70
0130
1000
0001
0000
1000
0000
1100
0000
0010
1000
0010
1000
0002
0000
0000
0000
,  // measure 71
1003
0000
0020
0000
0230
0000
2300
0000
3200
0000
0000
0000
0301
1000
0020
0000
,  // measure 72
0030
0020
2030
3002
0023
0130
0020
0032
,  // measure 73
2003
0000
3020
0000
0230
0000
0302
0000
0010
0000
1003
0001
2000
0000
0100
0000
,  // measure 74
3100
0000
0011
0000
0002
0000
0203
0000
2300
0000
3100
0010
1000
0000
0002
0000
,  // measure 75
0023
0230
2300
0010
3002
0010
2003
3002
,  // measure 76
0103
0010
1000
0000
0001
0000
0011
0000
0000
1100
0000
0000
1002
0000
0103
0010
,  // measure 77
1000
0002
0023
0230
0302
0103
0020
0032
,  // measure 78
1003
0001
2001
3200
0302
2003
3020
0032
,  // measure 79
1003
0010
0100
0000
0001
0000
2000
0000
0100
0000
3001
0000
1002
0000
0010
0000
,  // measure 80
0010
0000
1003
0000
0001
0100
0010
0100
0001
0000
0020
0000
1000
0000
0031
0000
,  // measure 81
1000
0000
0001
0000
1000
0010
0100
0000
0001
0000
1000
0100
0010
0000
0001
0000
,  // measure 82
2000
0001
0000
3001
0000
0001
2000
0000
0000
0000
3000
0000
0000
0000
0000
0000
,  // measure 83
0000
0000
0000
0000
0000
0000
0002
0000
0100
0000
0203
0000
,  // measure 84
0000
0300
0002
0000
2003
0000
3200
0000
0302
0000
0203
0000
,  // measure 85
0000
0000
2300
0000
3002
0000
2003
0000
0000
0000
0000
0000
,  // measure 86
0000
0000
0000
0000
,  // measure 87
0000
0000
3000
0000
;

//---------------dance-single - ----------------
#NOTEDATA:;
#CHARTNAME:;
#STEPSTYPE:dance-single;
#DESCRIPTION:;
#CHARTSTYLE:;
#DIFFICULTY:Medium;
#METER:11;
#RADARVALUES:0.490076,0.750429,0.075472,0.631218,0.411664,500.000000,489.000000,11.000000,92.000000,0.000000,0.000000,0.000000,0.000000,0.000000,0.490076,0.750429,0.075472,0.631218,0.411664,500.000000,489.000000,11.000000,92.000000,0.000000,0.000000,0.000000,0.000000,0.000000;
#CREDIT:BlindedVanguard573;
#NOTES:
// measure 0
0000
0000
0000
0000
,  // measure 1
0000
0000
0000
0000
,  // measure 2
0000
0000
0000
0000
,  // measure 3
1000
0000
0000
0010
0000
0000
0100
0000
0001
0000
1000
0000
0001
0000
0000
0010
,  // measure 4
0000
0000
0100
0000
1000
0000
0001
0000
0100
0000
0000
0010
0000
0000
1000
0000
,  // measure 5
0001
0000
0000
0010
0000
0000
0100
0000
1000
0000
0001
0000
1000
0000
0000
0010
,  // measure 6
0000
0000
0100
0000
0001
0000
1000
0000
0100
0000
0000
0010
0000
0000
0001
0000
,  // measure 7
0000
0011
0000
0000
1100
0000
0000
1001
0000
0000
0000
0000
0000
0000
0101
0000
,  // measure 8
0000
0000
0001
1000
0000
0100
0000
0100
0010
0000
0000
0001
0000
1000
0000
0000
,  // measure 9
2002
0000
0000
0003
,  // measure 10
0020
3000
0200
0030
,  // measure 11
0002
0000
0000
0303
,  // measure 12
0021
0000
0000
0230
0000
0000
2300
0000
0000
3002
0000
0000
2000
0000
3003
0000
,  // measure 13
0000
0001
0100
1000
0000
1000
0100
0010
,  // measure 14
1000
0000
0000
2000
0000
0000
0010
0000
0001
0000
0000
0100
0000
3100
0000
0000
,  // measure 15
0000
1000
0100
0001
0000
0001
0100
0010
,  // measure 16
0001
0000
0000
0002
0000
0000
0010
0000
1000
0000
0000
0100
0000
0103
0000
0000
,  // measure 17
0001
0000
0100
0000
0010
0000
1000
0000
0000
0010
0000
0010
0100
0000
0001
0000
,  // measure 18
1000
0000
0100
0000
0010
0000
0001
0000
0000
1000
0001
0000
0100
0000
0010
0000
,  // measure 19
1000
0000
0000
0001
0000
0000
0100
0000
0000
0000
0001
0000
0010
0000
0100
0000
,  // measure 20
0010
0000
0000
0001
0000
0000
1000
0010
0200
0000
0000
0000
0310
0000
1000
0000
,  // measure 21
0001
0000
0000
0010
0000
0000
1000
0000
0000
0000
0010
0000
0000
0000
0100
0000
,  // measure 22
1000
0000
0000
0000
1000
0000
0001
0000
0000
0000
0100
0000
0000
0010
0000
0000
,  // measure 23
0200
0000
0000
0000
0302
0000
0000
0000
1003
0000
0000
0100
0000
0000
0010
0000
,  // measure 24
0002
0000
0010
0000
2003
0000
3010
1000
,  // measure 25
0001
0100
0100
0001
1000
0100
0100
1000
,  // measure 26
0001
0010
0010
0001
1000
0010
0010
1000
,  // measure 27
0100
0001
0001
1000
0010
0001
0001
1000
,  // measure 28
0010
0001
0001
1000
0100
0001
1000
0001
,  // measure 29
0100
0000
0000
0010
0000
0000
0020
0000
0000
0000
0130
0000
0001
0000
1000
0000
,  // measure 30
0100
0000
0000
0001
0000
0000
0200
0000
0000
0000
1300
0000
0010
0000
0100
0000
,  // measure 31
0001
0000
0000
1000
0000
0000
0010
0000
0100
0000
0000
1000
0000
0000
0100
0000
,  // measure 32
0002
0000
0000
1000
0000
1003
0000
0000
1001
0000
0000
0001
1000
0000
0100
0000
,  // measure 33
0020
0000
0000
0000
0130
0000
0000
0000
1000
0000
0000
0010
0000
0000
0001
0000
,  // measure 34
0020
0000
0130
0100
0002
0000
1003
0001
,  // measure 35
2000
0000
0000
3200
0000
0000
0302
0000
0003
0000
0001
0000
0100
0000
1000
0000
,  // measure 36
0002
0000
0103
0001
2000
0000
3100
1000
,  // measure 37
0002
0000
0000
0000
0000
0000
0003
0000
0001
0000
0000
0010
0000
0000
0100
0000
,  // measure 38
2000
3020
0230
0302
,  // measure 39
1000
0000
0000
1000
0000
0000
2003
0000
0000
0000
0000
0000
0010
0000
0000
0000
,  // measure 40
0001
0000
0000
0000
0100
0000
0100
0000
0000
0000
0010
0000
0000
0010
0000
0000
,  // measure 41
3002
0000
0000
0000
0000
0000
0003
0000
0001
0000
0000
0100
0000
0000
1000
0000
,  // measure 42
0200
0320
2030
3002
,  // measure 43
0023
0000
0000
0230
0000
0000
2300
0000
0000
0000
0000
0000
0000
0000
0000
0000
,  // measure 44
3002
0000
0000
0000
0010
0000
0000
0000
1000
0000
0000
0003
0100
0000
0000
0000
,  // measure 45
0001
0010
0001
0020
0000
0000
0130
0000
0000
1000
0000
0000
,  // measure 46
0001
0100
0001
0200
0000
0000
0310
0000
0000
1000
0000
0000
,  // measure 47
0001
0010
0001
1000
0010
1000
0001
0000
0010
0000
0100
0000
,  // measure 48
1001
0101
1001
1100
,  // measure 49
1000
0100
0010
0002
0000
0000
0010
0000
0000
2003
0000
0000
,  // measure 50
0010
3002
0100
1003
,  // measure 51
0001
0000
0001
0010
0000
0010
0100
0000
0100
1000
0000
1000
,  // measure 52
0001
0100
0100
0010
1000
1000
0001
0010
1000
0010
0001
1000
,  // measure 53
0001
0100
0010
0100
1000
0100
0020
0000
0230
0000
0301
1000
,  // measure 54
0001
0010
0100
1000
0001
0001
1000
0010
0100
0001
0010
0001
,  // measure 55
1000
0100
0010
0001
1000
0001
0100
1000
0100
0010
1000
0001
,  // measure 56
0010
0100
0010
0001
1000
0001
0100
0010
0100
0001
1000
0001
,  // measure 57
1000
0000
1000
0100
0000
0100
0010
0000
0010
0001
0000
0001
1000
0000
1000
0010
,  // measure 58
0000
0010
0100
0000
0100
0001
1000
0000
0100
1000
0001
0000
0010
0001
2000
0000
,  // measure 59
0000
0000
0000
0000
,  // measure 60
3000
0000
0000
0000
,  // measure 61
0002
0003
0000
0200
,  // measure 62
0300
0000
0020
0030
,  // measure 63
0000
2000
3000
0000
,  // measure 64
0002
0000
0000
0023
0000
0000
0230
0000
,  // measure 65
0000
2300
0000
0000
3002
0000
0003
0000
,  // measure 66
0000
2000
3000
0000
,  // measure 67
0001
0100
0100
0010
0010
1000
0002
0010
,  // measure 68
0013
0001
1000
0010
2000
0100
3100
1000
,  // measure 69
0001
0100
0010
1000
0010
0100
0001
1000
,  // measure 70
0002
0010
0013
0100
1000
0001
2000
0001
,  // measure 71
3001
1000
0010
0001
0020
0000
0130
0002
,  // measure 72
0003
0001
0001
0010
2000
0000
3010
0001
,  // measure 73
1000
1000
0010
0100
0001
1000
0002
0010
,  // measure 74
0010
0103
0001
0010
1000
0010
0100
1000
,  // measure 75
0010
0100
0002
0000
0203
0000
0310
0001
,  // measure 76
0020
0000
1000
0000
1030
0000
0002
0000
0000
2003
0000
0000
3002
0000
0010
0000
,  // measure 77
0013
0001
0100
0010
0002
0013
1000
0002
,  // measure 78
0003
0001
1000
0100
0010
0100
0001
0100
,  // measure 79
2000
0000
0000
3002
0000
0003
2000
0100
,  // measure 80
0100
3001
1000
0010
0001
0020
0130
0010
,  // measure 81
1000
0001
1000
0100
0100
0001
0100
0100
,  // measure 82
0010
0001
0000
0001
0000
0001
2000
0000
0000
0000
3000
0000
0000
0000
0000
0000
,  // measure 83
0000
0000
0000
0000
0000
0000
0002
0000
0010
0000
0023
0000
,  // measure 84
0000
0030
0002
0000
2003
0000
3020
0000
0032
0000
0023
0000
,  // measure 85
0000
0000
2030
0000
3002
0000
2003
0000
0000
0000
0000
0000
,  // measure 86
0000
0000
0000
0000
,  // measure 87
0000
0000
3000
0000
;

//---------------dance-single - ----------------
#NOTEDATA:;
#CHARTNAME:;
#STEPSTYPE:dance-single;
#DESCRIPTION:;
#CHARTSTYLE:;
#DIFFICULTY:Easy;
#METER:8;
#RADARVALUES:0.309728,0.450257,0.096055,0.308748,0.048027,316.000000,302.000000,14.000000,45.000000,0.000000,0.000000,0.000000,0.000000,0.000000,0.309728,0.450257,0.096055,0.308748,0.048027,316.000000,302.000000,14.000000,45.000000,0.000000,0.000000,0.000000,0.000000,0.000000;
#CREDIT:BlindedVanguard573;
#NOTES:
// measure 0
0000
0000
0000
0000
,  // measure 1
0000
0000
0000
0000
,  // measure 2
0000
0000
0000
0000
,  // measure 3
1000
0010
1000
1000
,  // measure 4
0001
0010
0001
0001
,  // measure 5
1000
0100
1000
1000
,  // measure 6
0001
0100
0001
0001
,  // measure 7
0000
0010
0000
0000
0010
0000
0000
0010
0000
0000
0000
0000
0000
0000
0100
0000
,  // measure 8
0000
0000
0001
0000
0000
0001
0000
0000
1000
0000
0000
0000
1001
0000
0000
0000
,  // measure 9
2000
0000
0000
0000
,  // measure 10
3020
0000
0230
0000
,  // measure 11
0302
0000
0000
0000
,  // measure 12
1003
0000
0000
0001
0000
0000
1001
0000
,  // measure 13
1000
0010
0100
1000
,  // measure 14
0100
0010
1000
1001
,  // measure 15
0001
0010
0100
0001
,  // measure 16
0100
0010
0001
1001
,  // measure 17
0001
0100
0100
1000
,  // measure 18
0100
0010
0010
1000
,  // measure 19
0001
0001
0010
0010
,  // measure 20
0100
1000
0001
1001
,  // measure 21
2000
0010
3010
1000
,  // measure 22
0002
0010
0013
0001
,  // measure 23
1000
0100
0010
0100
,  // measure 24
0001
0001
0100
1000
,  // measure 25
0001
0100
0010
1000
,  // measure 26
0001
0010
0100
1000
,  // measure 27
0001
0100
1000
0100
,  // measure 28
0001
0010
1000
0010
,  // measure 29
0002
0100
1003
0001
,  // measure 30
2000
0100
3001
1000
,  // measure 31
0001
0010
1000
0010
,  // measure 32
0200
1000
0310
0100
,  // measure 33
2000
3010
0200
0302
,  // measure 34
2003
0100
3002
0103
,  // measure 35
0001
0010
2000
3010
,  // measure 36
0001
0100
2000
3100
,  // measure 37
0020
0030
0200
0300
,  // measure 38
0001
0010
0100
1000
,  // measure 39
0001
0100
0002
0000
,  // measure 40
0010
0010
1000
1000
,  // measure 41
0203
0300
0010
1000
,  // measure 42
0001
0001
1000
1000
,  // measure 43
0001
0010
2000
3000
,  // measure 44
0020
0100
1000
0031
,  // measure 45
0010
0001
0100
0101
,  // measure 46
0010
1000
0100
1100
,  // measure 47
1000
0100
0001
0100
,  // measure 48
1000
1000
0001
0001
,  // measure 49
1000
0010
0200
0310
,  // measure 50
2000
3001
0020
0130
,  // measure 51
1000
0100
0001
0100
,  // measure 52
1000
1010
0101
1001
,  // measure 53
0001
0000
0000
0000
0000
0000
0000
0000
0001
0000
0000
0000
0010
0000
0000
0000
0000
0000
0000
0000
0000
0000
0000
0000
0100
0000
0000
0000
0000
0000
0000
0000
0000
0100
0000
0000
0000
0000
0000
0000
0000
0000
0100
0000
0000
0000
0000
0000
,  // measure 54
1000
0000
1000
0001
0000
0000
0100
0000
0100
0010
0000
0000
,  // measure 55
1000
0000
1000
0010
0000
0010
0100
0000
0100
0001
0000
0001
,  // measure 56
1000
2100
3010
0102
,  // measure 57
0013
0000
0000
0001
0000
0000
0100
0000
0000
0010
0000
0000
1000
0000
0100
0000
,  // measure 58
0010
0001
1000
0010
0100
0001
0100
0020
,  // measure 59
0000
0000
0000
0000
,  // measure 60
0030
0000
0000
0000
,  // measure 61
2000
3000
0000
0002
,  // measure 62
0003
0000
0020
0030
,  // measure 63
0000
0200
0300
0000
,  // measure 64
2000
0000
0000
0010
0000
0000
3002
0000
,  // measure 65
0000
0010
0000
0000
2003
0000
3000
0000
,  // measure 66
0000
0002
0003
0000
,  // measure 67
1000
0000
0000
0010
0000
0000
0100
0000
,  // measure 68
0100
0010
1000
1000
,  // measure 69
0001
0010
1000
0010
,  // measure 70
0002
0000
0003
2000
0000
3000
0002
0000
,  // measure 71
0003
0100
0000
0010
0010
0000
0100
0100
,  // measure 72
0000
0001
0001
0000
0010
0000
0100
0000
,  // measure 73
1000
0000
0001
0001
0000
0000
1000
0000
,  // measure 74
1000
0000
0010
0000
0100
0000
0001
0001
,  // measure 75
0000
1000
1000
0000
0100
0000
0010
0000
,  // measure 76
0001
0000
0000
0000
0000
0000
1000
0000
0000
1000
0000
0000
1000
0000
0000
0000
,  // measure 77
0000
0010
0000
0010
0100
0000
0100
0001
,  // measure 78
0000
0001
1000
0000
1000
0100
0000
0100
,  // measure 79
0020
0000
0030
0200
0000
0300
1000
0000
,  // measure 80
1000
0010
0001
0001
,  // measure 81
0010
0000
0100
0000
0100
0001
0000
0001
,  // measure 82
0010
0000
0010
1001
0000
0000
0000
0000
,  // measure 83
0000
0000
2000
0000
,  // measure 84
0000
3000
0002
0000
,  // measure 85
0000
0003
2002
0000
,  // measure 86
0000
0000
0000
0000
,  // measure 87
0000
0000
3003
0000
;

//---------------dance-single - ----------------
#NOTEDATA:;
#CHARTNAME:;
#STEPSTYPE:dance-single;
#DESCRIPTION:;
#CHARTSTYLE:;
#DIFFICULTY:Beginner;
#METER:4;
#RADARVALUES:0.175447,0.226072,0.006861,0.068611,0.000000,179.000000,178.000000,1.000000,10.000000,0.000000,0.000000,0.000000,0.000000,0.000000,0.175447,0.226072,0.006861,0.068611,0.000000,179.000000,178.000000,1.000000,10.000000,0.000000,0.000000,0.000000,0.000000,0.000000;
#CREDIT:BlindedVanguard573;
#NOTES:
// measure 0
0000
0000
0000
0000
,  // measure 1
0000
0000
0000
0000
,  // measure 2
0000
0000
0000
0000
,  // measure 3
1000
1000
1000
0000
,  // measure 4
0001
0001
0001
0000
,  // measure 5
0010
0010
0010
0000
,  // measure 6
0100
0100
0100
0100
,  // measure 7
0000
1000
1000
0000
,  // measure 8
0001
0000
0010
0010
,  // measure 9
0020
0000
0000
0000
,  // measure 10
0000
0000
0000
0030
,  // measure 11
0200
0000
0000
0300
,  // measure 12
1000
0000
0001
0001
,  // measure 13
0000
0100
0100
0000
,  // measure 14
0010
0010
0000
0000
,  // measure 15
0000
1000
1000
0000
,  // measure 16
0001
0001
0000
0000
,  // measure 17
0010
0010
0010
0000
,  // measure 18
0100
0100
0100
0000
,  // measure 19
1000
0000
0001
0000
,  // measure 20
0100
0100
0100
0000
,  // measure 21
0010
0000
0010
0000
,  // measure 22
0100
0000
0100
0000
,  // measure 23
0001
0000
0010
0000
,  // measure 24
0100
0000
1000
0000
,  // measure 25
0001
0001
0001
0000
,  // measure 26
1000
1000
1000
0000
,  // measure 27
0010
0010
0010
0000
,  // measure 28
0100
0100
0100
0000
,  // measure 29
0001
0001
0001
0000
,  // measure 30
0010
0010
0010
0000
,  // measure 31
0100
0000
1000
0000
,  // measure 32
0001
0000
1000
0000
,  // measure 33
0020
0030
0100
0100
,  // measure 34
0100
0000
0001
0000
,  // measure 35
0010
0010
0010
0000
,  // measure 36
0100
0100
0100
0100
,  // measure 37
0200
0000
0300
0000
,  // measure 38
0000
0000
0000
0000
,  // measure 39
2000
0000
3000
0000
,  // measure 40
0000
0000
0000
0000
,  // measure 41
0002
0000
0003
0000
,  // measure 42
0000
0000
0000
0000
,  // measure 43
0200
0000
0300
0000
,  // measure 44
0020
0000
0030
0000
,  // measure 45
1000
1000
1000
0000
,  // measure 46
0001
0001
0001
0000
,  // measure 47
0010
0010
0010
0000
,  // measure 48
0100
0100
0100
0000
,  // measure 49
1000
1000
1000
0000
,  // measure 50
0001
0001
0001
0000
,  // measure 51
0100
0100
0100
0000
,  // measure 52
0010
0010
0010
0000
,  // measure 53
1000
1000
1000
1000
,  // measure 54
1000
0000
0001
0000
,  // measure 55
0010
0010
0010
0010
,  // measure 56
0010
0000
0100
0000
,  // measure 57
1000
1000
1000
1000
,  // measure 58
1000
1000
1000
2000
,  // measure 59
0000
0000
0000
0000
,  // measure 60
3000
0000
0000
0000
,  // measure 61
0000
0000
0000
0000
,  // measure 62
0000
0000
0000
0000
,  // measure 63
0000
0000
0000
0000
,  // measure 64
0001
0000
0000
0010
,  // measure 65
0000
0000
0100
0000
,  // measure 66
0000
1000
0000
0000
,  // measure 67
0001
0000
0000
1000
,  // measure 68
1000
0000
0010
0010
,  // measure 69
0000
0000
0100
0000
0000
0001
0000
0000
,  // measure 70
0010
0000
0000
0100
0000
0000
2000
0000
,  // measure 71
0000
0000
3000
0000
0001
0000
0000
0010
,  // measure 72
0000
0100
0100
0000
,  // measure 73
1000
0000
0000
0001
0000
0000
0100
0000
,  // measure 74
0100
0000
0000
0000
0010
0000
0000
1000
,  // measure 75
0000
0001
0001
0001
,  // measure 76
0001
0000
0000
0010
0000
0000
0100
0000
,  // measure 77
0000
1000
0000
0000
0001
0000
0000
0100
,  // measure 78
0000
0000
0010
0000
0000
1000
0000
0000
,  // measure 79
0001
0000
0000
1000
0000
0000
0100
0000
,  // measure 80
0100
0000
0010
0010
,  // measure 81
0000
0000
0001
0000
0000
0100
0000
0000
,  // measure 82
0010
0000
0000
1001
0000
0000
0000
0000
;
