#TITLE:Anywhere;
#SUBTITLE:;
#ARTIST:Rita Ora;
#TITLETRANSLIT:;
#SUBTITLETRANSLIT:;
#ARTISTTRANSLIT:;
#GENRE:;
#CREDIT:;
#BANNER:banner.png;
#BACKGROUND:Anywhere-bg.png;
#LYRICSPATH:;
#CDTITLE:;
#MUSIC:Anywhere.ogg;
#OFFSET:-0.044000;
#SAMPLESTART:83.244637;
#SAMPLELENGTH:16.740023;
#SELECTABLE:YES;
#BPMS:0.000000=107.000000
;
#STOPS:
;
#BGCHANGES:0.000=Anywhere.avi=1.000=0=0=1==Anywhere.avi===,
99999=-nosongbg-=1.000=0=0=0 // don't automatically add -songbackground-
;
#KEYSOUNDS:;
#ATTACKS:;

//---------------dance-single - ----------------
#NOTES:
     dance-single:
     :
     Beginner:
     2:
     0.089879,0.105012,0.000000,0.000000,0.000000,85.000000,85.000000,0.000000,0.000000,0.000000,0.000000,0.089879,0.105012,0.000000,0.000000,0.000000,85.000000,85.000000,0.000000,0.000000,0.000000,0.000000:
0000
0000
0000
0000
,
0000
0000
0000
0000
,
0000
0000
0000
0000
,
0000
0000
0000
0000
,
0000
0000
0000
0000
,
1000
0000
1000
0000
,
0001
0000
0001
0000
,
0100
0000
0000
0000
,
0100
0000
0000
0000
,
0001
0000
0001
0000
,
0010
0000
0010
0000
,
0100
0000
0000
0000
,
0100
0000
0000
0000
,
1000
0000
1000
0000
,
0001
0000
0001
0000
,
1000
0000
1000
0000
,
0001
0000
0000
0000
,
0100
0000
0100
0000
,
0010
0000
0010
0000
,
0100
0000
0100
0000
,
0010
0000
0000
0000
,
1000
0000
0000
0000
,
0100
0000
0000
0000
,
0010
0000
0010
0000
,
0001
0000
0000
0000
,
0100
0000
0100
0000
,
0010
0000
0010
0000
,
1000
0000
1000
0000
,
0001
0000
0000
0000
,
1000
0000
1000
0000
,
0100
0000
0100
0000
,
0010
0000
0010
0000
,
0001
0000
0000
0000
,
1000
0000
0000
0000
,
0010
0000
0000
0000
,
0100
0000
0100
0000
,
0001
0000
0000
0000
,
1000
0000
1000
0000
,
0001
0000
0001
0000
,
0010
0000
0010
0000
,
0100
0000
0100
0000
,
1000
0000
1000
0000
,
0001
0000
0001
0000
,
0100
0000
0100
0000
,
0010
0000
0010
0000
,
1000
0000
0000
0000
,
0001
0000
0000
0000
,
0100
0000
0100
0000
,
0010
0000
0000
0000
,
0100
0000
0000
0000
,
0001
0000
0000
0000
,
0010
0000
0010
0000
,
0100
0000
0000
0000
,
1000
0000
1000
0000
,
0001
0000
0001
0000
,
0100
0000
0100
0000
,
0010
0000
0010
0010
;

//---------------dance-single - ----------------
#NOTES:
     dance-single:
     :
     Easy:
     5:
     0.157552,0.210025,0.022205,0.059214,0.000000,149.000000,146.000000,3.000000,8.000000,0.000000,0.000000,0.157552,0.210025,0.022205,0.059214,0.000000,149.000000,146.000000,3.000000,8.000000,0.000000,0.000000:
0000
0000
0000
0000
,
0000
0000
0000
0000
,
0000
0000
0000
0000
,
0000
0000
0000
0000
,
0000
0000
0000
0000
,
1000
1000
0100
0000
,
0010
0010
0001
0000
,
0100
0100
0010
0000
,
0100
0100
0001
0000
,
1000
0100
0010
0000
,
0001
0100
0010
0000
,
1000
0000
0000
0000
,
0001
0000
0000
0000
,
1000
0000
0010
0000
,
0100
0000
0001
0000
,
0010
0000
0100
0000
,
1000
0000
0000
0000
,
0001
0000
0100
0000
,
0010
0000
1000
0000
,
0100
0000
0010
0000
,
0001
0000
0000
0000
,
2000
0000
3100
0000
,
0020
0000
0031
0000
,
0001
0100
0010
1000
,
0100
0010
0001
0000
,
1000
1000
0001
0001
,
0100
0100
0010
0010
,
0100
0100
0001
0001
,
0010
0100
1000
1001
,
0001
0001
0100
0100
,
0010
0010
1000
1000
,
0100
0100
1000
1000
,
0010
0100
0001
0001
,
2000
0000
0100
0000
,
3002
0000
0100
0000
,
1003
0010
0100
0001
,
0010
0100
1001
0000
,
0001
0001
0010
0010
,
0100
0100
1000
1000
,
0001
0100
0010
1000
,
0001
0000
0001
0000
,
1000
1000
0010
0010
,
0100
0100
0001
0001
,
1000
0100
0010
0001
,
1000
0000
1000
0100
,
2000
0000
3010
0000
,
0200
0000
0301
0000
,
0010
0100
1000
0001
,
0100
0000
0100
0000
,
0020
0000
0130
0000
,
0002
0000
1003
0000
,
0100
1000
0010
0100
,
0001
0000
0001
0000
,
1000
0000
1000
0000
,
0100
0000
0100
0000
,
0010
0000
0010
0000
,
0001
0000
0001
1001
;

//---------------dance-single - ----------------
#NOTES:
     dance-single:
     :
     Medium:
     7:
     0.253775,0.294035,0.044411,0.066616,0.000000,240.000000,234.000000,6.000000,9.000000,0.000000,0.000000,0.253775,0.294035,0.044411,0.066616,0.000000,240.000000,234.000000,6.000000,9.000000,0.000000,0.000000:
0000
0000
0000
0000
,
0000
0000
0000
0000
,
0000
0000
0000
0000
,
0000
0000
0000
0000
,
0000
0000
0000
0000
,
1000
0100
1000
0000
0010
0000
0100
0000
,
0001
0010
0001
0000
0100
0000
0010
0000
,
0100
0000
0100
0001
,
0001
0000
0000
0000
1000
0000
0100
1000
,
0010
0000
0100
0000
0001
0000
0000
0001
,
0010
0000
0100
0000
1000
0000
1000
0001
,
2000
0010
3010
0100
,
0002
0000
0000
0000
,
1003
0100
0100
1000
,
0001
0010
0010
0001
,
1000
0010
0010
1000
,
0100
0000
0100
0000
,
1000
0001
0001
1000
,
0010
1000
1000
0100
,
1000
0001
0001
0100
,
0001
0000
0000
0000
1000
0000
0100
1000
,
0010
0000
0100
0000
0100
0000
0001
0010
,
0100
0010
0001
0000
,
1000
0010
1000
0000
0100
0000
0010
0000
,
0001
0000
0000
0000
0001
0000
1000
0100
,
1000
0000
1000
0010
1000
0000
0001
0010
,
0001
0000
0001
0000
0100
0000
0100
0001
,
1000
0000
0100
1000
0001
0000
0010
0001
,
1000
0000
0010
0010
0100
0000
0110
0000
,
1001
0000
0001
0100
0001
0000
1000
0100
,
1000
0000
1000
0000
0010
0000
0010
1000
,
0001
0000
0001
0010
0001
0000
1000
0100
,
1000
0000
0001
0100
0010
0000
0100
0001
,
0020
1000
0031
2000
,
3020
0001
1030
0001
,
1000
0100
0010
0000
0001
0100
0010
0000
,
1000
1000
0001
0000
1001
0000
0000
0000
,
0001
0000
0010
0000
0001
0100
0010
0000
,
1000
0000
0100
0000
1000
0010
0100
0000
,
0001
0000
1000
0000
0100
0010
0001
0000
,
1000
1000
0001
0000
0110
0000
1001
0000
,
0001
0000
0010
0000
0001
1000
0010
0000
,
1000
0000
0001
0000
1000
0001
0100
0000
,
0001
0000
0010
0000
0100
0000
0010
0001
,
1000
0000
0010
0000
0100
0000
0010
1000
,
0200
0010
1300
0001
,
0200
0010
0301
1000
,
0001
0010
0001
0000
1000
0000
1000
0000
,
0010
0010
0100
0100
,
0002
0010
1003
0001
,
2000
0010
3001
1000
,
0001
0100
0001
0000
1000
0000
1000
0000
,
0100
0100
1000
0000
,
0010
0010
1000
1000
,
0100
0000
0100
0000
0010
0000
0001
0100
,
0001
0000
0010
0100
0010
0000
0100
1000
,
0100
0000
1000
1000
0001
0000
0110
0000
;

//---------------dance-single - ----------------
#NOTES:
     dance-single:
     :
     Hard:
     13:
     0.426130,0.546065,0.037009,0.118428,0.281267,403.000000,398.000000,5.000000,16.000000,0.000000,0.000000,0.426130,0.546065,0.037009,0.118428,0.281267,403.000000,398.000000,5.000000,16.000000,0.000000,0.000000:
// measure 0
0000
0000
0000
0000
,  // measure 1
0000
0000
0000
0000
,  // measure 2
0000
0000
0000
0000
,  // measure 3
0000
0000
0000
0000
,  // measure 4
0000
0000
0000
0000
,  // measure 5
0000
0000
2000
0000
0000
0100
0000
0000
0010
0000
0000
0100
0000
0000
3001
0000
,  // measure 6
0000
0000
0002
0000
0000
0100
0000
0000
0010
0000
0000
0100
0000
0000
1003
0000
,  // measure 7
0000
0000
2000
0000
0000
0010
0000
0000
0100
0000
0000
0010
0000
0000
3001
0000
,  // measure 8
0000
0000
0002
0000
0000
0010
0000
0000
0100
0000
0000
0010
0000
0000
1003
0000
,  // measure 9
2000
0000
3100
0010
0001
0000
0100
0010
,  // measure 10
0200
0000
0000
0000
0301
0000
0010
0000
0100
0000
0000
0000
1000
0001
1000
0001
,  // measure 11
1000
0000
0000
0000
0010
0000
0000
0000
0100
0000
0000
0000
0001
1000
0001
1000
,  // measure 12
0002
0000
0000
0000
,  // measure 13
1003
0100
1000
0010
1000
0001
0010
0000
,  // measure 14
0001
0100
0001
0010
0001
0100
0010
0000
,  // measure 15
0100
0001
0010
0100
1000
0010
0100
0010
,  // measure 16
1000
1000
0001
0001
,  // measure 17
1000
0100
0001
0100
0001
0100
1000
0000
,  // measure 18
0001
0100
1000
0100
1000
0100
0001
0000
,  // measure 19
1000
0100
0010
0001
0100
0010
0001
0010
,  // measure 20
1000
0000
1000
0000
0001
0000
1000
0100
,  // measure 21
0020
0000
1000
0000
0031
0000
0001
0100
,  // measure 22
0020
0001
1030
0001
,  // measure 23
1000
0100
0001
1000
0010
0001
0010
0100
,  // measure 24
1000
0000
0001
0000
1000
0000
0001
0000
1000
0100
1000
0010
0100
0001
0100
0001
,  // measure 25
1000
0000
0001
0000
1000
0100
0010
0000
0001
0000
1000
0000
0001
0100
0010
0000
,  // measure 26
1000
0000
0000
1000
0100
0000
0000
0100
0010
0000
0000
0010
0001
0000
0001
0000
,  // measure 27
1000
0000
1000
0000
0001
0100
0010
0000
1000
0000
1000
0000
0001
0010
0100
0000
,  // measure 28
1000
1000
0001
0001
0110
0000
1010
0000
,  // measure 29
1001
0000
1000
0000
0001
0100
0010
0000
1000
0000
0001
0000
1000
0100
0010
0000
,  // measure 30
0001
0000
0000
0001
1000
0000
0000
1000
0010
0000
0000
0010
0100
0000
0100
0000
,  // measure 31
0001
0000
0001
0000
1000
0100
0010
0000
0001
0000
0001
0000
1000
0010
0100
0000
,  // measure 32
0001
0001
1000
1000
0001
0000
1000
0100
,  // measure 33
0020
0000
1000
0000
0031
1000
0001
0100
,  // measure 34
0020
0001
1030
0001
,  // measure 35
1000
0100
0001
0100
1000
0100
0001
0100
,  // measure 36
1000
0010
1000
0010
0001
0010
0001
0010
1000
0001
0100
0010
2000
0000
0000
0000
,  // measure 37
3001
0000
0010
0000
1000
0010
1000
0010
0001
0000
0100
0000
1000
0100
1000
0100
,  // measure 38
0001
0000
1000
0000
0100
0010
0100
0010
0100
0000
1000
0000
0001
0100
0001
0100
,  // measure 39
0010
0000
0100
0000
0001
0010
0001
0010
0100
0000
0010
0000
0001
1000
0001
1000
,  // measure 40
0010
0000
0010
1000
0100
0000
0010
0000
0001
0000
0100
0010
0000
0010
0100
0000
,  // measure 41
0001
0000
1000
0000
0100
0000
0010
0000
0100
0000
1000
0000
0010
0100
0000
0100
,  // measure 42
0001
0000
0010
0000
0100
0000
0010
0000
0001
1000
0000
0010
0000
0100
0000
0010
,  // measure 43
1000
0000
1000
0000
0100
0010
0100
0010
0001
0000
1000
0000
0100
1000
0100
1000
,  // measure 44
0001
0100
0010
1000
0010
0100
0001
0001
,  // measure 45
2000
0000
0100
0000
3001
0100
1000
0100
,  // measure 46
0002
0000
0000
0000
0010
0000
0000
0000
1003
0001
1000
0000
1000
0000
0000
0000
,  // measure 47
0001
0000
0010
0000
1000
0000
0001
0000
0100
0000
1000
0000
0010
0000
0100
0001
,  // measure 48
1000
0000
0001
0100
0001
0000
1000
0100
1000
0000
0010
0000
0010
0000
1000
0000
,  // measure 49
0002
0000
0010
0000
1003
0010
0001
0010
,  // measure 50
2000
0000
0000
0000
3100
0000
0010
0001
1000
0000
0000
0000
0001
0000
0000
0000
,  // measure 51
1000
0000
0010
0000
0001
0000
1000
0000
0100
0000
0001
0000
0010
0000
0100
1000
,  // measure 52
0100
0000
0010
0001
0010
0000
0001
1000
0001
0000
1000
0000
1000
0000
0000
0000
,  // measure 53
1001
0000
0000
0000
0001
0100
0010
0000
1000
0000
0000
0000
0001
0100
0010
0000
,  // measure 54
1000
0000
0000
1000
0100
0000
0000
0100
0010
0000
0000
0010
0001
0000
0001
0000
,  // measure 55
1000
0000
0000
0000
0001
0100
0010
0000
1000
0000
0000
0000
0001
0100
0010
0000
,  // measure 56
1000
0000
0100
0100
0010
0000
1001
0000
;
