#TITLE:Anthurium;
#SUBTITLE:;
#ARTIST:BlackY feat. Risa Yuzuki;
#TITLETRANSLIT:;
#SUBTITLETRANSLIT:;
#ARTISTTRANSLIT:;
#GENRE:;
#CREDIT:;
#MUSIC:Anthurium.ogg;
#BANNER:Anthurium.png;
#BACKGROUND:Anthurium-bg.png;
#CDTITLE:;
#SAMPLESTART:62.535;
#SAMPLELENGTH:15.000;
#SELECTABLE:YES;
#OFFSET:0.000;
#BPMS:0.000=142.000;
#STOPS:;
#BGSTAGE:17;
#BGCHANGES:;
#FGCHANGES:;

//--------------- dance-single - DS+ JA- SJ- XO- ----------------
#NOTES:
     dance-single:
     DS+ JA- SJ- XO-:
     Challenge:
     15:
     0,0,0,0,0:
0000
0000
0000
0000
,
0000
0000
0000
0000
,
0000
0000
0000
0000
,
0000
0000
0000
0000
,
0000
0000
0000
0000
0000
0000
0000
0000
0000
0000
0000
0000
0000
0000
0000
0000
0000
0000
0000
0000
0000
0001
1000
0001
,
1000
0100
0010
0001
0010
0100
1000
0000
1010
0000
0101
0000
,
0001
0000
0020
0100
0000
0032
0000
0010
0000
1003
0000
0010
0010
0000
0100
0000
,
0001
0000
0200
0010
0000
0302
0000
0100
0000
1003
0100
0010
0010
0000
0001
0000
,
1000
0000
0020
0100
0000
2030
0000
0010
0000
3001
0000
0010
0100
1000
0010
0100
,
0101
0000
0000
0101
0000
0000
0101
0000
0000
0000
1100
0000
1100
0000
0000
0000
,
1000
1000
0000
2010
0000
3001
0000
0011
0000
0000
0201
0000
0000
0000
0000
0300
,
1001
0000
0000
0000
0001
0010
0000
0010
0000
0000
0100
0000
2000
0000
0100
0000
,
3001
0000
0000
0000
1000
0010
0000
0010
0000
0000
0100
0000
0001
0000
0010
0000
,
1001
0000
0000
0000
0001
0100
0000
0100
0000
0000
0010
0000
1000
0000
0100
0000
,
1001
0000
0000
1001
0000
0000
1001
0000
0000
0000
1000
0000
0020
0000
0100
0000
,
1030
0000
0000
0000
0001
0000
0000
0000
0001
0000
0000
0020
0000
0000
0100
0000
,
0031
0000
0000
0000
0000
0000
0000
0000
1000
0000
0000
0010
0000
0000
0100
0000
,
0001
0000
0000
0010
0000
0000
0200
0000
0000
0000
2300
0000
0000
0000
3010
0000
,
0200
0000
0000
0000
0000
0000
0000
0000
0000
0310
0000
0000
0000
0000
0000
0000
0000
0000
1000
0000
0001
0000
1000
0000
0001
0000
0000
0000
0010
0000
0000
0000
0100
0000
0000
0000
1000
0000
0000
0000
0100
0000
0000
0000
0010
0000
0000
0000
,
0001
0000
0000
0000
1001
1000
0000
0010
0000
0000
0100
0000
0002
0000
0100
0000
,
1003
0000
0000
0000
0001
0010
0000
0010
0000
0000
0100
0000
2000
0000
0100
0000
,
3001
0000
0000
0000
1000
0010
0000
0010
0000
0000
0100
0000
0001
0000
0010
0100
,
1000
0000
0001
0010
0002
0000
0103
0010
2000
0000
3001
0100
0002
0000
0013
0100
,
2000
0000
3000
0000
0001
0000
0100
0000
0020
0000
0000
0001
0000
0000
2030
0000
,
0010
0000
0000
0000
0001
0000
0000
3100
0000
0100
1000
0000
0001
0000
0010
0000
,
0011
0000
0000
1100
0000
0000
1000
0000
1010
0000
0000
0101
0000
0000
0001
0010
,
0100
0010
0001
0100
0000
0010
1000
0100
0010
0001
0000
1000
0010
0100
0001
0000
,
0021
0000
0000
0230
0000
0000
0001
0000
2300
0000
0000
3000
0000
0000
0001
1000
,
0002
0000
0000
0203
0000
0000
1000
0000
0302
0000
0000
0023
0000
0000
1000
0000
,
0031
0000
0000
0000
0001
0000
1000
0100
2000
0000
0000
3001
0000
0001
0100
0000
,
0201
0000
0000
0000
0000
0000
0000
0000
0000
0320
0000
0000
0000
0000
0000
0000
0000
0000
0001
0000
0000
0000
0000
0000
1030
0000
0000
0000
0000
0000
0000
0000
1000
0000
0000
0000
0000
0000
0000
0000
1000
0000
0000
0000
0000
0000
0000
0000
,
0200
0000
0000
0000
0000
0000
0000
0000
0000
0300
0000
0000
1001
0000
0000
0000
0000
0000
0001
0000
0000
0000
0000
0000
0100
0000
0000
0000
0000
0000
0000
0000
0000
0100
0000
0000
0000
0000
0000
0000
0000
0000
0010
0000
0100
0000
0010
0000
,
2000
0000
0000
3200
0000
0000
0302
0000
2003
0000
0000
3020
0000
0000
0032
0000
,
1003
0000
0001
0100
0000
0100
0010
0000
1000
0100
0000
0100
0010
0000
0001
0010
,
0100
0000
0000
0110
0000
0000
1000
0000
0001
0100
0000
0110
0000
0010
1000
0100
,
0010
0001
0100
0010
0100
0001
1000
0100
0010
0100
1000
0010
0100
0001
1000
0100
,
0010
0010
0000
0010
0000
0010
0000
0020
0000
0000
1000
0000
0032
0000
0000
0000
,
1003
0000
0200
0010
0000
2300
0010
0000
3002
0010
0000
0203
0010
0000
0301
0000
,
1001
0000
0000
0011
0000
0000
2200
0000
0000
0000
3300
0000
1000
0000
0001
0000
,
0100
0000
0020
0100
0000
1030
0001
0000
0010
0000
0200
0010
0000
1300
0001
0000
,
0101
0000
0000
2010
0000
0000
3100
0000
0200
0000
0000
0000
0310
0000
0100
0000
,
0002
0000
0000
0000
0103
0000
0010
0100
1000
0000
0002
0100
0000
2003
0100
0000
,
3001
0000
0000
0000
0110
0000
0000
0000
1001
0000
0000
0000
1000
0000
0100
0010
,
0001
0000
2000
0010
0000
3001
0100
0000
0001
0000
2000
0100
0000
3001
0010
0000
,
0011
0000
0001
0100
0010
0000
1000
0100
0010
0000
0001
0100
0010
1000
0010
0100
,
0001
0000
0020
0100
0000
0032
0100
0000
2003
0100
0000
3020
0100
0000
1030
0000
,
1001
0000
0000
1100
0000
0000
0022
0000
0000
0000
0033
0000
0001
0000
1000
0000
,
0020
0000
0030
0011
0000
0000
0001
0000
0200
0000
0300
1100
0000
0000
1000
0000
,
0200
0000
0000
0000
0000
0000
0300
0000
0000
0101
0000
0000
0000
0000
0000
0000
0000
0000
0001
0000
0000
0000
0000
0000
0010
0000
0000
0000
0000
0000
0001
0000
1000
0000
0001
0000
1000
0000
0000
0010
0000
0000
0100
0000
0000
0010
0000
0000
,
0002
0000
0000
0000
0000
0000
0000
0000
0000
0003
0000
0000
0011
0000
0000
0000
0010
0000
0000
0000
0100
0000
0000
0000
0001
0000
0000
0000
0000
0000
2000
0000
0000
0010
0000
0000
0000
0000
0000
3002
0000
0000
0010
0000
0000
0000
0000
0000
,
1003
0000
1100
0000
0011
0001
0100
0010
,
1000
0000
0100
0000
1000
0000
0001
0000
0100
0010
0100
0001
1000
0100
0010
0100
,
2000
0000
0000
3002
0000
0000
0203
0000
2300
0000
0000
3002
0000
0000
0023
0000
,
2030
0000
0000
0100
0000
0000
3001
0000
0000
0010
0001
0000
0001
0000
0010
0100
,
1000
0000
0002
0010
0000
2003
0000
3010
0000
0010
0100
0001
1000
0100
0010
0001
,
0010
0100
1000
0001
0000
1000
0010
1000
0000
0001
0010
0001
1000
0010
0100
0001
,
1000
0000
0000
0000
0100
0000
0000
0000
0010
0000
0000
0000
0001
0000
0000
0000
0010
0000
0000
0000
0100
0000
0000
0000
1000
0000
0000
0000
0000
0000
0001
0000
1000
0000
0001
0000
1000
0000
0000
0010
0000
0000
0100
0000
0000
0001
0000
0000
,
0020
0000
0000
0030
1001
0001
0100
0010
1000
0001
1000
0100
0010
0001
0010
0100
,
1000
0000
0002
0010
0000
2003
0010
0000
3001
0100
0010
0200
1000
0000
0010
0000
,
0301
0000
1000
0000
0100
0000
1001
0000
0000
0001
0010
0100
1000
0010
0100
0010
,
1010
0000
0000
1010
0000
0000
1010
0000
0000
0000
0011
0000
0011
0000
0000
0000
,
0001
0001
0000
0102
0000
1003
0000
1100
0000
0000
2010
0000
0000
0000
0000
0000
,
0000
0000
0000
0000
,
3002
0000
0000
0000
,
0013
0100
2000
0000
0000
0000
0000
0000
0000
0000
0000
0000
0000
0000
0000
0000
,
0000
0000
0000
0000
,
0000
0000
0000
0000
,
3000
0000
0000
0000
;
