#TITLE:安中のぴょん!ぴょん!エー!!;
#SUBTITLE:;
#ARTIST:佐土原かおり;
#TITLETRANSLIT:Annaka no Pyon! Pyon! E!!;
#SUBTITLETRANSLIT:;
#ARTISTTRANSLIT:Sadohara Kaori;
#GENRE:;
#CREDIT:;
#MUSIC:Annaka no Pyon! Pyon! E!!.ogg;
#BANNER:Annaka no Pyon! Pyon! E!!.png;
#BACKGROUND:Annaka no Pyon! Pyon! E!!-bg.png;
#CDTITLE:;
#SAMPLESTART:35.652;
#SAMPLELENGTH:15.000;
#SELECTABLE:YES;
#OFFSET:1.385;
#BPMS:0.000=162.000;
#STOPS:;
#BGCHANGES:;
#FGCHANGES:;

//--------------- dance-single - Extraordiberry ----------------
#NOTES:
     dance-single:
     Extraordiberry:
     Beginner:
     2:
     0,0,0,0,0:
0000
0000
0000
0000
,
0000
0000
0000
0000
,
0000
0000
0000
0000
,
0000
0000
0000
0000
,
0000
0000
0000
0000
,
0000
0000
0000
0000
,
0000
0000
0000
0000
,
1001
0000
0000
0000
,
0000
0000
0000
0000
,
1000
0000
0000
0000
,
0000
0000
0000
0000
,
1000
0000
0000
0000
,
0000
0000
0000
0000
,
0001
0000
0000
0000
,
0000
0000
0000
0000
,
0001
0000
0000
0000
,
0000
0000
0000
0000
,
0010
0000
0000
0000
,
0010
0000
0000
0000
,
0100
0000
0000
0000
,
0100
0000
0000
0000
,
0010
0000
0000
0000
,
1000
0000
0000
0000
,
0001
0000
0000
0000
,
0100
0000
0000
0000
,
1000
0000
0000
0000
,
0000
0000
0000
0000
,
0100
0000
0000
0000
,
0000
0000
0000
0000
,
0010
0000
0000
0000
,
0000
0000
0000
0000
,
0001
0000
0000
0000
,
0000
0000
0000
0000
,
1001
0000
0000
0000
,
1000
0000
0000
0000
,
0000
0000
0000
0000
,
0010
0000
0000
0000
,
0000
0000
0000
0000
,
0100
0000
0000
0000
,
0000
0000
0000
0000
,
0001
0000
0000
0000
,
1000
0000
0000
0000
,
0001
0000
0000
0000
,
0000
0000
0000
0000
,
0001
0000
0000
0000
,
0000
0000
0000
0000
,
1000
0000
0000
0000
,
0000
0000
0000
0000
,
1000
0000
0000
0000
,
0000
0000
0000
0000
,
0001
0000
0000
0000
,
0000
0000
0000
0000
,
0010
0000
0000
0000
,
0000
0000
0000
0000
,
0100
0000
0000
0000
,
0000
0000
0000
0000
,
1000
0000
0000
0000
,
0000
0000
0000
0000
,
0010
0000
0000
0000
,
0000
0100
0000
0000
,
0000
0010
0000
0000
,
0000
0100
0000
0000
,
0000
0010
0000
0000
,
0000
0100
0000
0000
,
0000
0010
0000
0000
,
0000
0000
1000
0000
,
0001
0000
0000
0000
,
0001
0001
0001
0000
,
1000
0000
0000
0000
,
1000
1000
1000
0000
,
0100
0000
0000
0000
,
0100
0100
0100
0000
,
0010
0000
0000
0000
,
0010
0010
0010
0000
,
0001
0000
0000
0000
,
1000
1000
1000
0000
,
0100
0000
0000
0000
,
0010
0010
0010
0000
,
0001
0000
0000
0000
,
1000
1000
1000
0000
,
0010
0000
0000
0000
,
0100
0000
0000
0000
,
1001
0000
0000
0000
,
1000
0000
0000
0000
,
0000
0000
0000
0000
,
1000
0000
0000
0000
,
0000
0000
0000
0000
,
0001
0000
0000
0000
,
0000
0000
0000
0000
,
0001
0000
0000
0000
,
0000
0000
1000
0000
;

//--------------- dance-single - Extraordiberry ----------------
#NOTES:
     dance-single:
     Extraordiberry:
     Easy:
     7:
     0,0,0,0,0:
0000
0000
0000
0000
,
0000
0000
0000
0000
,
0000
0000
0000
0000
,
0000
0000
0000
0000
,
0000
0000
0000
0000
,
0000
0000
0000
0000
,
0000
0000
0000
0000
,
2000
0000
0002
0000
,
0000
0000
0000
3003
,
1000
1000
1000
0000
,
0001
0001
0001
0000
,
0100
0100
0100
0000
,
0010
0010
0010
0000
,
1000
0001
1000
0000
,
0001
1000
0001
0000
,
0010
0100
0010
0100
,
0010
0010
0010
0000
,
2000
0000
3200
0000
,
0320
0000
0032
0000
,
2003
0000
3020
0000
,
0230
0000
0302
0000
,
2003
0000
3200
0000
,
0320
0000
0230
0000
,
2300
0000
3020
0000
,
0230
0000
0301
0001
,
1000
1000
1000
0000
,
0001
0000
0001
1001
,
0100
0100
0100
0000
,
0010
0000
0010
0110
,
0001
0001
1000
0000
,
1000
0000
0001
1001
,
1000
1000
0010
0000
,
1000
1000
0001
1000
,
2001
0000
0020
3030
,
1000
0100
1000
0000
,
0001
0010
0001
0000
,
1000
0010
1000
0000
,
0001
0100
0001
0000
,
1000
1000
1001
0000
,
0001
0001
1001
0000
,
1000
0010
0001
0000
,
0001
0010
1000
0000
,
1000
1000
1000
0000
,
0001
0001
0001
0000
,
0010
0010
0010
0000
,
0100
0100
0100
0000
,
1000
1000
0001
0000
,
0001
0001
1000
0000
,
0010
0010
0100
0000
,
0100
0100
0010
0100
,
0001
0010
0001
0000
,
1000
0100
1000
0000
,
0001
0100
0001
0000
,
1000
0010
1000
0000
,
0001
0010
0100
0000
,
1000
0100
0010
0000
,
0001
0100
0010
0000
,
1000
0010
0100
0001
,
2000
0000
3000
0002
0000
0003
2000
0000
,
3000
0002
0000
0003
1000
0000
0001
0000
,
0020
0000
0030
0200
0000
0300
0020
0000
,
0030
0200
0000
0300
0010
0000
0010
0000
,
0002
0000
0003
2000
0000
3000
0002
0000
,
0003
2000
0000
3000
0001
0000
0100
0000
,
0020
0000
0030
0200
0000
0300
0020
0000
,
0030
0200
0000
0300
0010
0000
0010
0000
,
0100
0010
1000
0000
,
0001
1000
0001
1001
,
1000
0100
0010
0000
,
0100
0000
0010
0110
,
0100
0010
0001
0000
,
1000
0001
1000
1001
,
0001
0001
0001
0000
,
1000
1000
0001
1000
,
0001
1000
0010
0000
,
0100
0010
0110
0000
,
1000
0100
0010
0000
,
0001
1000
0001
1001
,
1000
0010
0100
0000
,
0100
0010
0100
0110
,
0010
0010
1000
1000
,
0100
0100
0010
0010
,
0011
0000
2002
3003
,
0001
0001
0001
0000
,
1000
1000
1000
0000
,
0010
0010
0010
0000
,
0100
0100
0100
0000
,
0001
1000
0001
0000
,
1000
0001
1000
0000
,
0100
0100
0100
0000
,
0010
0010
0020
0000
,
0030
0000
0000
0000
;

//--------------- dance-single - Extraordiberry ----------------
#NOTES:
     dance-single:
     Extraordiberry:
     Medium:
     10:
     0,0,0,0,0:
0000
0000
0000
0000
,
0000
0000
0000
0000
,
0000
0000
0000
0000
,
0000
0000
0000
0000
,
0000
0000
0000
0000
,
0000
0000
0000
0000
,
0000
0000
0000
0000
,
1001
0000
0220
0000
,
0000
0000
0000
0330
,
1000
0000
0001
0000
1001
0000
0000
1000
,
0000
0001
0000
0000
1001
0000
0000
0000
,
0010
0000
0100
0000
0110
0000
0000
0100
,
0000
0010
0110
0000
,
0010
0000
0100
0000
1001
0000
0000
0100
,
0000
0010
0000
0000
1001
0000
0000
0000
,
1000
0000
0001
0000
0110
0000
0000
1000
,
0000
0001
0110
0001
,
1000
0000
0001
1000
0000
1000
0001
0000
,
1000
0001
0000
0001
1000
0000
0010
0100
,
0000
0100
0010
0000
1000
0100
0000
0100
,
1000
0000
0001
0010
0000
0010
0001
0000
,
1000
0100
0000
0100
0010
0000
0001
0100
,
0000
0100
0010
0000
1000
0001
0000
0001
,
0100
0000
0010
1000
0000
1000
0100
0000
,
0100
0010
0000
0001
1000
0000
1000
0000
,
1001
0000
0001
0000
1001
0000
0000
1001
,
0000
1001
0000
0000
1001
0000
1000
0000
,
0110
0000
0100
0000
0110
0000
0000
0110
,
0000
0110
0110
0001
,
1001
0000
0110
0000
1001
0000
0000
1001
,
0000
1001
0000
0000
0011
0000
1000
0000
,
1001
0000
1001
0000
1010
0000
0000
1001
,
0000
1100
0011
1001
,
0210
0000
0020
0330
,
1001
0000
1000
0100
1000
0000
0001
0010
,
0001
0000
1000
0001
1000
0000
0001
0000
,
1001
0010
0110
1000
,
1100
0001
0011
1000
,
0001
0000
0100
0001
0000
0001
1000
0000
,
1000
0001
0010
0000
0100
0000
0000
0000
,
1001
0000
1001
0000
1000
0001
1000
0001
,
0000
1001
0000
0001
1000
0000
0000
0000
,
2000
3200
0320
0000
,
0032
0000
0203
0000
,
0320
2030
3200
0000
,
2300
0000
3020
0000
,
0230
0302
2003
0000
,
3020
0000
0230
0000
,
0302
0203
2300
0000
,
3200
0302
0023
0130
,
0110
0000
0010
0000
0110
0000
0000
1001
,
0000
0001
0000
0000
1001
0000
0000
0000
,
1001
0000
0001
0000
1001
0000
0000
0110
,
0000
0100
0110
0000
,
1001
0000
0001
0000
0011
0000
0000
1001
,
0000
1000
0000
0000
0110
0000
0000
0000
,
1001
0000
1000
0000
1010
0000
0000
1001
,
0000
0110
1001
0001
,
1000
0000
0100
0010
0000
0010
0100
0000
,
1000
0001
1000
0000
0010
0100
0000
0100
,
0010
0000
1000
0001
1000
0000
0001
0010
,
0000
0010
0100
0000
1000
0100
1000
0000
,
0010
0000
0100
0001
0000
0001
1000
0000
,
0001
0010
0001
0000
1000
0010
0000
0010
,
0100
0000
0001
0010
0001
0000
1000
0001
,
0000
0001
0000
0001
1000
0000
0110
0000
,
1001
0000
1001
0000
1010
0000
0000
1001
,
0000
1001
0000
0000
0011
0000
1000
0000
,
1001
0000
1001
0000
0101
0000
0000
1001
,
0000
1100
1100
0001
,
1001
0000
1001
0000
0110
0000
0000
0110
,
0000
0110
0000
0000
1001
0000
0010
0000
,
1100
0000
1100
0000
1100
0000
0000
0011
,
0000
0101
1010
1010
,
1001
0000
0011
0000
1001
0000
0000
0011
,
0000
0101
0000
0000
1010
0000
0000
0000
,
1001
0000
0101
0000
1001
0000
0000
0011
,
0000
1001
1100
0001
,
1001
0000
0110
0000
1001
0000
0000
0110
,
0000
1001
0000
0000
0110
0000
0000
0000
,
1100
0000
1010
0000
0011
0000
0000
0101
,
0000
0011
1010
1100
,
1002
0000
0020
0033
,
0001
0000
1000
0001
1000
0000
1000
0001
,
0000
0001
0000
0001
1000
0000
0001
0000
,
0010
0000
0100
0010
0100
0000
0010
0100
,
0000
0100
0010
0000
0010
0000
0100
0000
,
1000
0000
0001
1000
0001
0000
0001
1000
,
0000
1000
0000
1000
0001
0000
1000
0000
,
0010
0000
0010
0000
0100
0000
0000
0100
,
0000
0100
0000
0000
0020
0000
0000
0000
,
0030
0000
0000
0000
;

//--------------- dance-single - Extraordiberry ----------------
#NOTES:
     dance-single:
     Extraordiberry:
     Hard:
     13:
     0,0,0,0,0:
0000
0000
0000
0000
,
0000
0000
0000
0000
,
0000
0000
0000
0000
,
0000
0000
0000
0000
,
0000
0000
0000
0000
,
0000
0000
0000
0000
,
0000
0000
0000
0000
,
1002
0000
0020
0000
,
0000
0000
0000
0033
,
0001
0000
0010
0100
0010
0000
0001
1000
,
0000
1000
0000
1000
0010
0000
1001
0000
,
0001
0000
0100
0010
0100
0000
0001
1000
,
0000
1000
0001
0000
0010
0000
1001
0000
,
1000
0000
0010
1000
0001
0000
0010
0001
,
0000
0001
0000
0001
1000
0000
1001
0000
,
0001
0000
0010
0001
1000
0000
0010
1000
,
0000
1000
0001
0000
1001
0000
0001
0000
,
1000
0000
0001
0000
0010
0000
0100
0000
0000
0010
0001
0000
0010
0000
0100
0000
,
1000
0001
0010
0100
0001
1000
0010
0001
,
0100
0000
0010
0000
1000
0000
0001
0000
0000
0001
1000
0000
0010
0000
0100
0000
,
0001
1000
0010
0100
1000
0001
0010
0100
,
0001
0000
0010
0000
0100
0000
1000
0000
0000
0001
0100
0000
1000
0000
0100
0000
,
0010
0000
0001
0000
0000
0010
0100
0000
0001
0000
0100
0000
0010
0000
1000
0000
,
0100
0100
0100
0010
0010
0001
0001
0001
,
0100
0100
0000
0001
1000
0000
1001
0000
,
0001
0000
1000
0100
0001
0000
0001
0100
,
0000
0100
0000
0100
0020
0000
1030
0000
,
0010
0000
0001
0100
1000
0000
1000
0100
,
0000
0100
0010
0000
0020
0000
0031
0000
,
0010
0000
1000
0100
0001
0000
0001
0100
,
0000
0100
0000
0010
0200
0000
0301
0000
,
0100
1000
0010
0100
1000
0100
0000
0010
,
0000
1000
0100
0001
0100
0000
1000
0000
,
2020
3000
0002
0033
,
0010
1000
0100
0001
0000
0001
0100
1000
,
0000
1000
0010
0100
0000
0100
0001
1000
,
0100
0001
0100
1000
0010
0001
0010
1000
,
0100
0010
0001
1000
0000
1000
0001
0100
,
0010
0001
0010
1000
0100
0010
0001
0010
,
1000
0010
0001
0100
0010
0000
1000
0000
,
0001
0000
0100
0000
1000
0100
0001
0010
,
0000
1000
0000
0010
0001
0000
0000
0000
,
1000
0000
0010
0100
1000
0000
1000
0100
,
0000
0100
0000
0010
1000
0000
0000
0000
,
0001
0000
0010
0100
0001
0000
0001
0100
,
0000
0100
0010
0000
0001
0000
0000
0000
,
1000
0000
0100
0001
0100
0000
0001
0100
,
0000
0100
0000
0100
0010
0000
0000
0000
,
0001
0000
0100
1000
0100
0000
1000
0100
,
0000
0100
0010
0000
0100
0000
0110
0000
,
1000
0000
0001
0100
1000
0000
0001
0010
,
0000
0010
0000
0010
1000
0000
1001
0000
,
0001
0000
1000
0100
0001
0000
1000
0010
,
0000
0010
0001
0000
0010
0000
1001
0000
,
0001
0000
0100
1000
0001
0000
0001
0010
,
0000
0010
0000
1000
0001
0000
1001
0000
,
1000
0000
1000
0100
0001
0000
1000
0010
,
0000
0001
0100
0000
0010
0000
1001
0000
,
1000
0000
0100
0000
0010
0000
0001
0000
0000
0010
0001
0000
1000
0000
0010
0000
,
0100
1000
0100
0010
0001
0010
1000
0010
,
0100
0000
0001
0000
1000
0000
0010
0000
0000
0010
1000
0000
0001
0000
0010
0000
,
0100
0001
0100
0010
1000
0010
0001
1000
,
0010
0000
0100
0000
1000
0000
0100
0000
0000
0100
0010
0000
1000
0000
0100
0000
,
0001
0000
0100
0000
0000
0010
0100
0000
1000
0000
0010
0000
0001
0000
0010
0000
,
1000
1000
1000
0100
0100
0001
0001
0001
,
1000
0010
0000
0001
1001
0000
0110
0000
,
1000
0000
0001
0100
1000
0000
1000
0001
,
0000
0010
0000
1000
0200
0000
0301
0000
,
0100
0000
1000
0010
0001
0000
0001
1000
,
0000
0100
0001
0000
0020
0000
1030
0000
,
0010
0000
0001
0100
1000
0000
0001
0010
,
0000
0010
0000
1000
0200
0000
0301
0000
,
0100
1000
0010
0001
1000
0100
0000
0001
,
0000
0010
1000
0010
0010
0000
1001
0000
,
1000
0000
0100
0001
1000
0000
0001
0100
,
0000
1000
0000
0020
0031
0000
0000
0000
,
0010
0000
0100
1000
0001
0000
1000
0100
,
0000
0001
0010
0000
0200
0000
0301
0000
,
0100
0000
0010
1000
0001
0000
1000
0010
,
0000
0001
0000
0200
1300
0000
0000
0000
,
0100
0001
0010
1000
0001
0100
0000
1000
,
0000
0010
0001
0010
0010
0000
1001
0000
,
0202
0003
2000
0300
,
3100
0000
0010
0100
0010
0000
1000
0001
,
0000
0001
0000
0001
0010
0000
1001
0000
,
1000
0000
0100
0010
0100
0000
1000
0001
,
0000
0001
1000
0000
0010
0000
1001
0000
,
0001
0000
0010
0001
1000
0000
0010
1000
,
0000
1000
0000
1000
0001
0000
1000
0000
,
0010
0000
0100
0100
0010
0000
0010
0100
,
0000
0100
0000
0100
2000
0000
0000
0000
,
3000
0000
0000
0000
;

//--------------- dance-single - Extraordiberry ----------------
#NOTES:
     dance-single:
     Extraordiberry:
     Challenge:
     14:
     0,0,0,0,0:
0000
0000
0000
0000
,
0000
0000
0000
0000
,
0000
0000
0000
0000
,
0000
0000
0000
0000
,
0000
0000
0000
0000
,
0000
0000
0000
0000
,
0000
0000
0000
0000
,
1001
0000
0000
0000
MMMM
MMMM
MMMM
MMMM
,
MMMM
MMMM
MMMM
MMMM
MMMM
MMMM
MMMM
0000
,
1001
0000
1000
0010
0100
0000
0001
0100
,
0000
0100
0000
0100
0010
0000
1001
0000
,
1000
0000
0001
0010
0100
0000
1000
0100
,
0000
0100
0010
0000
0001
0000
1001
0000
,
1000
0000
0010
0100
0001
0000
1000
0100
,
0000
0100
0000
0100
0010
0000
0110
0000
,
0001
0000
0010
0100
1000
0000
0001
0100
,
0000
0100
0010
0000
0110
0000
1001
0000
,
1000
MMMM
0001
MMMM
,
0010
MMMM
0100
MMMM
,
1001
MMMM
1000
MMMM
,
0110
MMMM
0010
MMMM
,
0110
MMMM
1010
MMMM
,
1001
MMMM
0011
MMMM
,
1001
MMMM
0110
MMMM
1001
MMMM
0110
MMMM
,
0001
1001
0000
1000
1001
0000
0110
0000
,
1001
0000
1000
0100
0110
0000
0010
0011
,
0000
1001
0000
0001
0101
0000
MMMM
0000
,
1001
0000
0001
0100
0110
0000
0010
1010
,
0000
1000
1001
0000
1100
0000
MMMM
0000
,
0110
0000
0001
1000
1001
0000
0100
0110
,
0000
0000
0110
0000
0000
0000
0001
0000
1001
0000
0000
MMMM
0000
0000
0000
0000
,
0101
0100
0101
0001
1001
1000
0000
1010
,
0000
1000
1100
0100
0110
0000
1001
0000
,
0220
0000
0330
0000
MMMM
MMMM
MMMM
0000
,
1000
0010
1000
1010
0000
1000
0001
1001
,
0000
0001
0100
0101
0000
1000
1001
0000
,
0001
0010
0001
0000
1000
0000
0000
0000
1000
0100
1000
0000
0001
0000
0000
0000
,
0001
0100
0001
0000
1000
0000
0100
0000
0010
0000
0001
0000
0010
0000
0000
0000
,
0011
0001
0100
0010
1010
0000
1000
1100
,
0000
1000
0100
0010
0011
0001
0010
0000
,
1001
0000
0110
0000
1001
1000
0010
0110
,
0000
0110
0000
0001
1001
0000
0000
0000
,
2000
0000
0100
0100
0100
0000
0001
0001
,
0000
0001
0000
0010
3010
0000
1000
0000
,
0002
0000
0100
0100
0100
0000
1000
1000
,
0000
0010
0010
0000
1003
0000
0001
0000
,
0200
0000
0001
0001
0001
0000
0010
0010
,
0000
1000
0000
0010
0310
0000
1000
0000
,
0200
0000
1000
1000
1000
0000
0010
0010
,
0000
0001
0001
0000
0310
0000
0110
0000
,
1000
0000
0100
0010
0001
0000
1000
0010
,
0000
1010
0000
1000
0100
0000
1001
0000
,
0001
0000
0100
0010
1000
0000
0001
0010
,
0000
0001
0100
0000
0101
0000
1001
0000
,
1100
0000
0010
0001
0011
0000
0001
0100
,
0000
0101
0000
0001
0011
0000
1001
0000
,
0110
0000
1000
0001
1001
0000
0010
0110
,
0000
0100
0110
0000
1001
0000
0110
0000
,
MMMM
0001
0100
0010
MMMM
0001
1000
0100
,
MMMM
0010
1000
0100
MMMM
0001
0001
0100
,
MMMM
1000
0010
0100
MMMM
1000
0001
0010
,
MMMM
0100
0001
0010
MMMM
0001
0010
1000
,
MMMM
1000
1100
0100
MMMM
0001
0101
0100
,
MMMM
1000
1010
0010
MMMM
0001
0011
0010
,
MMMM
1000
0110
0001
MMMM
0010
1001
0100
,
MMMM
1000
0000
0001
1001
0000
0110
0000
,
1001
0000
1000
0100
1100
0000
1000
1001
,
0000
1001
0000
0010
1010
0000
MMMM
0000
,
1001
0000
0001
0100
0101
0000
0001
1001
,
0000
1000
1001
0000
0011
0000
MMMM
0000
,
0110
0000
1000
0010
1010
0000
1000
1100
,
0000
1100
0000
0001
1001
0000
MMMM
0000
,
0011
0001
1001
0001
0101
0101
0000
1001
,
0000
1000
1001
1000
1100
0000
1100
0000
,
1001
0000
0011
0001
1001
0000
0100
0101
,
0000
1100
0000
0100
MMMM
0000
0000
0000
,
1001
0000
1010
1000
1001
0000
0100
1100
,
0000
1000
1100
0000
0101
0000
MMMM
0000
,
0110
0000
1001
1001
1001
0000
1100
1100
,
0000
0101
0000
0110
MMMM
MMMM
0000
0000
,
0011
0011
1001
1001
0101
0101
0000
0101
,
0000
0101
1001
1010
1001
0000
0011
0000
,
2002
0000
0000
0000
0000
3003
0000
0000
MMMM
0000
MMMM
0000
MMMM
0000
0000
0000
,
1000
0000
0001
0010
0100
0000
1000
0100
,
0000
0100
0000
0100
0010
0000
1001
0000
,
0001
0000
1000
0010
0100
0000
0001
0100
,
0000
0100
0010
0000
1000
0000
1001
0000
,
0001
0000
0010
0100
1000
0000
0001
0100
,
0000
0100
0000
0100
0010
0000
0110
0000
,
1000
0000
1000
1000
0001
0000
0001
1000
,
0000
1000
0000
1000
MMMM
0000
0000
0000
;
