#TITLE:Android's March;
#SUBTITLE:;
#ARTIST:Lunaticboi;
#TITLETRANSLIT:;
#SUBTITLETRANSLIT:;
#ARTISTTRANSLIT:;
#GENRE:;
#CREDIT:;
#BANNER:banner.PNG;
#BACKGROUND:Androids March-bg.png;
#LYRICSPATH:;
#CDTITLE:;
#MUSIC:Android's March (Summer Contest cut).ogg;
#OFFSET:-0.029000;
#SAMPLESTART:108.900002;
#SAMPLELENGTH:15.000000;
#LASTBEATHINT:332.000031;
#SELECTABLE:YES;
#BPMS:0.000000=150.000000
,80.000000=75.000000
,96.000000=150.000000
;
#STOPS:
;
#BGCHANGES:;
#KEYSOUNDS:;
#ATTACKS:;

//---------------dance-single - HEAVY----------------
#NOTES:
     dance-single:
     :
     Hard:
     15:
     0.843037,1.360761,0.000000,0.166624,1.836334,850.000000,850.000000,0.000000,24.000000,0.000000,0.000000,0.843037,1.360761,0.000000,0.166624,1.836334,850.000000,850.000000,0.000000,24.000000,0.000000,0.000000:
// measure 0
0000
0000
0000
0000
,  // measure 1
0000
0000
0000
0000
,  // measure 2
0000
0000
0000
0000
,  // measure 3
0000
0000
0000
0000
,  // measure 4
0001
0100
0001
1000
0001
0100
0001
0010
0100
1000
0000
0001
,  // measure 5
1000
0100
1000
0001
1000
0010
1000
0100
0010
0001
0000
1000
,  // measure 6
0010
0100
0010
1000
0001
1000
0001
0100
0010
1000
0000
1000
,  // measure 7
0001
0010
0100
1000
0100
0010
0001
0010
0100
1000
0001
1000
,  // measure 8
0001
0100
0001
1000
0100
1000
0100
0010
0001
1000
0000
1000
,  // measure 9
0010
0100
0010
0100
0001
1000
0001
0010
0100
1000
0000
0001
,  // measure 10
1000
0100
1000
0001
0100
0001
1000
0100
0010
0001
0000
0000
,  // measure 11
2000
3200
0302
0023
,  // measure 12
1030
1000
0100
0001
0001
0100
1000
0100
0010
0001
0000
0001
,  // measure 13
0100
0100
1000
0100
0100
0001
1000
0100
0010
0001
0000
0001
,  // measure 14
1000
1000
0010
0001
0001
0010
1000
0100
0010
0001
0000
0001
,  // measure 15
0100
0100
0001
1000
1000
0100
0010
0001
0010
0100
0000
0100
,  // measure 16
1000
1000
0001
0100
0100
0001
0010
0100
1000
0100
0000
0100
,  // measure 17
0010
0010
0001
0010
0010
0100
1000
0010
0100
0001
0000
0001
,  // measure 18
1000
1000
0001
0100
0100
0001
1000
0100
0010
0001
0000
0001
,  // measure 19
0010
0010
0100
1000
1000
0001
1000
0100
0010
0001
0000
0000
,  // measure 20
1000
0100
1000
0001
0100
0001
1000
0010
1000
0001
0010
0100
1000
0010
1000
0001
0010
0001
1000
0100
1000
0001
0100
0010
,  // measure 21
1000
0001
0100
0001
1000
0010
1000
0100
0010
0001
0010
0100
1000
0001
0100
0001
1000
0100
0010
0001
0010
0100
1000
0100
,  // measure 22
0010
0000
0010
0001
0000
0001
0100
0000
0100
0001
0000
1000
0001
0000
0001
0010
0000
0010
0100
0000
1000
0100
0000
1000
,  // measure 23
0001
0100
0001
0100
0001
0100
0010
1000
0010
1000
0010
1000
0001
0001
0001
1000
1000
1000
0100
0100
0100
0010
0010
0010
,  // measure 24
0002
0000
0000
1003
0100
1000
0020
0000
0000
0130
0001
1000
,  // measure 25
0200
0000
0000
0310
0001
0010
2000
0000
0000
3010
0001
1000
,  // measure 26
0001
0100
0001
1000
0001
1000
0100
0010
0001
1000
0000
1000
,  // measure 27
0100
1000
0001
1000
0100
1000
0001
0010
0100
1000
0000
0000
,  // measure 28
2000
0000
0000
3001
0100
0001
0020
0000
0000
0031
1000
0001
,  // measure 29
0200
0000
0000
0310
1000
0100
0002
0000
0000
0103
0010
0001
,  // measure 30
1000
0010
1000
0100
0010
0001
0010
0100
0010
0100
0000
0100
,  // measure 31
1000
0001
0100
0001
1000
0100
0010
0001
0100
0010
0000
0000
,  // measure 32
2000
0000
0000
3001
0100
0001
0200
0000
0000
0301
1000
0100
,  // measure 33
0020
0000
0000
0130
1000
0100
0002
0000
0000
0103
0010
0001
,  // measure 34
1000
0010
1000
0001
0010
0001
1000
0100
0010
0001
0000
1000
,  // measure 35
0001
0100
0001
1000
0100
1000
0001
0010
0100
1000
0000
0000
,  // measure 36
0002
0000
0000
1003
0100
1000
0200
0000
0000
1300
0001
0100
,  // measure 37
0020
0000
0000
1030
0001
0010
2000
0000
0000
3010
0001
1000
,  // measure 38
0100
0010
0001
0010
0100
1000
0001
0100
0010
0100
0000
0100
,  // measure 39
0001
0010
0100
1000
0001
0100
0010
1000
0010
0100
0000
0100
,  // measure 40
0001
0001
1000
0001
0001
1000
0100
0010
0001
1000
0000
0100
,  // measure 41
1000
1000
0001
1000
1000
0001
1000
0100
0010
0001
0000
0000
,  // measure 42
0100
0001
0100
0010
0100
1000
0100
0010
1000
0100
0010
0001
,  // measure 43
0010
1000
0010
0100
0010
0001
0010
0100
1000
0100
0010
0001
,  // measure 44
1000
0100
1000
0001
0100
0001
0010
0100
1000
0001
0100
0001
,  // measure 45
1000
0010
1000
0001
0010
0001
1000
0010
1000
0100
0010
0001
,  // measure 46
1000
0100
1000
0100
0001
0100
0010
0100
0010
0001
0010
0100
,  // measure 47
1000
0001
0100
0001
0100
0010
1000
0001
0100
0010
1000
0001
,  // measure 48
0100
0010
0100
0001
1000
0001
0010
0100
0010
0001
1000
0001
,  // measure 49
1000
0100
0010
0001
0100
0001
0010
0100
1000
0001
0100
0001
,  // measure 50
1000
0010
0100
0001
0010
0100
1000
0001
1000
0010
0100
0010
,  // measure 51
1000
0010
0100
0001
0010
0100
1000
0001
1000
0100
0010
0100
,  // measure 52
0010
0001
0010
1000
0010
0001
1000
0001
0100
0010
1000
0001
,  // measure 53
0100
1000
0100
0001
0100
0010
1000
0001
1000
0100
0010
0100
,  // measure 54
1000
1000
0100
0001
0001
0100
1000
0100
0010
0001
0000
1000
,  // measure 55
0001
0001
0100
1000
1000
0100
0001
0010
0100
1000
0000
0001
,  // measure 56
0010
0010
1000
0010
0010
0001
1000
0010
0100
0001
0000
1000
,  // measure 57
0010
0010
0001
0010
0010
1000
0001
0010
0100
1000
0000
0001
,  // measure 58
0100
0001
1000
0100
1000
0001
0100
0010
1000
0001
0000
0001
,  // measure 59
0010
0001
1000
0010
1000
0001
0010
0100
1000
0001
0000
0001
,  // measure 60
0100
0010
0100
1000
0100
0010
0100
0001
0100
0010
0000
1000
,  // measure 61
0100
0010
0100
0001
0100
0010
0100
1000
0100
0010
0000
0000
,  // measure 62
0002
1000
2003
0100
,  // measure 63
3200
0010
0320
0001
,  // measure 64
0031
0001
0100
0001
0001
1000
0100
0010
0001
1000
0000
0001
,  // measure 65
1000
1000
0100
1000
1000
0001
0100
0010
1000
0001
0000
1000
,  // measure 66
0010
0010
0100
0001
0001
1000
0100
0010
0001
0100
0000
0010
,  // measure 67
0100
0100
0001
1000
1000
0001
0010
0100
1000
0001
0000
0001
,  // measure 68
1000
1000
0010
0100
0100
0001
0010
0100
1000
0001
0000
1000
,  // measure 69
0001
0001
0100
0010
0010
1000
0100
0010
0001
1000
0000
0100
,  // measure 70
1000
1000
0001
0100
0100
0001
0010
0100
1000
0100
0000
0100
,  // measure 71
0001
0001
0100
0010
0010
0001
1000
0010
0100
0001
0000
0001
,  // measure 72
1000
0010
1000
0010
0100
0001
0010
0001
0010
0100
1000
0100
,  // measure 73
0010
0001
0010
0001
0100
0010
1000
0010
1000
0100
0010
0001
,  // measure 74
0010
0100
0010
0100
1000
0100
1000
0001
0100
0010
0100
0010
,  // measure 75
1000
0100
1000
0001
0100
0001
0010
0100
1000
0001
1000
0001
,  // measure 76
1000
0010
1000
0001
0010
0001
1000
0010
0100
0001
0010
0100
,  // measure 77
1000
0001
1000
0010
0100
0010
1000
0100
0010
0001
1000
0001
,  // measure 78
1000
0010
1000
0001
0010
0001
1000
0100
0010
0001
0010
0100
,  // measure 79
1000
0001
1000
0010
0100
0010
1000
0010
0100
0001
1000
0001
,  // measure 80
0100
0000
0000
0000
;

//---------------dance-single - STANDARD----------------
#NOTES:
     dance-single:
     :
     Medium:
     12:
     0.621864,0.916431,0.000000,0.166624,1.076112,627.000000,627.000000,0.000000,24.000000,0.000000,0.000000,0.621864,0.916431,0.000000,0.166624,1.076112,627.000000,627.000000,0.000000,24.000000,0.000000,0.000000:
0000
0000
0000
0000
,
0000
0000
0000
0000
,
0000
0000
0000
0000
,
0000
0000
0000
0000
,
1000
0000
1000
0001
0000
0001
1000
0100
0010
0001
0000
1000
,
0001
0000
0001
1000
0000
1000
0001
0100
0010
1000
0000
0001
,
1000
0000
1000
0001
0000
0001
0100
0010
1000
0001
0000
0000
,
1000
0000
1000
0100
0000
0100
0010
0000
0010
0001
0000
0001
,
0100
0000
0100
0010
0000
0010
1000
0100
0010
0001
0000
0000
,
0010
0000
0010
0100
0000
0100
1000
0010
0100
0001
0000
0000
,
0001
0000
0001
1000
0000
1000
0001
0010
0100
1000
0000
0000
,
0002
0023
0230
2300
,
3001
0000
1000
0100
0000
1000
0001
0100
0010
1000
0000
0001
,
1000
0000
0001
0100
0000
0001
1000
0100
0010
0001
0000
0100
,
0010
0000
1000
0001
0000
1000
0100
0010
0001
1000
0000
0010
,
0100
0000
0001
1000
0000
0100
1000
0010
0100
0001
0000
1000
,
0010
0000
0100
0010
0000
1000
0001
0010
0100
1000
0000
0001
,
0100
0000
0001
1000
0000
0001
1000
0100
0010
0001
0000
1000
,
0010
0000
1000
0001
0000
1000
0100
0010
0001
1000
0000
0010
,
0100
0000
0010
1000
0000
0001
0010
0100
1000
0001
0000
0000
,
1000
0000
1000
0100
0000
0100
0010
0000
0010
0001
0000
0001
0100
0000
0100
0010
0000
0010
1000
0000
1000
0001
0000
0001
,
1000
0000
1000
0010
0000
0010
0100
0000
0100
0001
0000
0001
0010
0000
0010
0100
0000
0100
1000
0000
1000
0001
0000
0001
,
1000
0000
0000
1000
0000
0000
1000
0000
0001
1000
0000
1000
0001
0000
0000
0001
0000
0000
0001
0000
0100
0001
0000
0001
,
1000
0000
1000
0100
0000
1000
0001
0000
0001
0100
0000
0001
1000
0000
0000
0100
0000
0000
0010
0000
0000
0001
0000
0000
,
2000
3100
0200
0310
,
0020
0031
0002
1003
,
0001
0000
0100
0010
0000
1000
0001
0010
0100
1000
0000
0000
,
1000
0000
0100
0010
0000
0001
1000
0010
0100
0001
0000
0000
,
0002
0103
0200
0310
,
0020
1030
2000
3001
,
1000
0000
0010
0100
0000
0001
1000
0100
0010
0001
0000
0000
,
0001
0000
0010
0100
0000
1000
0001
0100
0010
1000
0000
0000
,
2000
3010
0020
0130
,
0200
0301
0002
1003
,
0001
0000
1000
0100
0000
0001
0100
1000
0100
0010
0000
0001
,
0100
0000
1000
0100
0000
0001
0010
0100
1000
0001
0000
0000
,
0002
0013
0020
0130
,
0200
1300
2000
3001
,
1000
0000
0010
0100
0000
0001
0010
0100
1000
0001
0000
1000
,
0001
0000
0010
0100
0000
1000
0001
0100
0010
1000
0000
0001
,
0010
0000
0010
0100
0000
0100
0010
0000
0010
0001
0000
1000
,
0010
0000
0010
0100
0000
0100
0010
0000
0010
1000
0000
0000
,
0001
0000
0010
0001
0000
1000
0001
0000
0100
0001
0000
0001
,
1000
0000
0010
1000
0000
0001
1000
0000
0100
1000
0000
1000
,
0010
0000
0001
0010
0000
0100
0010
0000
1000
0010
0000
0010
,
0100
0000
0001
0100
0000
0010
0100
0000
1000
0100
0000
0100
,
0001
0000
0001
0010
0000
0010
0100
0000
0100
1000
0000
1000
,
0100
0000
0100
0010
0000
0010
0001
0000
0001
0100
0000
0100
,
0010
0000
0010
1000
0000
1000
0001
0000
0001
1000
0000
1000
,
0010
0000
0010
0100
0000
0100
0001
0000
0001
1000
0000
1000
,
0001
0010
0100
1000
0100
0010
0001
1000
0001
1000
0000
0000
,
1000
0010
0100
0001
0100
0010
1000
0001
1000
0001
0000
0000
,
1000
0100
0010
0001
0010
0100
1000
0001
1000
0001
0000
0000
,
0001
0100
0010
1000
0010
0100
0001
1000
0001
1000
0000
0000
,
0001
0000
0100
0001
0000
1000
0001
0010
0100
1000
0000
0001
,
1000
0000
0100
1000
0000
0001
1000
0010
0100
0001
0000
1000
,
0010
0000
0001
0010
0000
1000
0100
0010
0001
1000
0000
0001
,
0010
0000
1000
0010
0000
0001
0100
0010
1000
0001
0000
0001
,
1000
0100
1000
0100
0000
0010
0001
0100
0001
0100
0000
0001
,
1000
0010
1000
0010
0000
0100
0001
0010
0001
0010
0000
0100
,
1000
0001
1000
0001
0000
0100
0001
1000
0001
1000
0000
0010
,
0100
0001
0100
0001
0000
0010
0100
1000
0100
1000
0000
0000
,
0002
0000
0203
0000
,
2300
0000
3020
0000
,
0031
0000
0100
0001
0000
1000
0001
0010
0100
1000
0000
0010
,
1000
0000
0001
1000
0000
0001
1000
0100
0010
0001
0000
1000
,
0100
0000
0010
0100
0000
1000
0100
0010
0001
1000
0000
1000
,
0010
0000
0100
0010
0000
1000
0010
0100
0001
1000
0000
0001
,
0010
0000
1000
0010
0000
0001
0010
0100
1000
0001
0000
0001
,
0100
0000
1000
0100
0000
0001
0100
0010
1000
0001
0000
0001
,
1000
0000
0010
1000
0000
0001
1000
0100
0010
0001
0000
1000
,
0001
0000
0100
0001
0000
0010
0100
1000
0001
1000
0000
0100
,
0010
0000
0010
0001
0000
0001
0010
0000
0010
0100
0000
0100
,
1000
0000
1000
0001
0000
0001
0100
0000
0100
0010
0000
0010
,
1000
0000
1000
0100
0000
0100
0010
0000
0010
0001
0000
0001
,
0010
0000
0010
0100
0000
0100
1000
0000
1000
0001
0000
0001
,
0100
0000
0100
0010
0000
0010
1000
0000
1000
0010
0000
0010
,
0100
0000
0100
0001
0000
0001
0010
0000
0010
0100
0000
0100
,
1000
0000
1000
0100
0000
0100
0010
0000
0010
0001
0000
0001
,
1000
0010
0100
0001
0100
0010
1000
0100
0010
0001
1000
0001
,
0100
0000
0000
0000
;

//---------------dance-single - LIGHT----------------
#NOTES:
     dance-single:
     :
     Easy:
     8:
     0.378871,0.527642,0.000000,0.138853,0.281178,382.000000,382.000000,0.000000,20.000000,0.000000,0.000000,0.378871,0.527642,0.000000,0.138853,0.281178,382.000000,382.000000,0.000000,20.000000,0.000000,0.000000:
0000
0000
0000
0000
,
0000
0000
0000
0000
,
0000
0000
0000
0000
,
0000
0000
0000
0000
,
1000
0000
0000
0001
0000
0000
1000
0000
0010
0100
0000
0001
,
1000
0000
0000
0001
0000
0000
1000
0000
0100
0010
0000
0001
,
1000
0000
0000
0001
0000
0000
1000
0000
0100
0010
0000
0000
,
0001
0001
1000
1000
,
0001
0000
0000
1000
0000
0000
0001
0000
0100
0010
0000
1000
,
0001
0000
0000
1000
0000
0000
0001
0000
0010
0100
0000
1000
,
0001
0000
0000
1000
0000
0000
0001
0000
0010
0100
0000
0000
,
1000
0100
0010
0001
,
1000
0000
0000
1000
0000
0000
1000
0000
0100
1000
0000
1000
,
0001
0000
0000
0001
0000
0000
0001
0000
0100
0001
0000
0001
,
1000
0000
0000
1000
0000
0000
1000
0000
0010
1000
0000
1000
,
0001
0000
0000
0001
0000
0000
0001
0000
0010
0001
0000
0001
,
0010
0000
0000
0010
0000
0000
0010
0000
0100
0010
0000
0010
,
0100
0000
0000
0100
0000
0000
0100
0000
0010
0100
0000
0100
,
1000
0000
0000
1000
0000
0000
0001
0000
0100
0010
0000
0100
,
0001
0000
0000
0001
0000
0000
1000
0000
0010
0100
0000
0010
,
1000
0100
0010
0001
0100
0010
1000
0001
,
0010
0100
1000
0010
0100
0001
0010
0100
,
1000
0000
0000
1000
0000
0000
1000
0000
0000
1000
0000
1000
0001
0000
0000
0001
0000
0000
0001
0000
0000
0001
0000
0001
,
1000
1000
0001
0001
1000
0100
0010
0001
,
2000
0000
3200
0000
,
0320
0000
0032
0000
,
1003
0000
0000
0100
0000
0000
1000
0000
0001
1000
0000
0000
,
0001
0000
0000
0100
0000
0000
0001
0000
1000
0001
0000
0000
,
2000
0000
3020
0000
,
0230
0000
0302
0000
,
0013
0000
0000
0010
0000
0000
0100
0000
1000
0001
0000
0000
,
1000
0000
0000
0001
0000
0000
1000
0000
0100
0010
0000
0000
,
0002
0000
0203
0000
,
0320
0000
2030
0000
,
3001
0000
0000
0010
0000
0000
0100
0000
0010
0001
0000
0000
,
1000
0000
0000
0100
0000
0000
0010
0000
0100
1000
0000
0000
,
0002
0000
0023
0000
,
0230
0000
2300
0000
,
3001
0000
0000
1000
0000
0000
0100
0000
0010
0001
0000
0000
,
0100
0000
0000
0010
0000
0000
1000
0000
0010
0100
0000
0000
,
0001
0000
0000
0010
0000
0000
1000
0000
0010
0001
0000
0000
,
1000
0000
0000
0100
0000
0000
0001
0000
0100
1000
0000
0000
,
0001
0100
0010
0010
,
1000
0100
1000
1000
,
0001
0010
0001
0001
,
0010
0100
1000
1000
,
0001
1000
0100
0100
,
1000
0010
0100
0100
,
0001
0010
0001
0001
,
1000
0001
1000
1000
,
0010
0100
0001
0001
,
1000
0100
0010
0010
,
0001
1000
0100
0100
,
1000
0001
0100
0100
,
0001
0000
0000
0001
0000
0000
0001
0000
0001
1000
0000
1000
,
0100
0000
0000
0100
0000
0000
0100
0000
0100
0010
0000
0010
,
0001
0000
0000
1000
0000
0000
0001
0000
1000
0100
0000
0100
,
1000
0000
0000
0001
0000
0000
1000
0000
0001
0100
0000
0100
,
0001
0000
0001
0010
0000
0010
0100
0000
0100
1000
0000
0000
,
0001
0000
0001
1000
0000
1000
0010
0000
0010
0100
0000
0000
,
0001
0000
0001
0100
0000
0100
0010
0000
0010
1000
0000
0000
,
0001
0000
0010
0100
0000
1000
0100
0000
0010
0001
0000
0000
,
2000
0000
3200
0000
,
0320
0000
0032
0000
,
1003
0000
0000
0001
0000
0001
0100
0000
0010
1000
0000
0000
,
0001
0000
0000
1000
0000
1000
0100
0000
0010
0001
0000
0000
,
1000
0000
0000
0001
0000
0001
0010
0000
0100
1000
0000
0000
,
0001
0000
0000
1000
0000
1000
0010
0000
0100
0001
0000
0000
,
1000
0000
0000
0001
0000
0100
0001
0000
1000
0100
0000
0000
,
0010
0000
0000
0001
0000
0001
1000
0000
0010
0100
0000
0000
,
0001
0000
0000
1000
0000
0001
0100
0000
0001
0100
0000
0000
,
0001
0000
1000
0100
0000
1000
0100
0000
0010
0100
0000
0000
,
1000
0100
0001
0010
,
1000
0100
0001
0010
,
1000
0100
0010
0001
,
1000
0100
0010
0001
,
0100
1000
0010
0001
,
0100
1000
0010
0001
,
1000
0000
0000
1000
0000
0001
1000
0000
0001
1000
0000
0000
,
0001
0000
1000
0001
0000
1000
0001
0000
1000
0001
0000
1000
,
0001
0000
0000
0000
;
