#VERSION:0.83;
#TITLE:Alone;
#SUBTITLE:;
#ARTIST:Lasgo;
#TITLETRANSLIT:;
#SUBTITLETRANSLIT:;
#ARTISTTRANSLIT:;
#GENRE:VOCAL TRANCE;
#ORIGIN:;
#CREDIT:;
#BANNER:bn.png;
#BACKGROUND:bg.png;
#PREVIEWVID:;
#JACKET:jacket.png;
#CDIMAGE:;
#DISCIMAGE:;
#LYRICSPATH:;
#CDTITLE:cdtitle.png;
#MUSIC:Alone.ogg;
#OFFSET:1.155000;
#SAMPLESTART:118.845001;
#SAMPLELENGTH:17.143000;
#SELECTABLE:YES;
#BPMS:0.000=140.000;
#STOPS:;
#DELAYS:;
#WARPS:;
#TIMESIGNATURES:0.000=4=4;
#TICKCOUNTS:0.000=4;
#COMBOS:0.000=1;
#SPEEDS:0.000=1.000=0.000=0;
#SCROLLS:0.000=1.000;
#FAKES:;
#LABELS:0.000=Song Start;
#BGCHANGES:2.500=alone.avi=1.000=0=0=1=Centered====,
3.000=alone.avi=1.000=0=0=1=====,
99999=-nosongbg-=1.000=0=0=0 // don't automatically add -songbackground-
;
#KEYSOUNDS:;
#ATTACKS:
;

//---------------dance-single - ----------------
#NOTEDATA:;
#CHARTNAME:Beginner 3;
#STEPSTYPE:dance-single;
#DESCRIPTION:;
#CHARTSTYLE:;
#DIFFICULTY:Beginner;
#METER:3;
#RADARVALUES:0.179082,0.288178,0.050431,0.093658,0.000000,174.000000,167.000000,7.000000,13.000000,0.000000,0.000000,0.000000,0.000000,0.000000,0.179082,0.288178,0.050431,0.093658,0.000000,174.000000,167.000000,7.000000,13.000000,0.000000,0.000000,0.000000,0.000000,0.000000;
#CREDIT:Frondal;
#NOTES:
// measure 0
0000
0000
0000
0000
,  // measure 1
0000
0000
0000
0000
,  // measure 2
0002
0000
0000
0000
,  // measure 3
0000
0000
0000
0000
,  // measure 4
0000
0000
0000
0000
,  // measure 5
0000
0000
0000
0000
,  // measure 6
0203
0000
0000
0000
,  // measure 7
0000
0000
0000
0000
,  // measure 8
0020
0000
0000
0000
,  // measure 9
0330
0000
0000
0000
,  // measure 10
0001
0000
0001
0000
,  // measure 11
1000
0000
1000
0000
,  // measure 12
0010
0000
0010
0000
,  // measure 13
0100
0000
0100
0000
,  // measure 14
0001
0000
0001
0000
,  // measure 15
0010
0000
0010
0000
,  // measure 16
0100
0000
0100
0000
,  // measure 17
2000
0000
0000
0000
,  // measure 18
3001
0000
0100
0010
,  // measure 19
1000
0000
0001
0010
,  // measure 20
0100
0000
1000
0001
,  // measure 21
0100
0000
0010
1000
,  // measure 22
0100
0000
0010
0001
,  // measure 23
0010
0000
0100
1000
,  // measure 24
0100
0000
0010
0001
,  // measure 25
1000
0000
0010
1000
,  // measure 26
0200
0000
0000
0000
,  // measure 27
0300
0000
0000
0000
,  // measure 28
0010
0000
0010
0000
,  // measure 29
0010
0001
0100
0000
,  // measure 30
0010
0000
0010
0000
,  // measure 31
0010
1000
0100
0000
,  // measure 32
0010
0001
1000
0000
,  // measure 33
0010
1000
0001
0000
,  // measure 34
0100
0000
0100
0000
,  // measure 35
0100
0010
1000
0000
,  // measure 36
0100
0000
0100
0000
,  // measure 37
0010
0001
1000
0000
,  // measure 38
0010
1000
0100
0000
,  // measure 39
0010
0001
0100
0000
,  // measure 40
0010
0010
1000
0000
,  // measure 41
0001
0010
0100
0010
,  // measure 42
0001
0001
0100
0000
,  // measure 43
0010
1000
0100
1000
,  // measure 44
0010
0000
0010
0000
,  // measure 45
0100
0000
0100
0001
,  // measure 46
0010
0010
0100
0000
,  // measure 47
1000
0001
0100
0001
,  // measure 48
0010
0010
0100
0000
,  // measure 49
1000
0001
0100
1000
,  // measure 50
0100
0010
1000
0000
,  // measure 51
0010
1000
0001
0010
,  // measure 52
0220
0000
0000
0000
,  // measure 53
0000
0000
0000
0330
,  // measure 54
0002
0000
0000
0000
,  // measure 55
0023
0000
0000
0000
,  // measure 56
0230
0000
0000
0000
,  // measure 57
0000
0000
0000
0000
,  // measure 58
2300
0000
0000
0000
,  // measure 59
3020
0000
0000
0000
,  // measure 60
0230
0000
0000
0000
,  // measure 61
0000
0000
0000
0000
,  // measure 62
0301
0000
0001
0000
,  // measure 63
1000
0000
1000
0000
,  // measure 64
0010
0000
0010
0000
,  // measure 65
0010
0000
0010
0000
,  // measure 66
0100
0000
0100
0000
,  // measure 67
0001
0000
0001
0000
,  // measure 68
1000
0000
1000
0000
,  // measure 69
1000
0000
1000
1000
,  // measure 70
0011
0000
0001
1000
,  // measure 71
0010
0000
0010
1000
,  // measure 72
0100
0000
0010
0001
,  // measure 73
0100
0000
0100
0010
,  // measure 74
1000
0000
0010
1010
,  // measure 75
1000
0000
0001
0011
,  // measure 76
0010
0000
0100
1001
,  // measure 77
0010
0000
0100
0001
,  // measure 78
0110
0000
1000
0001
,  // measure 79
0000
0000
0000
0000
,  // measure 80
0110
0000
0000
0000
;

//---------------dance-single - ----------------
#NOTEDATA:;
#CHARTNAME:Light 8;
#STEPSTYPE:dance-single;
#DESCRIPTION:;
#CHARTSTYLE:;
#DIFFICULTY:Easy;
#METER:8;
#RADARVALUES:0.379778,0.489903,0.165702,0.230543,0.064840,369.000000,346.000000,23.000000,32.000000,0.000000,0.000000,0.000000,0.000000,0.000000,0.379778,0.489903,0.165702,0.230543,0.064840,369.000000,346.000000,23.000000,32.000000,0.000000,0.000000,0.000000,0.000000,0.000000;
#CREDIT:Frondal;
#NOTES:
0000
0000
0000
0000
,
0000
0000
0000
0000
,
0002
0000
0000
0000
,
2003
0000
0000
0000
,
3020
0000
0000
0000
,
0230
0000
0000
0000
,
0302
0000
0000
0000
,
0000
0000
0000
0000
,
2003
0000
0000
0000
,
3000
0000
0000
0000
0000
0010
0010
0100
,
0001
0001
1000
1000
,
0010
0010
0100
0100
,
0001
0001
0010
0010
,
0001
0001
0100
0100
,
0010
0010
1000
1000
,
0100
0100
0010
0010
,
0001
0001
0100
0100
,
0002
0000
2003
0000
3100
0010
0100
0010
,
0100
1000
0001
0000
1000
0000
1100
0000
,
0001
0010
0100
0000
1000
0000
1010
0000
,
0001
0100
1000
0000
0100
0000
0011
0000
,
1000
0100
0001
0000
0100
0010
0001
0000
,
1000
0001
0100
0000
0010
0000
1100
0000
,
0001
1000
0100
0000
0010
0000
0101
0000
,
1000
0100
0010
0000
1000
0000
0011
0000
,
0001
0100
0010
0000
0001
0000
1010
1000
,
0002
0000
0000
0000
,
0003
0000
0000
0000
,
1000
0100
0010
0000
0100
0000
1000
0000
,
0100
0010
1000
0000
0010
0000
0100
0000
,
1000
0010
0100
0000
0010
0000
1000
0000
,
0010
0100
1000
0000
0100
0000
0010
0000
,
0100
0001
0010
0000
0100
0000
0010
0000
,
0001
0100
0010
0000
0001
0000
0010
0010
,
0100
0001
1000
0000
0001
0000
1000
0000
,
0100
0001
1000
0000
0001
0000
0100
0000
,
1000
0001
0100
0000
0001
0000
1000
0000
,
0100
1000
0001
0000
0100
0000
0001
0000
,
1000
0010
0001
0000
1000
0000
0001
0000
,
0010
1000
0001
0000
0010
1000
0001
1000
,
0010
0001
1000
0000
0010
1000
0100
0000
,
0010
0011
0100
1100
,
0001
1000
0010
0000
1000
0100
0010
0000
,
0001
0101
1000
1010
,
0001
0011
1000
1100
,
0001
0101
1000
1010
,
0001
1000
0100
0000
0100
1000
0010
0000
,
0100
0011
0100
1010
,
1000
0010
0100
0000
0100
0001
0010
0000
,
0100
1010
0100
0011
,
1000
0001
0100
0000
0100
0001
0010
0000
,
0100
1000
0100
0010
,
0001
1000
0001
0000
1000
0010
1000
0001
,
0000
0010
0000
0100
0000
1000
0000
0010
,
1001
0000
0000
0001
0000
0000
0010
0000
0200
0000
0000
1000
0000
0000
0310
0000
,
0001
0000
0000
0100
0000
0000
0010
0000
0200
0000
0000
0001
0000
0000
0320
0000
,
0000
0030
0000
1000
0001
0020
0000
0200
,
0000
0330
0000
0000
0000
0000
0000
0000
,
1000
0000
0000
0001
0000
0000
0100
0000
0020
0000
0000
1000
0000
0000
0130
0000
,
0001
0000
0000
0010
0000
0000
0100
0000
2000
0000
0000
0010
0000
0000
3002
0000
,
0000
0003
0000
0200
0320
2030
0000
0002
,
0000
3003
0000
0000
0000
0000
0000
0000
,
1001
0000
0000
0001
0000
0000
0000
0000
1000
0000
0000
1000
0000
0000
0100
0000
,
0010
0000
0000
0010
0000
0000
0000
0000
0001
0000
0000
0001
0000
0000
0100
0000
,
0010
0000
0000
0010
0000
0000
0000
0000
2000
0000
3200
0000
0320
0000
2030
0000
,
0000
0000
3002
0000
0000
0000
0003
0000
0100
0000
0000
0010
0000
0000
0001
0000
,
1000
0000
0000
1000
0000
0000
0000
0000
0001
0000
0000
0001
0000
0000
0100
0000
,
0010
0000
0000
0010
0000
0000
0000
0000
1000
0000
0000
1000
0000
0000
0200
0000
,
0000
0300
0000
0010
0002
2003
0000
3200
,
0000
0320
0000
0000
0030
0001
0100
1000
,
0100
0010
1000
0000
0001
1000
0100
0000
,
0010
0001
0100
0000
0001
1000
0010
0000
,
0100
0001
0010
0000
0100
1000
0010
0000
,
0100
0001
0010
1000
0010
0001
0100
1000
,
0100
0010
1000
0000
0001
0010
1000
0010
,
0001
0100
0010
0000
0001
0010
1000
0010
,
0100
0001
0010
0000
1000
0010
0001
0100
,
0010
0001
0010
0100
0001
0010
1000
0010
,
1002
0000
0000
0000
,
0103
0000
0000
0000
,
1010
0000
0000
0000
;

//---------------dance-single - ----------------
#NOTEDATA:;
#CHARTNAME:Standard 11;
#STEPSTYPE:dance-single;
#DESCRIPTION:;
#CHARTSTYLE:;
#DIFFICULTY:Medium;
#METER:11;
#RADARVALUES:0.504312,0.547539,0.086453,0.136885,0.172907,490.000000,478.000000,12.000000,19.000000,0.000000,0.000000,0.000000,0.000000,0.000000,0.504312,0.547539,0.086453,0.136885,0.172907,490.000000,478.000000,12.000000,19.000000,0.000000,0.000000,0.000000,0.000000,0.000000;
#CREDIT:Frondal;
#NOTES:
0000
0000
0000
0000
,
0000
0000
0000
0000
,
0000
0000
0000
0000
0001
0000
0001
2000
,
0000
3200
0000
0320
0000
0230
0000
2300
,
0000
3000
0000
0001
0200
0000
0310
2000
,
0000
3001
0010
0000
0000
0000
0000
0000
,
0000
0000
0000
0100
1000
0200
0000
0320
,
0000
0032
0000
2003
0000
3020
0000
0200
,
0000
0000
0000
0000
,
0330
0000
0000
0000
0000
0000
0000
0000
0000
0000
0001
1000
0001
1000
0001
0000
,
1000
0000
0001
0100
0010
0000
0010
1000
,
0100
0000
0010
0001
0100
0000
0100
0001
,
1000
0000
0000
0000
0001
0000
1000
0000
0100
0000
0000
0100
0000
0000
0010
0000
,
0001
0000
0000
0000
1000
0000
0001
0000
0010
0000
0000
0010
0000
0000
0100
0000
,
1000
0000
0001
0100
1000
0000
1000
0100
,
0010
0000
1000
0100
0001
0000
0001
0100
,
0010
0000
0000
0000
0001
0000
1000
0000
0010
0000
0000
0100
0000
0000
0100
0000
,
0001
0000
0000
0000
1000
0000
0100
0000
0010
0001
0010
0000
0100
1000
0100
0000
,
0010
0001
1000
0010
0100
0001
0101
0000
,
0001
1000
0100
0010
0100
1000
1010
0000
,
1000
0001
0010
0001
0100
0010
1000
1000
,
0001
0010
0001
0100
0010
1000
0100
0100
,
0010
1000
0010
0001
0100
0010
1010
0000
,
0010
0001
0010
0100
0001
1000
1100
0000
,
1000
0010
0001
0010
0100
0001
0101
0000
,
0100
1000
0100
0001
0010
0100
1001
0001
,
0100
0010
0000
0010
0000
0010
0000
1000
,
0200
0000
0000
0000
,
0310
0000
0001
0000
0100
0000
0000
0000
0110
0000
0000
0010
1000
0000
0000
0000
,
0001
0010
0100
0000
0100
1000
0010
0000
,
1000
0000
0010
0000
0100
0000
0000
0000
0101
0000
0000
0001
0010
0000
0000
0000
,
0100
1000
0001
0000
0001
0100
1000
0000
,
0001
0010
1000
0000
1000
0100
0010
0000
,
1000
0010
0001
0000
0001
1000
0010
0010
,
0100
0000
0001
0000
1000
0000
0100
0000
0010
0000
0000
0010
0000
0000
0100
0000
,
1000
0001
0010
0001
1000
0010
0100
0000
,
0001
0000
1000
0000
0100
0000
0010
0000
0100
0000
0000
0100
0000
0000
1000
0000
,
0010
0000
1000
0010
0001
0000
1000
0100
,
0001
0000
1000
0000
0100
0000
1000
0000
0010
0000
0000
0100
0000
0000
0010
0000
,
0100
0000
0001
0000
1000
0000
0000
0000
0010
0000
1000
0100
1000
0100
1000
0000
,
0010
0100
1000
0100
0001
1000
0100
0000
,
0010
0001
0100
0000
0010
1000
0100
0000
,
0010
0001
0100
0010
0001
0010
0100
0000
,
0001
1000
0100
0000
0001
0100
1000
0010
,
0001
0010
0100
0000
0010
1000
0100
0000
,
0100
1000
0010
0000
0100
0001
0010
0000
,
0100
1000
0100
0001
0100
0010
0001
0000
,
1000
0010
0100
0000
0010
1000
0001
0000
,
0100
0001
0010
1000
0010
0100
1000
0000
,
0010
0100
0001
0000
1000
0100
0001
0000
,
0001
0100
0010
0001
1000
0010
0100
0001
,
1000
0010
0100
1000
0001
0010
0100
0001
,
2000
0000
0000
0000
0000
0000
3001
0010
0001
0000
0100
0000
0010
0000
2000
0000
,
0002
0000
0000
0000
0000
0000
0000
3003
,
0011
0000
0000
0001
0000
0000
0001
0000
1000
0000
0000
1000
0000
0000
1000
0000
,
0010
0000
0000
0100
0000
0000
0010
0000
1000
0000
0000
0001
0000
0000
1000
0000
,
0001
0000
0000
0001
0000
0000
0001
0000
0010
0000
0000
0010
0000
0000
0010
0000
,
0100
0000
0000
1000
0000
0000
0100
0000
0010
0000
0000
0001
0000
0000
0010
0000
,
0001
0000
0000
0001
0000
0000
0001
0000
0100
0000
0000
0100
0000
0000
0100
0000
,
0010
0000
0000
1000
0000
0000
0010
0000
0100
0000
0000
0001
0000
0000
0100
0000
,
0010
0000
0000
0010
0000
0000
0010
0000
1000
0000
0000
1000
0000
0000
1000
0000
,
0001
0000
0000
0010
0000
0000
0001
0000
1000
0000
0000
0100
0000
0000
1000
0000
,
1100
0000
0000
0100
0000
0000
0010
0000
0001
0000
0000
0001
0000
0000
0001
0000
,
1000
0000
0000
1000
0000
0000
0010
0000
0100
0000
0000
0100
0000
0000
0100
0000
,
0001
0000
0000
0001
0000
0000
1000
0000
0010
0000
0000
0010
0000
0000
0010
0000
,
1000
0000
0000
1000
0000
0000
0001
0000
0010
0000
0000
0010
0000
0000
0010
0000
,
0100
0000
0000
1000
0000
0000
0010
0000
0100
0000
0000
0100
0000
0000
0100
0000
,
0001
0000
0000
1000
0000
0000
0100
0000
0010
0000
0000
0010
0000
0000
0010
0000
,
0001
0000
0000
0100
0000
0000
0010
0000
1000
0000
0000
1000
0000
0000
1000
0000
,
0001
0000
0000
0010
0000
0000
0100
0000
1000
0000
0001
0010
0001
0010
0001
0000
,
1000
0010
0001
0010
1000
0001
0010
0000
,
0001
0010
1000
0010
0001
1000
0010
0000
,
0100
0001
0010
0001
1000
0010
0100
0100
,
0001
1000
0100
1000
0001
0010
0100
0100
,
1000
0010
0001
0010
0100
0001
0010
0100
,
0010
1000
0010
0100
1000
0010
0100
0001
,
0010
0100
0001
0100
0010
0001
1000
1000
,
0010
0100
1000
0100
0010
1000
0001
0001
,
0220
0000
0000
0000
,
0330
1000
0000
0001
0000
1000
0000
0001
,
0110
0000
0000
0000
;

//---------------dance-single - Heavy 14----------------
#NOTEDATA:;
#CHARTNAME:Heavy 14;
#STEPSTYPE:dance-single;
#DESCRIPTION:Heavy 14;
#CHARTSTYLE:;
#DIFFICULTY:Hard;
#METER:14;
#RADARVALUES:0.597970,0.950988,0.223338,0.756468,0.403450,581.000000,550.000000,31.000000,105.000000,0.000000,0.000000,0.000000,0.000000,0.000000,0.597970,0.950988,0.223338,0.756468,0.403450,581.000000,550.000000,31.000000,105.000000,0.000000,0.000000,0.000000,0.000000,0.000000;
#CREDIT:Heavy 14;
#NOTES:
0000
0000
0000
0000
,
0000
0000
0000
0000
,
0002
0000
0000
0000
,
2003
0000
0000
0000
,
3200
0000
0000
0000
,
0320
0000
0000
0000
,
0032
0000
0000
0000
,
0000
0000
0000
0000
,
2003
0000
0000
0000
,
3010
0000
0000
0000
0000
0000
0000
0000
0000
0000
1000
0001
0100
0001
0010
0100
,
1000
0000
0000
1000
0100
0000
0010
0000
0100
0000
0000
0100
0010
0000
0100
0000
,
1000
0000
0000
1000
0010
0000
0100
0000
0010
0000
0000
0010
0100
0000
0001
0000
,
0010
0000
0000
0010
0100
0000
0010
0000
0001
0000
0000
0001
0100
0000
0010
0000
,
0100
0000
0000
0100
0001
0000
0010
0000
0001
0000
0000
0001
1000
0000
0100
0000
,
0010
0000
0000
0100
1000
0000
0100
0000
0010
0000
0000
0010
0001
0000
0010
0000
,
0100
0000
0000
1000
0010
0000
0100
0000
0001
0000
0000
0001
0100
0000
0010
0000
,
1000
0000
0000
0001
0010
0000
0100
0000
1000
0000
0000
1000
0001
0000
0001
0000
,
0200
0000
0300
0000
0020
0000
0030
0000
1000
0100
1000
0100
0010
0001
0010
0001
,
0100
0010
0100
0000
0001
0000
0010
0000
1000
0000
0010
0000
0110
0000
0000
0000
,
1000
0001
1000
0000
0010
0000
0100
0000
1000
0000
0100
0000
0101
0000
0000
0000
,
1000
0100
1000
0000
0010
0000
0100
0000
0001
0000
0010
0000
1010
0000
1000
0000
,
0010
0100
0010
0000
0001
0000
1000
0000
1000
0000
0010
0001
0010
0000
0100
0000
,
0001
0010
0100
0000
0010
0000
1000
0000
0010
0000
0100
0000
1100
0000
0000
0000
,
0001
0100
0010
0000
1000
0000
0010
0000
0001
0000
0010
0000
0110
0000
0000
0000
,
0001
1000
0100
0000
0010
0000
0100
0000
1000
0000
0100
0000
0101
0000
0001
0000
,
0100
0010
0001
0000
1000
0000
0001
0000
0100
0000
0010
1000
0000
1000
0100
0000
,
0110
0000
0000
0000
0000
0000
0010
0001
1000
0000
1000
0001
0100
0000
0010
1000
,
0200
0000
0000
0000
,
0310
0000
0001
0000
0100
0000
0000
0000
1010
0000
0000
0010
1000
0000
0002
0000
,
0103
0020
1030
0200
0301
2000
3010
0200
,
1300
0000
0001
0100
0001
0000
1000
0000
0110
0000
0200
0000
0301
0000
2000
0000
,
3010
0200
0301
0020
1030
0002
0103
0020
,
0031
0000
1000
0100
1000
0000
0001
0000
0101
0000
0000
0100
0000
0000
0010
0000
,
1000
0000
0001
0010
0001
0000
0100
0000
0110
0000
0000
0010
0000
0000
1000
0000
,
1100
0000
0100
0010
0001
0000
1000
0000
0100
0000
0020
0000
1030
0000
0002
0000
,
0103
0020
0031
0200
0310
2000
3001
0200
,
0310
0000
0000
0000
0100
0000
0001
0000
1000
0000
0000
1000
0100
0000
0010
0000
,
0012
0000
0000
0000
2000
0003
0020
0000
0000
3000
0200
0000
0000
0030
0002
0000
,
0003
0300
0001
1000
0100
0000
0010
0000
0011
0000
0000
0001
0000
0000
1000
0000
,
0010
0000
0100
0001
1000
0000
0001
0000
0100
0000
0100
1000
0100
0001
1000
0001
,
0020
0000
2030
3002
0000
0203
0000
0320
,
0000
0000
0031
0000
1000
0000
0010
0100
0010
0100
0001
0000
0010
0000
0010
0000
,
0200
0000
0302
2003
0000
3020
0000
0230
,
0000
0000
0300
0000
0000
0000
1000
0001
0200
0000
2300
0000
3002
0000
0023
0000
,
0000
0000
0130
0000
0001
0000
1000
0100
1000
0100
0010
0000
0011
0000
0001
0000
,
1000
0000
0010
0000
0010
0000
0100
0000
0001
0000
1000
0100
1000
0000
0010
0000
,
0200
0000
0320
0032
0000
2003
0000
3200
,
0000
0000
0301
0000
1000
0000
0001
0010
0001
0010
0100
0000
1100
0000
1000
0000
,
0200
0000
0302
2003
0000
3020
0000
0032
,
0000
0000
0103
0010
0100
0000
2000
0000
0000
0000
3002
0000
0000
0000
0023
0000
,
0000
0000
0000
0000
0130
0000
0001
0010
0001
0010
0100
0000
0001
0000
0100
0000
,
0010
0000
0100
0000
0100
0000
1000
0001
0100
0000
0000
0100
0000
0000
0001
0000
,
1000
0010
1000
0010
1000
0010
1000
0100
0010
0100
1000
0100
0010
0001
0100
0001
,
0100
0001
0100
0010
1000
0010
0100
0001
1000
0100
1000
0001
0100
0001
1000
0100
,
0010
0000
0000
0001
0001
2000
0000
3020
,
0000
0230
0000
0302
0000
0013
0100
0002
,
0000
0003
0000
0100
0020
0032
1003
0020
,
0000
0032
0000
0003
0000
0000
0000
0000
,
0000
0000
0000
1000
0200
0320
1030
0200
,
0301
0020
0031
0200
1300
0020
0031
0200
,
0000
0300
0000
0001
0020
0230
0000
0320
,
0000
0230
0000
0000
0300
0000
0000
0000
,
1001
0000
0000
0001
0000
0000
0010
0000
0200
0000
0000
0000
2300
0000
3200
0000
,
0000
0302
0000
2003
0000
3020
0000
0032
,
0103
0000
0000
0100
0000
0000
0100
0000
0020
0000
0032
0000
2003
0000
3200
0000
,
0000
0000
0320
0000
0000
0000
0000
0000
1030
0000
0000
1000
0000
0000
0001
0000
,
0010
0000
0000
0010
0000
0000
0100
0000
0002
0000
2003
0000
0000
0000
3020
0000
,
0000
0032
0000
0203
0000
0310
0002
2003
,
3100
0000
0000
0100
0000
0000
0001
0000
1000
0000
0000
1000
0000
0000
0010
0000
,
1000
0000
0000
1000
0000
0000
0001
0000
0010
0000
0010
1000
0010
0001
1000
0001
,
0100
0010
2000
0000
0100
0000
3001
0000
0011
0000
1000
0000
1010
0000
0000
0000
,
0001
1000
0020
0000
0001
0000
0130
0000
0101
0000
1000
0000
1100
0000
0001
0000
,
1000
0100
0020
0000
0100
0000
0031
0000
0011
0000
1000
0000
1010
0000
0001
0000
,
1000
0001
0020
0000
0100
0000
0031
0000
0101
0000
1000
0000
1100
0000
0001
0000
,
1000
0010
0200
0000
0010
0000
0301
0000
0011
0000
0010
0100
0000
0010
0001
0000
,
0001
1000
0020
0000
0100
0000
1030
0000
1100
0000
0100
0010
0000
0010
0001
0000
,
0001
1000
0020
0000
0001
0000
0130
0000
0101
0000
0001
1000
0000
0001
0100
0000
,
0010
1000
0200
0000
1000
0000
0310
0000
0011
0000
0001
1000
0000
1000
0100
0000
,
1001
0000
1000
0001
0100
0000
0010
1000
0100
0000
0010
0001
0100
0000
0001
1000
,
0100
0000
0010
0001
0000
0000
0001
1000
0000
0000
1000
0010
0000
0000
0010
0100
,
0110
0000
0000
0000
;
