#TITLE:Alone Again (Naturally);
#SUBTITLE:;
#ARTIST:Gilbert O'Sullivan;
#TITLETRANSLIT:;
#SUBTITLETRANSLIT:;
#ARTISTTRANSLIT:;
#CREDIT:Nezemarth;
#BANNER:Alone Again (Naturally).png;
#BACKGROUND:Alone Again (Naturally)-bg.png;
#LYRICSPATH:;
#CDTITLE:;
#MUSIC:Alone Again (Naturally).ogg;
#OFFSET:-0.461;
#SAMPLESTART:11.710;
#SAMPLELENGTH:12.000;
#SELECTABLE:YES;
#BPMS:0.000=83.396,1.000=84.192,2.000=83.417,3.000=84.388,4.000=85.828,5.000=82.049,6.000=84.128,8.000=86.127,9.000=83.547,10.000=83.544,11.000=82.281,12.000=85.206,13.000=83.750,15.000=84.093,16.000=87.298,17.000=84.791,19.000=85.662,20.000=85.659,23.000=88.327,24.000=88.324,25.000=86.273,27.000=85.201,28.000=85.204,29.000=88.971,30.000=85.548,31.000=83.665,32.000=85.681,33.000=87.091,34.000=87.022,37.000=85.473,38.000=85.471,40.000=87.074,41.000=85.909,42.000=86.060,44.000=86.879,47.000=83.294,48.000=85.396,49.000=85.712,50.000=85.709,51.000=90.592,52.000=81.765,53.000=86.195,58.000=88.738,59.000=85.567,60.000=85.565,61.000=88.412,64.000=84.184,65.000=84.182,66.000=86.189,68.000=86.527,70.000=89.501,71.000=87.148,74.000=83.602,75.000=87.753,76.000=87.750,77.000=85.382,81.000=86.811,85.000=87.564,86.000=87.567,87.000=86.544,90.000=88.347,91.000=85.709,92.000=88.977,93.000=84.634,94.000=89.404,95.000=88.188,96.000=85.581,101.000=86.754,102.000=84.160,103.000=84.413,104.000=84.415,105.000=84.413,106.000=86.623,107.000=84.155,108.000=85.371,112.000=85.598,114.000=86.040,115.000=86.038,119.000=84.672,121.000=85.892,123.000=83.349,124.000=87.465,126.000=84.537,127.000=84.971,128.000=85.814,130.000=85.031,131.000=87.045,132.000=87.854,133.000=84.537,134.000=84.539,135.000=84.537,138.000=86.726,139.000=88.041,140.000=81.270,141.000=90.632,142.000=83.373,143.000=82.571,144.000=85.606,145.000=82.576,146.000=86.428,148.000=86.888,149.000=81.601,150.000=87.744,151.000=85.767,152.000=85.001,153.000=84.998,154.000=85.001,155.000=86.411,156.000=82.105,157.000=80.597,158.000=90.000,159.000=85.154,163.000=84.480,164.000=87.471,165.000=84.000,167.000=82.001,168.000=83.001,169.000=70.990,170.000=65.970,171.000=50.780,171.333=54.090,171.500=67.294,171.750=33.852,172.000=53.212,172.500=61.304,173.000=51.208,173.500=47.729;
#STOPS:;
#BGCHANGES:;

//---------------dance-single - ----------------
#NOTES:
     dance-single:
     :
     Hard:
     12:
     0.436,0.430,0.125,0.101,0.347: // measure 1
0000
0000
0000
0000
,  // measure 2
0000
0000
0000
0000
,  // measure 3
0000
0000
0000
0000
,  // measure 4
0000
0000
0000
0000
,  // measure 5
1000
0100
1000
0100
0010
0000
0001
0100
0010
0000
1000
0000
1100
0000
1000
0010
,  // measure 6
1000
0000
0001
0010
0001
0100
0010
0000
0100
0000
0001
0000
0101
0000
0001
0010
,  // measure 7
0000
0010
0100
0000
1000
0000
0010
0200
0000
0000
0310
0000
1000
0000
0001
0010
,  // measure 8
0000
0010
0100
0000
1000
0000
0010
0000
0011
0000
0000
0000
0000
0000
0001
0010
,  // measure 9
0000
0010
1000
0000
0001
0000
1000
0100
0010
0000
0001
0000
0101
0000
0001
0100
,  // measure 10
0000
0010
0100
0000
0001
0000
0100
1000
0001
0000
0000
0000
0000
0000
1000
0100
,  // measure 11
0010
0000
0010
1000
0001
0000
0001
0010
0100
0000
0100
1000
0001
0000
0001
0100
,  // measure 12
0010
0100
0001
0000
1000
0000
0100
0000
0002
0000
0000
0000
1003
0000
0010
0000
,  // measure 13
0001
0000
0100
0000
1000
0000
0100
0010
0000
0000
0000
0000
1000
0000
0100
0010
,  // measure 14
0000
0000
0001
0000
0100
0000
0010
0000
0012
0000
0000
0000
1003
0000
0100
0002
,  // measure 15
0000
0000
1003
0000
0100
0000
0001
0000
0100
0000
0010
0100
0000
0000
1000
0010
,  // measure 16
0000
0000
0100
0010
0000
0000
1000
0000
0200
0000
0000
0000
0310
0000
0000
0000
,  // measure 17
0001
0000
0100
0010
0000
0000
0100
0001
1000
0000
0100
0000
0010
0000
0100
1000
,  // measure 18
0000
0000
1000
0010
0000
0000
0100
0000
0020
0000
0000
0000
0130
0000
0001
0010
,  // measure 19
0001
0000
1000
0100
0010
0000
0001
0000
0100
0000
1000
0000
0100
0000
0010
1000
,  // measure 20
0100
0000
0010
0001
0000
0100
0010
0000
1000
0100
0000
0010
0001
0100
0010
1000
,  // measure 21
0010
0000
0010
0100
0010
0000
0100
0001
0100
0000
0010
1000
0100
0000
0001
0000
,  // measure 22
0101
0000
0100
0010
0100
0000
0010
0001
0010
0000
0100
0000
1000
0000
0001
0000
,  // measure 23
0100
0000
0010
1000
0001
0000
0010
0000
0100
0000
1000
0000
0001
0000
0100
0000
,  // measure 24
0010
0000
0000
0000
1000
0000
0001
0000
0100
0000
0000
0000
0010
0000
0000
0010
1000
0000
0000
0000
0100
0000
0000
0000
0010
0000
0000
0000
0001
0000
0100
0000
,  // measure 25
1000
0000
0100
0000
0010
0000
1000
0000
0001
0000
0010
0000
0100
0000
1000
0100
,  // measure 26
0001
0000
0100
0000
0010
0000
0001
0000
1000
0000
0010
0000
0100
0000
0001
0010
,  // measure 27
0100
0000
1000
0100
0010
0000
0010
0000
0001
0000
1000
0000
1010
0000
1000
0010
,  // measure 28
0100
0000
0001
0100
0010
0000
0010
0000
1000
0000
0001
0000
0011
0000
0100
1000
,  // measure 29
0010
0000
0010
0100
0001
0000
0001
0010
0100
0000
0100
0010
1000
0000
1000
0000
,  // measure 30
0010
0001
0100
0001
1000
0000
1000
0000
0010
0000
0000
0000
0010
0100
0010
0000
,  // measure 31
1000
0000
1000
0100
0010
0000
0010
0000
0001
0000
0000
0000
0001
0100
0001
0000
,  // measure 32
1000
0000
1000
0100
0010
0000
0010
0000
0001
0000
0000
0000
0000
0000
0100
0010
,  // measure 33
1000
0000
0000
0000
1001
1000
0100
0010
0001
0000
0001
0000
1001
0001
0100
0010
,  // measure 34
1000
0000
0100
0010
0100
0000
1000
0000
1000
0000
0000
0010
0000
0000
0100
0000
,  // measure 35
0001
0000
0001
0000
0100
0000
0010
0000
0001
0000
0000
0000
0000
0000
0010
0100
,  // measure 36
0010
0000
0000
0000
0000
0000
1000
0000
0000
0000
0000
0000
1000
0000
0000
0000
0000
0000
0100
0000
0000
0000
0000
0000
0110
0000
0000
0000
0000
0000
0000
0000
0000
0000
0000
0000
0010
0000
0000
0000
0000
0000
0001
0000
0000
0000
0000
0001
,  // measure 37
0100
0000
0000
0000
0000
0000
0100
0000
0000
0000
0000
0010
1000
0000
0000
0000
0000
0000
1000
0000
0000
0000
0000
0000
0100
0000
0000
0000
0000
0000
0001
0000
0000
0100
0000
0000
0000
0000
0000
0000
0000
0000
0010
0000
0000
0000
0000
0000
,  // measure 38
0010
0000
0000
0000
0000
0000
0100
0000
0000
0000
0000
1000
0010
0000
0000
0000
0000
0000
0100
0000
0000
0000
0000
0000
0001
0000
0000
0000
0000
0000
0000
0000
0000
0000
0000
0000
1000
0000
0000
0000
0000
0000
0100
0000
0000
0010
0000
0000
,  // measure 39
0001
0000
0001
0000
1000
0000
1000
0000
0010
0000
0000
0000
0000
0000
0100
0001
,  // measure 40
1000
0000
0200
0310
0001
0000
0200
0310
0001
0000
0000
0000
0000
0000
0010
1000
,  // measure 41
0001
0000
0001
0010
0100
0000
0001
0000
0101
0000
0000
0000
0100
0000
0010
0001
,  // measure 42
0100
0000
0010
0000
0110
0000
1000
0000
0010
0000
0100
0000
0110
0000
0001
0010
,  // measure 43
0100
0000
0000
0000
0000
0000
0000
0000
0001
0000
0000
0000
0100
0000
0000
0000
0010
0000
0000
0000
0000
0000
0000
0000
0001
0000
0000
0000
0000
0000
0000
0000
0101
0000
0000
0000
0000
0000
0000
0000
0000
0000
0000
0000
0000
0000
0000
0000
1010
0000
0000
0000
0000
0000
0000
1000
0010
0000
0000
0000
0100
0000
0000
0000
,  // measure 44
2000
3200
0320
2030
3200
0000
0000
0000
,  // measure 45
0000
0300
0000
0000
0000
0000
0000
0000
0000
0000
0000
0000
0000
0000
0000
0000
;

//---------------dance-single - ----------------
#NOTES:
     dance-single:
     :
     Medium:
     9:
     0.310,0.327,0.133,0.109,0.031: // measure 1
0000
0000
0000
0000
,  // measure 2
0000
0000
0000
0000
,  // measure 3
0000
0000
0000
0000
,  // measure 4
0000
0000
0000
0000
,  // measure 5
1000
0100
0010
0100
1000
0000
0000
0000
,  // measure 6
0001
0100
0010
0100
0001
0000
0000
0000
,  // measure 7
0011
1000
0100
0000
1010
0001
0100
0000
,  // measure 8
0010
0100
0001
1000
1100
0000
0000
0000
,  // measure 9
0100
0010
0001
1000
1010
0000
0000
0010
,  // measure 10
0100
0000
0001
0000
0020
0000
0000
1030
0000
0000
0000
0000
0000
0000
0000
0000
,  // measure 11
1000
0010
0011
0000
0001
0100
1100
0000
,  // measure 12
1000
0100
0010
1000
1200
0000
0001
0001
,  // measure 13
1300
0000
1000
0000
0001
0000
0100
0001
0000
0000
0000
0000
1000
0000
0100
1000
,  // measure 14
0000
0001
0100
0010
0200
0000
1300
0100
,  // measure 15
0010
0000
1000
0000
0100
0000
0001
0000
0100
0000
0010
0100
0000
0000
1000
0000
,  // measure 16
0001
0100
0010
0100
0201
0000
1000
0000
,  // measure 17
0301
0010
0100
0010
0001
0000
0000
0000
,  // measure 18
1000
0010
0100
0001
2002
0000
3003
0000
,  // measure 19
0201
0000
1300
0000
0000
0000
1100
0100
,  // measure 20
0010
0000
1000
0000
0100
0010
0001
1000
,  // measure 21
0010
1000
0010
1000
0001
0010
0100
1000
,  // measure 22
0001
0100
0001
0100
0010
1000
0001
0010
,  // measure 23
0100
0010
0001
0100
0010
0100
0001
1000
,  // measure 24
0100
0010
0100
1000
0001
0100
0010
1000
,  // measure 25
1100
0000
0010
0001
0100
0010
1000
0001
,  // measure 26
0101
0000
0100
0010
1000
0100
0010
0100
,  // measure 27
1000
1000
0001
0001
0100
0000
0000
0000
,  // measure 28
0001
0001
1000
1000
0100
0000
0000
0010
,  // measure 29
0001
0001
1000
1000
0010
0010
0100
0100
,  // measure 30
0001
0010
0001
0000
1000
0000
1000
0000
0100
0000
0000
0000
0000
0000
0000
0000
,  // measure 31
0010
0000
0001
0001
0100
0000
0000
0000
,  // measure 32
0010
0000
1000
1000
0100
0000
0000
0000
,  // measure 33
0010
0000
0010
0100
0010
0000
0010
0100
,  // measure 34
0010
0000
0010
0000
0001
0000
1000
0000
1000
0000
0000
0010
0000
0000
1000
0000
,  // measure 35
0001
0001
0010
0100
1000
0000
0000
0001
,  // measure 36
1000
0010
0100
0010
1010
0000
0010
0100
,  // measure 37
0001
0000
0010
0000
0001
0000
1000
0000
0001
0000
0100
0010
0000
0000
0000
0000
,  // measure 38
0010
1000
0010
1000
0100
0000
0000
0100
,  // measure 39
0010
0010
0001
0001
0100
0000
0000
0000
,  // measure 40
0010
0010
1000
1000
0001
0000
0000
0000
,  // measure 41
0010
0100
1000
0100
0201
0000
1300
0001
,  // measure 42
0100
0000
0110
0010
1000
0001
0010
0100
,  // measure 43
1000
0000
0010
0000
0100
0000
0010
0000
0021
0000
0000
0000
1030
0000
0001
0010
,  // measure 44
0200
2300
3002
0203
0320
0000
0000
0000
,  // measure 45
0000
0030
0000
0000
0000
0000
0000
0000
0000
0000
0000
0000
0000
0000
0000
0000
;

//---------------dance-single - ----------------
#NOTES:
     dance-single:
     :
     Easy:
     5:
     0.177,0.275,0.039,0.109,0.004: // measure 1
0000
0000
0000
0000
,  // measure 2
0000
0000
0000
0000
,  // measure 3
0000
0000
0000
0000
,  // measure 4
0000
0000
0000
0000
,  // measure 5
1000
0100
0010
0000
,  // measure 6
0001
0100
0010
0000
,  // measure 7
1000
1000
0001
0001
,  // measure 8
0100
0100
0010
0000
,  // measure 9
1000
0100
0010
0000
,  // measure 10
0001
0010
0100
0000
,  // measure 11
1000
0010
0100
0001
,  // measure 12
1000
0100
0010
0010
,  // measure 13
0001
0100
0010
0100
,  // measure 14
0001
1000
0100
0100
,  // measure 15
0010
0100
1000
1000
,  // measure 16
0001
0100
0010
0010
,  // measure 17
0100
0001
1000
0000
,  // measure 18
0100
0000
1000
0000
0002
0003
0000
0000
,  // measure 19
0100
0000
0220
0330
0000
0000
1000
0000
,  // measure 20
0100
0010
0001
1000
,  // measure 21
0010
0010
0100
0100
,  // measure 22
0001
1000
0100
0010
,  // measure 23
0001
0000
0002
0003
0000
0000
0001
0000
,  // measure 24
1000
0000
2000
3000
0000
0000
0010
0000
,  // measure 25
0200
1000
0301
0010
,  // measure 26
0200
0001
1300
0010
,  // measure 27
0100
0001
1000
0000
,  // measure 28
0100
1000
0001
0000
,  // measure 29
1000
0010
0100
0001
,  // measure 30
1000
0100
0010
0000
,  // measure 31
0001
0100
0010
0000
,  // measure 32
1000
0100
0010
0000
,  // measure 33
0001
0000
0001
0000
,  // measure 34
1000
0000
0000
0000
0100
0000
0000
0000
0010
0000
0000
0010
0000
0000
0000
0000
,  // measure 35
0001
0100
0010
0000
,  // measure 36
0010
1000
1000
0100
,  // measure 37
0010
0001
0100
0010
,  // measure 38
1000
0100
0010
0100
,  // measure 39
1000
0010
0100
0000
,  // measure 40
0001
0010
1000
0000
,  // measure 41
0010
0000
0220
0330
0000
0000
1000
0000
,  // measure 42
0001
0100
0010
1000
,  // measure 43
0001
0101
1001
1100
,  // measure 44
2000
3200
0320
0032
2003
0000
0000
0000
,  // measure 45
0000
3000
0000
0000
0000
0000
0000
0000
0000
0000
0000
0000
0000
0000
0000
0000
;
