#VERSION:0.83;
#TITLE:Almost Easy;
#SUBTITLE:;
#ARTIST:Avenged Sevenfold;
#TITLETRANSLIT:;
#SUBTITLETRANSLIT:;
#ARTISTTRANSLIT:;
#GENRE:;
#ORIGIN:;
#CREDIT:;
#BANNER:Almost_Easy_banner.png;
#BACKGROUND:Almost_Easy_bg.png;
#PREVIEWVID:;
#JACKET:Almost_Easy_jk.png;
#CDIMAGE:;
#DISCIMAGE:;
#LYRICSPATH:;
#CDTITLE:;
#MUSIC:Almost_Easy.ogg;
#OFFSET:-0.164000;
#SAMPLESTART:58.776726;
#SAMPLELENGTH:12.664009;
#SELECTABLE:YES;
#BPMS:0.000=175.000,
144.000=175.500,
176.000=175.000,
208.000=159.000,
209.000=174.750,
240.000=175.250,
272.000=175.000,
386.000=168.500,
387.000=175.000;
#STOPS:;
#DELAYS:;
#WARPS:;
#TIMESIGNATURES:0.000=6=4,
48.000=4=4,
272.000=6=4,
320.000=3=4,
386.000=4=4;
#TICKCOUNTS:0.000=4;
#COMBOS:0.000=1;
#SPEEDS:0.000=1.000=0.000=0;
#SCROLLS:0.000=1.000;
#FAKES:;
#LABELS:0.000=Song Start;
#BGCHANGES:;
#KEYSOUNDS:;
#ATTACKS:
;

//---------------dance-single - ----------------
#NOTEDATA:;
#CHARTNAME:;
#STEPSTYPE:dance-single;
#DESCRIPTION:;
#CHARTSTYLE:;
#DIFFICULTY:Beginner;
#METER:4;
#RADARVALUES:0.139367,0.211081,0.119314,0.364961,0.000000,139.000000,122.000000,17.000000,52.000000,0.000000,0.000000,0.000000,0.000000,0.000000,0.139367,0.211081,0.119314,0.364961,0.000000,139.000000,122.000000,17.000000,52.000000,0.000000,0.000000,0.000000,0.000000,0.000000;
#CREDIT:hdm300;
#NOTES:
0000
0000
0000
0000
,
0000
0000
0000
0000
,
0000
0000
0000
0000
,
0000
0000
0000
0000
,
0000
0000
0000
0000
,
0000
0000
0000
0000
,
2000
0000
0000
0000
,
3000
0000
0002
0000
,
0000
0000
0003
0000
,
0200
0000
0000
0000
,
0300
0000
0020
0000
,
0000
0000
0030
0000
,
1001
0000
0000
0000
,
0001
0000
1000
0000
,
0001
0000
0000
0000
,
0100
0000
0010
0000
,
0110
0000
0000
0000
,
0100
0000
0010
0000
,
0100
0000
0000
0000
,
2002
0000
3003
0000
,
0220
0330
0000
0000
,
0002
0003
0000
0000
,
0020
0030
0000
0000
,
0200
0000
0300
0000
,
2002
3003
0000
0000
,
0020
0030
0000
0000
,
0200
0300
0000
0000
,
0002
0000
0003
0000
,
1000
1000
1000
0000
,
0010
0000
0010
0000
,
0010
0010
0010
0000
,
0100
0000
0100
0000
,
0002
0003
0000
0000
,
2000
3000
0000
0000
,
0200
0300
0000
0000
,
0010
0000
0010
0000
,
0001
0000
0100
0000
,
1000
0000
0010
0000
,
0001
0000
1000
2000
,
3000
0000
0002
0003
,
0001
0000
0010
0000
,
1000
0000
0100
0000
,
0001
0000
1000
2000
,
3000
0000
0002
0003
,
2002
0000
0000
0000
,
0000
0000
0000
0000
,
0000
0000
0000
3003
,
0000
0000
0000
0000
,
0220
0000
0000
0000
,
0000
0000
0000
0000
,
0000
0000
0330
0000
,
2002
0000
3003
0000
,
1001
0000
0000
0000
,
0001
0000
1000
0000
,
0001
0000
0000
0000
,
0100
0000
0010
0000
,
0110
0000
0000
0000
,
0100
0000
0010
0000
,
0100
0000
0000
0000
,
2002
0000
3003
0000
,
2000
0000
3000
0000
,
0020
0000
0030
0000
,
0200
0000
0000
0300
0000
0000
0000
0000
,
0002
0000
0000
0003
0000
0000
0000
0000
,
0020
0000
0000
0030
0000
0000
0000
0000
,
0200
0000
0000
0300
0000
0000
0000
0000
,
2000
0000
0000
3000
0000
0000
0000
0000
,
0002
0000
0003
0000
,
1000
0000
0000
0000
,
1000
0000
0010
0000
,
0000
0000
0010
0000
,
0100
0000
0000
0000
,
0100
0000
0001
0000
,
0000
0001
0000
1000
,
1000
0000
0000
0000
,
1000
0000
0100
0000
,
0000
0000
0100
0000
,
0010
0000
0000
0000
,
0010
0000
0000
0000
0002
0000
0000
0003
,
0000
2000
0000
0000
,
3001
0000
0000
0110
,
0000
0000
1000
0000
,
0000
0110
0000
0000
,
0001
0000
0000
0110
,
0000
0000
0000
0000
2000
0000
0000
3000
,
0000
0000
0002
0000
0000
0003
0000
0000
,
2000
0000
0000
3000
0000
0000
1001
0000
,
0000
0000
0100
0000
,
0000
1001
0000
0000
,
0010
0000
0000
1001
,
0000
0000
2000
3000
,
0000
0020
0030
0000
,
0200
0300
0000
0002
,
0003
0000
0020
0000
,
0000
0230
0000
0000
,
2300
0000
0000
3002
,
0000
0000
1003
0000
,
0000
0000
0001
0000
,
1000
0000
0001
0000
,
0000
0000
0100
0000
,
0010
0010
0000
0000
;

//---------------dance-single - XO FS SS- DS JA JU----------------
#NOTEDATA:;
#CHARTNAME:;
#STEPSTYPE:dance-single;
#DESCRIPTION:XO FS SS- DS JA JU;
#CHARTSTYLE:;
#DIFFICULTY:Challenge;
#METER:17;
#RADARVALUES:0.770028,0.987500,0.442164,0.729922,0.375489,768.000000,705.000000,63.000000,104.000000,36.000000,0.000000,0.000000,0.000000,0.000000,0.770028,0.987500,0.442164,0.729922,0.375489,768.000000,705.000000,63.000000,104.000000,36.000000,0.000000,0.000000,0.000000,0.000000;
#CREDIT:Karl with a K x hdm300;
#DISPLAYBPM:175.000000;
#NOTES:
// measure 0
0000
0000
0000
0000
,  // measure 1
0000
0000
0000
0000
,  // measure 2
0000
0000
0000
0000
,  // measure 3
0000
0000
0000
0000
,  // measure 4
0000
0000
0000
0000
,  // measure 5
0000
0000
0000
0000
,  // measure 6
2000
0001
0000
0100
0000
3100
0010
0000
,  // measure 7
0001
1000
0001
1000
0001
0000
0000
0000
0200
0000
0010
0000
0000
0000
0001
0000
,  // measure 8
0000
0000
0301
0000
1000
0000
0000
0000
0001
1000
0001
1000
0001
0000
0000
0000
,  // measure 9
2000
0100
0000
3001
0000
0010
0100
0000
,  // measure 10
1000
0100
1000
0100
1000
0000
0000
0000
0002
0000
0100
0000
0000
0000
1003
0000
,  // measure 11
0000
0000
0010
0000
0100
0000
0000
0000
0010
0100
0010
0100
0010
1000
0001
0000
,  // measure 12
1001
0000
1000
0010
0100
0010
0200
0010
,  // measure 13
0301
1000
0200
0010
1300
0001
0200
0001
,  // measure 14
0320
0000
0130
0001
1000
0010
1000
0010
,  // measure 15
1000
0100
M100
0001
1000
0001
0010
0000
0001
0100
010M
1000
0001
1000
0010
0000
,  // measure 16
0110
0000
0001
0010
0100
0010
0200
0010
,  // measure 17
1300
0001
0200
0010
0301
1000
0200
1000
,  // measure 18
0320
0000
0130
1000
0001
0010
0001
0010
,  // measure 19
0001
0100
0001
0100
0001
1000
0001
0010
0100
0000
0011
0000
0110
0000
0000
0000
,  // measure 20
1100
0000
0001
0100
0010
0100
0001
0000
,  // measure 21
0101
0000
1000
0100
0010
0100
1000
0000
,  // measure 22
1100
0000
0001
0100
0010
0100
0001
0000
,  // measure 23
0001
0100
0001
0100
0001
1000
0001
0010
0100
0000
0011
0000
0110
0000
0000
0000
,  // measure 24
1100
0000
0100
0010
0001
0100
0010
0000
,  // measure 25
0M11
0000
0010
0100
1000
0010
0100
0000
,  // measure 26
11M0
0000
0100
0010
0001
0100
0010
0000
,  // measure 27
0100
0001
0100
0001
1000
0001
1000
0100
0010
0000
1100
0000
0110
0000
0000
0000
,  // measure 28
2001
0000
0000
0000
3100
1000
0100
0000
M100
0001
0100
0000
010M
1000
0100
0000
,  // measure 29
0210
0000
0000
0000
0310
0001
0010
0000
001M
1000
0010
0000
M010
0001
0010
0000
,  // measure 30
1002
0000
0000
0000
0103
0001
0100
0000
010M
1000
0100
0000
M100
0001
0100
0000
,  // measure 31
010M
1000
0100
1000
0001
1000
0010
1000
0010
0000
0110
0000
1010
0000
0000
0000
,  // measure 32
1020
0000
0130
0010
0001
0010
0100
0001
,  // measure 33
0021
0000
0130
0010
1000
0010
0100
1000
,  // measure 34
1020
0000
0130
0010
0001
0010
0100
0001
,  // measure 35
0010
0100
1000
0010
0100
1010
0110
0000
,  // measure 36
1002
0000
0013
1000
10M0
0100
2001
0000
,  // measure 37
3010
0001
00M1
0100
0210
0000
1300
0100
,  // measure 38
1200
0000
1300
1M00
0010
0000
MM21
0000
,  // measure 39
1030
10M0
0100
0000
0110
0000
0110
0000
,  // measure 40
1002
0000
0103
1000
1M00
0010
2001
0000
,  // measure 41
3100
0001
0M01
0010
0120
0000
1030
0010
,  // measure 42
1020
0000
1030
10M0
0100
0001
0102
0000
,  // measure 43
0103
0120
0000
0130
0010
0001
0100
0010
,  // measure 44
2010
0000
0000
0000
0000
0000
0000
0000
0000
0000
0000
0000
0000
0000
0000
0000
0000
0000
0000
0000
0000
0000
0000
0000
3002
0000
0000
0000
0000
0000
0000
0000
0000
0000
0000
0000
0000
0000
0000
0000
0010
0000
0000
0000
0000
0000
0000
0000
0010
0000
0000
0000
0000
0000
0000
0003
0002
0000
0000
0000
0000
0000
0000
0000
,  // measure 45
1000
0000
0000
0000
0000
0000
0000
0000
0000
0000
0000
0000
0000
0000
0000
0000
0100
0000
0000
0000
0000
0000
0000
0000
0100
0000
0000
0000
0000
0000
0000
0003
0002
0000
0000
0000
0000
0000
0000
0000
0000
0000
0000
0000
0000
0000
0000
0000
1000
0000
0000
0000
0000
0000
0000
0000
0000
0000
0000
0000
0000
0000
0000
0000
,  // measure 46
0023
0000
0100
0230
0000
1000
2300
0001
,  // measure 47
0000
0000
0000
0000
0000
0000
0000
0000
3002
0000
0000
0000
0000
0000
0000
0000
0000
0000
0000
0000
0000
0000
0000
0000
0000
0000
0000
0000
0000
0000
0000
0003
0102
0000
0000
0000
0000
0000
0000
0000
0000
0000
0000
0000
0000
0000
0000
0000
1003
0000
0000
0000
0010
0000
0000
0000
0100
0000
0000
0000
0010
0000
0000
0000
,  // measure 48
2000
0000
0001
0001
0000
3100
1200
0000
,  // measure 49
0010
0000
0000
0000
0000
0000
0000
0000
0000
0000
0000
0000
0000
0000
0000
0000
0001
0000
0000
0000
0000
0000
0000
0000
0001
0000
0000
0000
0000
0000
0000
0300
0200
0000
0000
0000
0000
0000
0000
0000
0010
0000
0000
0000
0000
0000
0000
0000
0010
0000
0000
0000
0000
0000
0000
0000
0000
0000
0000
0000
0000
0000
0000
0000
,  // measure 50
2300
0000
0000
0000
0000
0000
0000
0000
0000
0000
0000
0000
0000
0000
0000
0000
0001
0000
0000
0000
0000
0000
0000
0000
0001
0000
0000
0000
0000
0000
0000
0000
0000
0000
0000
0000
0000
0000
0000
0000
0010
0000
0000
0000
0000
0000
0000
3000
2010
0000
0000
0000
0000
0000
0000
0000
0000
0000
0000
0000
0000
0000
0000
0000
,  // measure 51
3001
0100
0001
0100
0001
1000
0001
0100
0010
0000
0101
0000
0110
0000
0000
0000
,  // measure 52
1001
0000
0001
0010
0100
0010
0200
0010
,  // measure 53
1300
0001
0200
0010
0301
1000
0200
1000
,  // measure 54
0320
0000
0130
1000
0001
0010
0001
0010
,  // measure 55
0001
0100
010M
1000
0001
1000
0010
0000
1000
0100
M100
0001
1000
0001
0010
0000
,  // measure 56
0110
0000
1000
0010
0100
0010
0200
0010
,  // measure 57
0301
1000
0200
0010
1300
0001
0200
0001
,  // measure 58
0320
0000
0130
0001
1000
0010
1000
0010
,  // measure 59
1000
0100
1000
0100
1000
0001
1000
0010
0100
0000
1010
0000
0210
0000
0000
0000
,  // measure 60
0302
0000
0010
0000
1003
0100
0020
0000
0001
0000
0130
0000
0010
0100
1000
0000
,  // measure 61
0002
0000
0100
0000
1003
0010
0200
0000
0001
0000
0310
0000
0100
0010
1000
0000
,  // measure 62
0001
1000
0100
0010
0001
0100
0020
0000
0000
0000
0031
0000
0010
0100
0001
0000
,  // measure 63
1000
0001
0100
0010
1000
0100
0020
0000
0000
0000
1030
0000
0010
0100
1000
0000
,  // measure 64
0100
0010
0001
1000
0010
0100
0002
0000
1000
0000
0013
0000
0100
0010
0001
0000
,  // measure 65
0100
0010
1000
0001
0010
0100
2000
0000
0001
0000
3010
0000
0100
0010
1000
0000
,  // measure 66
0001
0010
0100
1000
0001
0100
0020
0000
0100
0000
1030
0000
0010
1000
0001
0000
,  // measure 67
1000
0100
0010
0001
1000
0010
0200
0000
0301
0010
0100
1000
0010
0100
0010
0100
,  // measure 68
0002
1000
0000
0013
0000
001M
1000
0000
,  // measure 69
1000
0001
0100
0001
1000
0000
0000
0000
0200
0000
0010
0000
0000
0000
0301
0000
,  // measure 70
0000
0000
00M1
0000
1000
0000
0000
0000
1000
0100
0010
0100
1000
0000
0000
0000
,  // measure 71
2000
0001
0000
3010
0000
M010
0001
0000
,  // measure 72
0001
0010
0100
0010
0001
0000
0000
0000
0200
0000
0010
0000
0000
0000
1300
0000
,  // measure 73
0000
1M00
0001
0000
0100
0110
0110
0000
,  // measure 74
2000
0001
0000
3010
0000
M010
0001
0000
,  // measure 75
0001
1000
0100
1000
0001
0000
0000
0000
0200
0000
0010
0000
0000
0000
1300
0000
,  // measure 76
0000
0000
10M0
0000
0001
0000
0000
0000
0001
0100
0010
0100
0001
0000
0000
0000
,  // measure 77
0002
1000
0000
0013
0000
001M
1000
0000
,  // measure 78
1000
0010
0100
0010
1000
0000
0000
0000
0001
0010
0100
1000
0001
0000
1000
0100
,  // measure 79
0010
0001
1000
0000
0020
0000
0100
0000
2030
0000
0100
0000
3002
0000
1003
0000
,  // measure 80
2001
0000
0010
3020
0000
0130
0210
0000
,  // measure 81
0302
0000
0023
0000
0230
0000
0000
2300
,  // measure 82
0000
3010
1020
0000
0230
0000
0302
0000
,  // measure 83
2003
0000
0100
3200
0000
0310
0210
0000
,  // measure 84
2300
0000
3002
0000
0203
0000
0001
0302
,  // measure 85
0000
0013
0011
0000
0010
0100
1100
0000
,  // measure 86
0002
0000
0100
0203
0000
0310
0110
0000
,  // measure 87
0100
0001
1000
0100
0020
0000
0001
0032
,  // measure 88
0000
1003
1002
0000
1003
0100
0010
0001
,  // measure 89
0200
0000
1300
0200
0010
0000
0301
0000
,  // measure 90
2000
0000
0001
0000
3020
0000
1000
1000
,  // measure 91
0000
0100
0130
0001
0000
0001
1000
0100
,  // measure 92
0010
1000
0000
1000
0000
0010
0100
1000
,  // measure 93
0000
1000
0000
0010
0110
0000
01M0
1000
,  // measure 94
0001
0100
0110
0000
01M0
1000
0001
0100
,  // measure 95
0110
0001
0000
0001
0000
1000
0001
0010
,  // measure 96
0100
1000
0010
0100
0110
0000
1000
0100
,  // measure 97
1000
0100
M200
0010
0301
0100
020M
0010
,  // measure 98
1300
0100
M200
0001
0320
0000
0130
0001
,  // measure 99
1000
0000
0100
0000
1000
0000
0001
0000
0100
010M
1000
0001
0100
010M
1000
0001
,  // measure 100
0010
0110
0022
0000
0033
0000
0000
0000
;

//---------------dance-single - XO FS- DS JA- JU----------------
#NOTEDATA:;
#CHARTNAME:;
#STEPSTYPE:dance-single;
#DESCRIPTION:XO FS- DS JA- JU;
#CHARTSTYLE:;
#DIFFICULTY:Hard;
#METER:13;
#RADARVALUES:0.566492,0.634821,0.294776,0.393035,0.098259,565.000000,523.000000,42.000000,56.000000,7.000000,0.000000,0.000000,0.000000,0.000000,0.566492,0.634821,0.294776,0.393035,0.098259,565.000000,523.000000,42.000000,56.000000,7.000000,0.000000,0.000000,0.000000,0.000000;
#CREDIT:Karl with a K x hdm300;
#NOTES:
0000
0000
0000
0000
,
0000
0000
0000
0000
,
0000
0000
0000
0000
,
0000
0000
0000
0000
,
0000
0000
0000
0000
,
0000
0000
0000
0000
,
2000
0001
0000
0100
0000
0000
3002
0000
,
0010
0000
1003
0000
2000
0010
0000
0100
,
0000
0000
0000
0000
3002
0000
0000
0000
0103
0000
0001
1000
0001
0000
0000
0000
,
2000
0010
0000
0001
0000
0000
3002
0000
,
1000
0000
0103
0000
2000
0010
0000
0001
,
0000
0000
0000
0000
3002
0000
0010
0000
1003
0100
0010
0000
0100
0000
1000
0000
,
1001
0000
1000
0100
1000
0000
0100
0010
,
0001
0000
0100
0010
1000
0000
0100
1000
,
0010
0000
0100
0001
0100
0000
0001
0000
,
0100
0000
010M
0000
1000
0001
1000
0000
0100
0000
M100
0000
0001
1000
0001
0000
,
1001
0000
0001
0100
0001
0000
0100
0010
,
1000
0000
0100
0010
0001
0000
0100
0001
,
0010
0000
0100
1000
0100
0000
1000
0000
,
0001
0100
010M
1000
0100
0010
0100
0000
,
1002
0000
1003
0100
0010
0000
0100
0000
,
0210
0000
0310
0001
1000
0000
0001
0000
,
2001
0000
3001
0100
0010
0100
0001
0000
,
1000
0100
0001
0100
1000
1000
1010
0000
,
2001
0000
3001
0010
0100
0000
0010
0000
,
0120
0000
0130
1000
0001
0000
1000
0000
,
1002
0000
1003
0010
0100
0010
1000
0000
,
0001
0010
1000
0010
0001
0001
0101
0000
,
1002
0000
0000
0000
1003
0100
0000
0000
0100
0010
0000
0000
0010
0001
0000
0000
,
1002
0000
0000
0000
1003
0010
0000
0000
0010
0100
0000
0000
0100
0001
0000
0000
,
2001
0000
0000
0000
3001
0010
0000
0000
0010
0100
0000
0000
0100
1000
0000
0000
,
0001
0100
1000
0100
0001
0001
0011
0000
,
1002
0000
1003
0100
0010
0100
1000
0000
,
2001
0000
3001
0100
0010
0100
0001
0000
,
1002
0000
0013
0100
0001
0100
0010
0000
,
0010
0001
0100
1000
0100
0010
1000
0000
,
1010
0000
1000
0010
0001
0000
0011
0000
,
0001
0010
1000
0000
1010
0000
1000
0100
,
0001
0000
0101
0000
0001
0100
0110
0000
,
0100
0000
1000
0000
1100
0000
0000
0000
1010
0000
0000
0000
0110
0000
0010
1000
,
0001
0000
0001
0010
1000
0000
1010
0000
,
1000
0010
0001
0000
0011
0000
0001
0100
,
1000
0000
1100
0000
1000
0100
0220
0000
,
0330
2001
0000
0000
3010
1000
0100
0000
,
0110
0000
0000
0012
0000
0000
1000
0000
,
0010
0000
1000
1000
0000
0000
0100
0000
,
1000
0000
0000
1000
0000
0000
0023
0000
,
0000
0230
0000
0000
2300
0000
3020
0000
,
0230
0000
1000
1000
0000
0010
0320
0000
,
1000
0000
0100
0100
0000
0000
0100
0000
,
1000
0000
0000
2000
0030
0000
3002
0000
,
1003
0100
0001
0100
1000
1000
1010
0000
,
1001
0000
0001
0100
0001
0000
0100
0010
,
1000
0000
0100
0010
0001
0000
0100
0001
,
0010
0000
0100
1000
0100
0000
1000
0000
,
0100
0000
M100
0000
0001
1000
0001
0000
0100
0000
010M
0000
1000
0001
1000
0000
,
1001
0000
1000
0100
1000
0000
0100
0010
,
0001
0000
0100
0010
1000
0000
0100
1000
,
0010
0000
0100
0001
0100
0000
0001
0000
,
1000
0100
M100
0001
0100
0010
0100
0000
,
0001
0000
0020
0000
0130
0000
0020
0000
0000
0000
1030
0000
0010
0100
0010
0000
,
0001
0000
0200
0000
0310
0000
0200
0000
0000
0000
1300
0000
0100
0010
0100
0000
,
0001
0010
0100
0000
1000
0000
0020
0000
0000
0000
1000
0000
0000
0000
1030
0000
,
0001
0100
0010
0000
1000
0000
0200
0000
0000
0000
0010
0000
0000
0000
0310
0000
,
0001
0010
0001
0000
1000
0000
0020
0000
0000
0000
0100
0000
0000
0000
0130
0000
,
0001
0100
0001
0000
1000
0000
0200
0000
0000
0000
1000
0000
0000
0000
1300
0000
,
0001
0100
0010
0000
0100
0000
0002
0000
0000
0000
1000
0000
0000
0000
1003
0000
,
0100
0010
0100
0000
0010
0100
0020
0000
0000
0000
0031
0000
0010
0000
0100
0000
,
1000
0010
0000
0100
0000
0100
1000
0000
,
0100
0000
0100
0000
1000
0100
0000
0010
,
0000
1000
0001
0000
1000
0000
1000
0000
,
0001
0010
0000
0100
0000
0100
0001
0000
,
0100
0000
0100
0000
0001
0100
0000
0010
,
0000
0001
1000
0000
0001
1000
1001
0000
,
1000
0100
0000
0001
0000
0100
1000
0000
,
0001
1000
0001
0000
1000
0000
0000
0000
0001
0000
0100
0000
0000
0000
1000
0000
,
0000
0000
0100
0000
0001
0000
0000
0000
1000
0001
1000
0000
0001
0000
0000
0000
,
1000
0010
0000
0001
0000
0010
1000
0000
,
0001
1000
0001
0000
1000
0000
0000
0000
0001
0000
0010
0000
1000
0000
0001
0000
,
0100
1000
0001
0010
0100
1000
0010
0010
,
2000
0000
0000
3100
0000
0000
0110
0000
,
0001
0000
0100
0000
0020
0000
0000
0130
,
0000
0001
1000
0000
1000
0000
1000
0000
,
0020
0000
0000
1030
0000
0000
1001
0000
,
0001
0000
0001
0000
0020
0000
0000
0032
,
0000
0000
0203
0000
0000
0320
0000
0000
,
2030
0000
0000
3010
0000
0000
0110
0000
,
1000
0000
0100
0000
0010
0000
0100
1000
,
0000
1000
0001
0000
0001
0000
0001
0000
,
0020
0031
1000
1001
,
1000
0000
1000
0000
0020
0000
0000
1030
,
0000
0000
2000
0000
0000
3001
0000
0000
,
0002
0010
0000
0013
0000
0000
0200
1000
,
0000
1300
0000
0000
1000
0000
0100
1000
,
0100
0000
0110
0000
0100
0010
0100
0000
,
0010
0001
0000
0001
0000
0100
0010
0000
,
1000
0100
0010
0100
1001
0000
0001
0010
,
0001
0000
0010
0100
1000
0000
0010
0100
,
0001
0000
0010
0001
0100
0000
0010
1000
,
0010
0000
1000
0000
0001
0010
001M
1000
,
0010
0100
0020
0000
0030
0000
0000
0000
;

//---------------dance-single - ----------------
#NOTEDATA:;
#CHARTNAME:;
#STEPSTYPE:dance-single;
#DESCRIPTION:;
#CHARTSTYLE:;
#DIFFICULTY:Easy;
#METER:8;
#RADARVALUES:0.306808,0.562882,0.280739,0.400053,0.000000,306.000000,266.000000,40.000000,57.000000,0.000000,0.000000,0.000000,0.000000,0.000000,0.306808,0.562882,0.280739,0.400053,0.000000,306.000000,266.000000,40.000000,57.000000,0.000000,0.000000,0.000000,0.000000,0.000000;
#CREDIT:hdm300;
#NOTES:
0000
0000
0000
0000
,
0000
0000
0000
0000
,
0000
0000
0000
0000
,
0000
0000
0000
0000
,
0000
0000
0000
0000
,
0000
0000
0000
0000
,
2000
0000
0000
0000
,
0000
0000
3002
0000
,
0000
0203
0000
0000
,
0320
0000
0000
0000
,
0000
0000
2030
0000
,
0000
3002
0000
0000
,
1003
0001
0001
0002
,
0103
2000
3100
0002
,
0203
1300
0100
0001
,
1000
0100
0001
0010
,
1000
0001
0001
0002
,
0013
2000
3010
0002
,
0023
1030
0010
0001
,
1000
0010
0110
0110
,
1001
0000
1000
0100
,
0011
0000
1000
0010
,
0101
0000
1000
0100
,
0010
0001
1001
1001
,
0110
0000
0010
1000
,
1100
0000
0010
0001
,
0101
0000
0010
1000
,
0100
0010
0110
0110
,
1001
0001
0110
1010
,
1001
0001
0110
0011
,
1001
1000
0110
1010
,
1000
0001
1001
1001
,
0110
0000
0010
1000
,
1100
0000
0010
0001
,
0101
0000
0010
1000
,
0100
0020
0230
0000
,
0310
0010
0001
0001
,
0100
0100
1000
1000
,
0010
0010
0001
0002
,
0010
1000
0203
0000
,
0310
0010
1000
1000
,
0100
0100
0001
0001
,
0010
0010
1000
1000
,
0000
0001
0000
0000
1000
0000
0000
0000
,
0200
0000
0000
0020
0000
0000
0000
0000
,
0000
0000
0000
0000
,
0000
0000
0000
0330
,
0000
0000
0010
0100
,
2000
0000
0000
0002
,
0000
0000
0000
0000
,
0000
0000
3003
0000
,
1000
0010
0110
0110
,
1001
1000
1000
2000
,
3100
0002
0103
2000
,
3200
0301
0100
1000
,
0001
0100
1000
0010
,
0001
1000
1000
2000
,
3010
0002
0013
2000
,
3020
0031
0010
1000
,
0001
0010
0110
0110
,
0002
0000
0000
0000
,
0023
0000
0000
0030
,
0100
0000
0000
0200
0000
0000
0000
0000
,
1300
0000
0000
2000
0000
0000
0000
0000
,
3001
0000
0000
0002
0000
0000
0000
0000
,
0103
0000
0000
0200
0000
0000
0000
0000
,
0310
0000
0000
0020
0000
0000
0000
0000
,
0130
0001
1000
0001
,
1000
0000
0000
0100
0000
0000
0010
0000
,
0001
0000
1000
0000
0001
0000
0000
0100
,
0000
0010
1000
0001
,
1000
0000
0000
0100
0000
0000
0010
0000
,
0001
0000
1000
0000
0001
0000
0000
0100
,
0000
0010
0000
1001
,
2000
0000
0000
0010
0000
0000
3001
0000
,
0010
0000
0100
0000
2000
0000
0000
0001
,
0000
3010
0100
0001
,
2000
0000
0000
0100
0000
0000
3001
0000
,
0100
0000
0010
0000
2000
0000
0000
3200
,
0000
0320
0032
2003
,
3001
0000
0000
0001
0000
0000
0011
0000
,
0000
0000
0000
0000
0010
0000
0000
0010
,
0000
0110
0000
0000
,
0100
0000
0000
0100
0000
0000
1100
0000
,
0000
0000
0000
0000
1000
0000
0000
1000
,
0000
0000
0001
0000
0000
0100
0000
0000
,
0010
0000
0000
0010
0000
0000
0110
0000
,
0000
0000
0000
0000
0100
0000
0000
0100
,
0000
0101
0000
0000
,
0001
0000
0000
0001
0000
0000
1001
0000
,
0000
0000
2000
0000
,
0000
3200
0000
0000
,
0320
0000
0000
0100
0000
0000
0032
0000
,
0000
1000
0000
0000
2003
0000
0000
0000
,
0000
0020
0000
3000
,
0200
0000
0030
0002
,
0000
0300
1003
0001
,
0001
0002
0013
2000
,
3010
0002
0023
1030
,
0010
0001
1000
0010
,
0110
1001
0000
0000
;

//---------------dance-single - ----------------
#NOTEDATA:;
#CHARTNAME:;
#STEPSTYPE:dance-single;
#DESCRIPTION:;
#CHARTSTYLE:;
#DIFFICULTY:Medium;
#METER:11;
#RADARVALUES:0.456201,0.633242,0.231610,0.561478,0.000000,455.000000,422.000000,33.000000,80.000000,0.000000,0.000000,0.000000,0.000000,0.000000,0.456201,0.633242,0.231610,0.561478,0.000000,455.000000,422.000000,33.000000,80.000000,0.000000,0.000000,0.000000,0.000000,0.000000;
#CREDIT:Karl with a K;
#NOTES:
0000
0000
0000
0000
,
0000
0000
0000
0000
,
0000
0000
0000
0000
,
0000
0000
0000
0000
,
0000
0000
0000
0000
,
0000
0000
0000
0000
,
2000
0000
0000
3200
0000
0000
1300
0000
,
0010
0000
0100
0000
0002
0000
0000
0203
,
0000
0000
0320
0000
0000
1000
1030
0000
,
2000
0000
0000
3200
0000
0000
0310
0000
,
0001
0000
0100
0000
0002
0000
0000
0203
,
0000
0000
0320
0000
1030
0100
1000
0000
,
1001
0000
1000
0000
0001
0000
1000
0010
,
1000
0000
0010
1000
0001
0000
1000
0001
,
0010
0100
1000
0100
,
0100
1000
0010
0000
0100
0001
0010
0000
,
1001
0000
0001
0000
1000
0000
0001
0010
,
0001
0000
0010
0001
1000
0000
0001
1000
,
0010
0100
0001
0100
,
0001
0001
0001
0000
0010
0001
0010
0000
,
0110
0010
0001
0100
,
0011
0010
0001
0100
,
0101
0100
0001
0001
,
1000
1000
1000
0000
0010
1000
0010
0000
,
0110
0010
1000
0100
,
1010
0010
1000
0100
,
1100
0100
1000
1000
,
0001
0001
0001
0000
0010
0100
0010
0000
,
1001
0000
0001
0100
0001
0000
1000
0100
,
1000
0000
0001
0100
0001
0000
1000
0100
,
1000
0000
0001
0100
0001
0000
1000
0100
,
1000
1000
1000
0000
0010
0100
0010
0000
,
1010
1000
0100
0010
,
0110
0010
0001
0100
,
0110
0010
1000
0100
,
0010
0001
0100
0000
0010
1000
0100
0000
,
0110
0000
0010
0001
0100
0010
0100
0000
,
0010
1000
0100
0010
0100
0000
0010
0001
,
0101
0000
0110
0000
0010
1000
1100
0000
,
0110
0011
1001
0110
,
1010
0000
0010
1000
0100
0010
0100
0000
,
0010
0001
0100
0010
0100
0000
0010
1000
,
1100
0000
0110
0000
0010
0001
0101
0000
,
0000
0110
0000
0000
1001
0000
0110
0000
,
2000
0000
0000
3020
0000
0000
1000
0000
,
0000
0100
0000
0130
0010
0000
0100
0000
,
0002
0000
0000
0023
0000
0000
2030
0000
,
0000
3020
0000
0000
0031
0000
0100
0100
,
0002
0000
0000
0023
0000
0000
0001
0000
,
0000
0100
0000
0130
0010
0000
0100
0000
,
2000
0000
0000
3020
0000
0000
0032
0000
,
0023
0000
2030
0000
3001
0100
0010
0000
,
1001
0000
1000
0000
0001
0000
1000
0100
,
1000
0000
0100
1000
0001
0000
1000
0001
,
0100
0010
1000
0010
,
0010
1000
0100
0000
0010
0001
0100
0000
,
1001
0000
0001
0000
1000
0000
0001
0100
,
0001
0000
0100
0001
1000
0000
0001
1000
,
0100
0010
0001
0010
,
0001
0001
0001
0000
0100
0001
0100
0000
,
0100
0020
0000
1000
0000
0100
0000
1030
,
0200
0010
0000
1000
0000
0010
0000
1300
,
0001
0100
0010
2000
0000
0100
0000
3010
,
1000
0100
0010
0002
0000
0100
0000
1003
,
0010
1000
0100
0020
0000
0001
0000
0130
,
0010
0001
0100
0020
0000
1000
0000
0130
,
0010
1000
0100
2000
0000
0100
0000
3001
,
0100
0001
0100
0020
0100
0130
0001
1000
,
0002
1000
0000
2003
0000
0000
3200
0000
,
0320
0000
0032
0000
0103
0020
0000
2030
,
0000
3200
0320
0032
,
1003
0020
0000
2030
0000
0000
3002
0000
,
0023
0000
0230
0000
2300
0000
0000
3002
,
0000
0000
0203
0000
0310
1000
0010
0000
,
2000
0000
0000
3002
0000
0000
0203
0000
,
0320
0000
2030
0000
3100
0020
0000
0032
,
0000
0203
0320
2030
,
3001
0020
0000
0230
0000
0000
2300
0000
,
0010
0000
0001
0000
3001
0010
0100
1000
,
0000
1000
0001
0000
0101
0000
0110
0000
,
1002
0000
0000
1000
0000
0000
0023
0000
,
0000
0000
0130
0000
0020
0000
0000
0001
,
0000
0032
0000
0103
,
0020
0000
0000
1000
0000
0000
2030
0000
,
0000
0000
3100
0000
2000
0000
0000
3002
,
0000
0000
0203
0000
0000
0302
0000
0000
,
2003
0000
0000
0100
0000
0000
3002
0000
,
0000
0000
0103
0000
0020
0000
0000
0100
,
0000
2030
0000
3001
,
0020
0000
0000
0100
0000
0000
0032
0000
,
0000
0000
0103
0000
0010
0000
0000
0010
,
0000
0000
1000
0000
0000
1000
0000
0000
,
0100
0010
0000
0100
0000
0000
0010
0100
,
0000
0010
0000
0000
0002
0000
0000
0103
,
0000
0000
0200
0000
0000
0301
0000
0000
,
0001
0010
0000
0010
0000
0000
0010
0100
,
0000
0100
1000
0000
1001
0000
1000
0000
,
0001
0000
1000
0100
1000
0000
0100
1000
,
0001
0000
1000
0001
0100
0000
0010
0000
,
1000
0000
0010
0000
1000
1000
1000
0000
,
0100
0010
0001
0000
0000
0000
0000
0000
;
