#TITLE:Almace;
#SUBTITLE:;
#ARTIST:Qrispy Joybox;
#TITLETRANSLIT:;
#SUBTITLETRANSLIT:;
#ARTISTTRANSLIT:;
#GENRE:;
#CREDIT:;
#MUSIC:Almace.ogg;
#BANNER:Almace.png;
#BACKGROUND:Almace-bg.png;
#CDTITLE:;
#SAMPLESTART:19.896;
#SAMPLELENGTH:16.744;
#SELECTABLE:YES;
#OFFSET:-0.358;
#BPMS:0.000=172.000;
#STOPS:;
#BGCHANGES:-5.000=Almace.mp4=1.000=0=0=0=StretchNoLoop====,
99999.000=-nosongbg-=1.000=0=0=0=StretchNoLoop====
;
#FGCHANGES:;

//--------------- dance-single - P1989 ----------------
#NOTES:
     dance-single:
     P1989:
     Beginner:
     2:
     0,0,0,0,0:
0000
0000
0000
0000
,
0000
0000
0000
0000
,
0000
0000
0000
0000
,
0000
0000
0000
0000
,
1000
0000
0000
0000
,
0000
0000
0000
0000
,
0001
0000
0000
0000
,
0000
0000
0000
0100
,
0000
0000
0000
0000
,
1001
0000
0000
0000
,
0000
0000
0000
0000
,
0010
0000
0000
0000
,
0000
0000
0100
0000
,
0000
0000
0000
0000
,
1001
0000
0000
0000
,
1000
0000
0000
0000
,
0100
0000
0000
0000
,
1000
0000
0000
0000
,
0001
0000
0000
0000
,
0100
0000
0000
0000
,
0001
0000
0000
0000
,
0010
0000
0000
0000
,
1001
0000
0000
0000
,
1000
0000
0000
0000
,
0110
0000
0000
0000
,
0001
0000
0000
0000
,
1001
0000
0000
0000
,
0010
0000
0000
0000
,
0110
0000
0000
0000
,
0100
0000
0000
0000
,
1001
0000
0000
0000
,
0000
0000
0000
0000
,
1000
0000
0000
0000
,
0000
0000
0000
0000
,
0010
0000
0000
0000
,
0010
0000
0000
0000
,
0100
0000
0000
0000
,
0001
0000
0000
0000
,
0010
0000
0000
0000
,
1001
0000
0000
0000
,
1000
0000
0000
0000
,
0100
0000
0000
0000
,
1000
0000
0000
0000
,
0001
0000
0000
0000
,
0100
0000
0000
0000
,
0001
0000
0000
0000
,
0010
0000
0000
0000
,
0110
0000
0000
0000
,
0100
0000
0000
0000
,
1000
0000
0000
0000
,
0001
0000
0000
0000
,
0100
0000
0000
0000
,
0010
0000
0000
0000
,
1000
0000
0000
0000
,
0001
0000
0000
0000
,
1001
0000
0000
0000
,
1000
0000
0000
0000
,
0100
0000
0000
0000
,
1000
0000
0000
0000
,
1001
0000
0000
0000
,
0001
0000
0000
0000
,
0100
0000
0000
0000
,
0001
0000
0000
0000
,
0010
0000
0000
0000
,
0100
0000
0000
0000
,
1000
0000
0000
0000
,
0100
0000
0000
0000
,
0010
0000
0000
0000
,
0001
0000
0000
0000
,
0100
0000
0100
0000
,
0100
0000
0010
0000
;

//--------------- dance-single - P1989 ----------------
#NOTES:
     dance-single:
     P1989:
     Easy:
     7:
     0,0,0,0,0:
0000
0000
0000
0000
,
0000
0000
0000
0000
,
0000
0000
0000
0000
,
0000
0000
0000
0000
,
0002
0000
0000
0003
,
0200
0000
0000
0300
,
0020
0000
0000
0030
,
2000
0000
0000
0002
,
0000
0000
3003
0000
,
1001
0000
0000
0000
0000
0000
0000
0110
,
0000
0000
0000
0000
,
1001
0000
0000
0000
0100
0000
0000
0010
,
0000
0000
2002
0000
,
3003
0000
0000
0000
,
0001
0001
0100
0000
,
0001
1000
0010
0100
,
0001
0001
0010
0000
,
0100
1000
0010
0000
,
1000
1000
0100
0000
,
1000
0100
0010
0001
,
1000
0000
1000
0000
0010
0000
0000
0100
,
0000
0100
0000
0100
0000
0001
0000
0000
,
0010
0100
1000
0100
,
0010
0000
0001
0000
0000
0001
0000
0000
,
0100
0010
1000
0001
,
1001
0000
0000
0000
0000
0110
0000
0000
,
1000
0100
1000
0001
,
0100
0000
0000
0010
0000
0010
0000
0000
,
1000
0001
0010
0001
,
0100
0000
0000
0010
0000
1001
0000
0000
,
2000
0000
0000
3000
,
0200
0000
0000
0300
,
0020
0000
0000
0030
,
0002
0000
0000
0003
,
0100
0000
0100
0100
,
0010
0000
0010
0010
,
1000
0001
1000
0001
,
0010
0010
0100
0100
,
1001
0000
0000
0000
,
0100
0001
0100
0010
,
0000
1000
0001
1000
,
0100
0000
0010
0000
0001
0000
0000
0010
,
0000
0010
0000
0001
0000
0000
0000
0000
,
1000
0010
0100
0010
,
0000
1000
0001
0100
,
0001
0000
0010
0000
0100
0000
0000
1000
,
0000
1000
0000
0001
0000
0000
0000
0000
,
0100
0010
1000
0010
,
0000
0100
0001
1000
,
2002
0000
0000
0000
3003
0000
0000
0010
,
0000
0010
0000
0200
0000
0000
0300
0000
,
0001
0100
0010
0100
,
0000
0001
1000
0100
,
0010
0000
0100
0000
1000
0000
0000
0001
,
0000
0001
0000
0001
0000
0000
0000
0000
,
0100
0010
1000
0010
,
0100
0010
1000
0000
,
0100
0010
0001
0010
,
0000
0001
0000
1000
0000
0000
0000
0000
,
0010
0100
0001
0100
,
0010
0100
0001
0000
,
0010
0000
0100
0000
1000
0000
0000
0001
,
0000
0001
0000
0001
0000
0000
0000
0000
,
0100
0010
1000
0100
,
0010
0001
1001
0000
,
1000
0010
1000
0001
,
0010
0100
1001
0000
,
0001
0100
0001
0001
,
1000
0100
1000
1000
,
1001
0000
0110
0000
,
0001
0000
0100
0000
0001
0000
0001
2000
,
0000
0000
0000
0000
,
3000
0000
0000
0000
;

//--------------- dance-single - Extraordiberry ----------------
#NOTES:
     dance-single:
     Extraordiberry:
     Medium:
     12:
     0,0,0,0,0:
0000
0000
0000
0000
,
0000
0000
0000
0000
,
0000
0000
0000
0000
,
0000
0000
0000
0000
,
1000
0100
0001
1000
,
0010
0001
0100
1000
,
0001
0010
1000
0100
,
0001
1000
0010
0001
,
1000
0010
0010
0000
,
2000
0000
0000
0000
0000
0000
0000
3002
,
0000
0000
0000
0000
,
2003
0000
0000
0000
3020
0000
0000
0230
,
0000
0001
0302
0000
,
0003
0000
0000
0000
,
1000
0000
0001
0000
1000
0100
0000
0010
,
0000
0100
1000
0200
0000
0010
0310
0000
,
0001
0000
1000
0000
0001
0100
0010
0200
,
0000
0302
0000
2003
0000
0100
3100
0000
,
1000
0000
0100
0000
0010
0001
0010
0100
,
0000
1000
0000
1100
0000
1001
0000
1000
,
0010
0000
0100
0000
0001
0100
0010
0100
,
0000
0110
0000
1010
0000
2001
0000
0000
,
3100
1000
0001
1000
0100
1000
0000
0001
,
0100
0001
1000
0002
0000
0100
0103
0000
,
0001
1000
0100
0010
0001
1000
0000
0010
,
0100
0001
1000
0020
0000
1000
1030
0000
,
0001
1000
0100
1000
0010
1000
0000
0001
,
1000
0100
0001
0200
0000
0010
0000
1300
,
0000
0001
0100
0001
0010
0001
0000
1000
,
0001
0100
1000
0200
0000
1000
0000
0310
,
2000
0000
0001
0000
,
0010
0000
0100
0000
,
3002
0000
1000
0000
,
0010
0000
0100
0000
,
1003
0000
0001
0010
0001
0000
1000
0100
,
1000
0000
0001
0100
0001
0000
1000
0001
,
0100
0000
0010
1000
0010
0000
0100
0001
,
0100
0000
0001
0010
0001
0000
1000
0001
,
0020
0000
0000
0031
,
1000
0100
0010
0100
1000
0010
0100
0001
,
0000
1000
0010
0100
0001
0010
0100
0000
,
0010
0001
1000
0001
0010
0001
0100
0020
,
0000
0100
0000
2030
0000
0001
3001
0000
,
0001
0100
0010
0100
0001
0010
0100
1000
,
0000
0001
0010
0100
1000
0010
0100
0010
,
0100
0000
0110
0000
0010
1000
0000
1100
,
0000
0110
0000
0021
0000
0001
0031
0000
,
1000
0100
0010
0100
0001
0100
1000
0100
,
0000
0010
0001
0100
0010
1000
0010
0000
,
1020
0000
0130
0000
0001
0010
0000
0110
,
0000
1001
0000
0210
0000
0010
0310
0000
,
0001
0100
0010
0100
1000
0100
0001
0100
,
0000
0001
0100
0010
1000
0100
1000
0100
,
0010
0000
0011
0000
0001
0100
0000
2010
,
0000
0010
0000
0002
0000
0000
3003
0000
,
1000
0000
0000
0000
0100
0000
0000
1000
0100
0000
0010
0000
0010
0000
0000
0000
,
0001
0000
0100
0000
0001
0000
0000
0100
0001
0000
1000
0000
1000
0000
0000
0000
,
0010
0000
0000
0000
0110
0000
0000
0001
1000
0000
0100
0000
0100
0000
0000
0000
,
2000
0010
0000
3200
0000
0010
0310
0000
,
0001
0100
0010
1000
0001
0100
0010
1000
,
0001
0010
0000
0020
0000
0000
0130
0000
,
1000
0100
0010
0001
1000
0100
0010
0001
,
1000
0010
0100
0010
0000
0000
1001
0000
,
1000
0100
0001
0100
1000
0100
0010
0100
,
1000
0100
0010
0001
0100
0010
0000
0110
,
0000
0100
1000
0100
0001
0100
0010
0100
,
0001
0100
0010
1000
0100
0010
0000
0011
,
0000
0010
1000
0010
0001
0100
0010
1000
,
0001
0100
1000
0100
0001
1000
0000
1100
,
0000
0100
0001
0100
1000
0010
0100
0001
,
0010
0100
0001
0100
1000
0020
0100
2000
,
0000
0000
0000
0000
,
3030
0000
0000
0000
;

//--------------- dance-single - E1998 ----------------
#NOTES:
     dance-single:
     E1998:
     Hard:
     15:
     0,0,0,0,0:
0000
0000
0000
0000
,
0000
0000
0000
0000
,
0000
0000
0000
0000
,
0000
0000
0000
0000
,
2000
0000
0100
0000
0001
0000
3010
1000
,
0002
0000
0100
0000
1000
0000
0013
0001
,
2000
0000
0010
0000
0001
0000
3100
1000
,
0002
0000
0010
0000
1000
0000
0103
0001
,
0020
0000
0030
0000
,
2001
0000
0000
0000
0000
0000
3010
0200
,
0000
0000
0000
0000
,
0302
0000
0000
0000
0023
0000
0000
0230
,
0000
0010
2000
0000
,
3300
0000
0000
0000
,
1000
0010
1000
0000
0001
0010
0000
0100
,
1000
0000
0001
0000
0010
0000
0001
0000
0000
0000
0100
0001
0100
0000
0001
0000
,
1000
0000
0000
0100
1000
0000
0000
0000
0100
0000
0010
0000
0001
0000
2000
0000
,
0000
0000
3020
0000
0000
0000
0130
0000
0000
0000
0001
1000
0001
1000
0001
0000
,
1000
0000
0000
0010
1000
0000
0000
0000
0001
0000
0100
0000
0001
0000
0020
0000
,
0000
0230
0000
1300
0000
1020
0000
0130
,
0001
0000
0000
0010
0001
0000
0000
0000
1000
0000
0001
0000
0100
0000
0010
0000
,
0000
1010
0000
1100
0000
0021
0000
0000
,
0130
1000
0010
1000
0001
0010
0000
0100
,
1000
0000
0001
0000
0100
0000
0001
0000
0000
0000
0100
0010
0100
0010
0100
0000
,
0010
1000
0001
1000
0010
0100
0000
0001
,
1000
0000
0001
0000
0010
0000
0100
0000
0000
0000
0010
0100
0010
0100
0010
0000
,
0100
1000
0010
1000
0100
0010
0000
0100
,
1000
0001
0100
0001
0000
0021
0000
1030
,
0000
0010
0001
0100
0010
1000
0000
0100
,
0010
0000
0001
0000
0100
0000
1000
0000
0000
0000
0220
0000
0000
0330
0000
0000
,
2001
0000
3020
0000
,
0230
0000
0302
0000
,
0023
0000
0230
0000
,
2300
0000
0010
3001
,
1001
0000
0000
0000
0001
0000
0100
0000
0010
0000
0000
1000
0010
0000
0100
0000
,
0001
0000
0000
0000
1000
0000
0100
0000
0010
0000
0000
0001
0010
0000
0100
0000
,
2000
0000
3010
0100
0102
0000
0013
0100
,
1000
0000
1000
0000
0001
0000
0001
0000
1000
0010
1000
0000
0010
0100
0010
0100
,
0002
0000
0000
0000
,
0013
0100
1000
0100
0010
0100
1000
1010
,
0000
0010
0100
0001
0010
0100
2000
0000
,
3010
0100
0001
0100
0010
0100
0001
0011
,
0000
0110
0000
2100
0000
0010
3010
0000
,
0001
0100
0010
0100
0001
0100
0010
1010
,
0000
1000
0100
0010
0001
1000
0020
0000
,
1030
0100
0001
0100
0010
0001
0100
0101
,
0000
0011
0000
2100
0000
0010
3010
0000
,
0001
0100
0001
0000
1000
0100
1000
0000
0001
0100
0001
0000
0010
0000
0110
0000
,
0000
0000
0100
0000
1000
0000
0010
0000
0100
0000
0001
0000
0010
0000
0000
0100
,
0020
0000
0032
0000
0103
0010
0000
1010
,
0000
1100
0000
0102
0000
0010
0013
0000
,
1000
0100
1000
0000
0001
0100
0001
0000
1000
0100
1000
0000
0010
0000
0110
0000
,
0000
0100
0001
0010
0100
1000
0002
0000
,
1003
0100
1000
0000
0100
0010
0100
0000
0010
0001
0010
0000
0001
0000
1000
0000
,
0000
1001
0000
0220
0000
0000
0330
0000
,
1001
0000
0000
0000
0001
0000
0000
0100
0001
0000
0100
0000
0010
0000
0000
0000
,
1000
0000
0100
0000
0010
0000
0000
0100
1000
0000
0001
0000
0010
0000
0000
0000
,
1001
0000
0000
0000
1000
0000
0000
0010
1000
0000
0010
0000
0100
0000
0000
0000
,
0001
0000
0011
0000
0000
0000
1100
0000
0000
0000
0001
1000
0001
1000
0001
0000
,
0100
0000
0010
0000
1000
0000
0000
0010
0100
0000
0001
0000
1000
0000
1000
0000
,
0000
0000
0010
0000
0100
0000
1000
0000
0100
0001
0000
0000
1000
0000
0000
0000
,
0001
0000
0010
0000
0100
0000
0000
1000
0100
0000
0010
0000
0001
0000
1000
0000
,
0000
1010
0000
0202
0000
0000
0303
0000
,
0001
0000
0010
0000
0100
0010
0100
0000
1000
0000
0010
0000
0100
0010
0100
0000
,
0001
0000
0100
0000
0010
0100
0010
0000
1000
0000
0100
0000
0000
0000
0100
0000
,
0010
0000
0001
0000
1000
0100
1000
0000
0010
0000
1000
0000
0001
0100
0001
0000
,
0010
0000
0100
0000
1000
0001
1000
0000
0010
0000
0100
0000
0000
0000
0100
0000
,
0001
0000
0010
0000
0001
0100
0001
0000
1000
0000
0010
0000
1000
0100
1000
0000
,
0010
0000
0100
0000
0001
1000
0001
0000
0010
0000
0100
0000
0000
0000
0100
0000
,
1000
0010
1000
0000
0100
0000
0010
0000
0001
0100
0001
0000
0010
0000
0100
0000
,
1000
0100
1000
0000
0001
0010
0001
0000
0100
0000
0100
0000
0010
0000
2002
0000
,
0000
0000
0000
0000
,
3003
0000
0000
0000
;
