#TITLE:Alea jacta est!;
#SUBTITLE:;
#ARTIST:BlackY fused with WAiKURO;
#TITLETRANSLIT:;
#SUBTITLETRANSLIT:;
#ARTISTTRANSLIT:;
#GENRE:;
#CREDIT:;
#MUSIC:Alea jacta est!.ogg;
#BANNER:Alea jacta est!.png;
#BACKGROUND:Alea jacta est!-bg.png;
#CDTITLE:;
#SAMPLESTART:91.625;
#SAMPLELENGTH:15.000;
#SELECTABLE:YES;
#OFFSET:0.227;
#BPMS:0.000=162.000;
#STOPS:;
#BGCHANGES:2.000=Alea jacta est!.mp4=1.000=0=0=0=StretchNoLoop====,
99999.000=-nosongbg-=1.000=0=0=0=StretchNoLoop====
;
#FGCHANGES:;

//--------------- dance-single - Extraordiberry ----------------
#NOTES:
     dance-single:
     Extraordiberry:
     Beginner:
     3:
     0,0,0,0,0:
0000
0000
0000
0000
,
0000
0000
0000
0000
,
0000
0000
0000
0000
,
0000
0000
0000
0000
,
0000
0000
0000
0000
,
1000
0000
1000
0000
,
1000
0000
0000
0000
,
0001
0000
0001
0000
,
0001
0000
0000
0000
,
1000
0000
0000
0000
,
0100
0000
0000
0000
,
1000
0000
0000
0000
,
0100
0000
0000
0000
,
1000
0000
0000
0000
,
0010
0000
0000
0000
,
1000
0000
0000
0000
,
0010
0000
0000
0000
,
1000
0000
0000
0000
,
0100
0000
0000
0000
,
0010
0000
0000
0000
,
0001
0000
0000
0000
,
1000
0000
0000
0000
,
0010
0000
0000
0000
,
0100
0000
0000
0000
,
0001
0000
0000
0000
,
1001
0000
0000
0000
,
1000
0000
0000
0000
,
1001
0000
0000
0000
,
0001
0000
0000
0000
,
1001
0000
0000
0000
,
1001
0000
0000
0000
,
1000
0000
0000
0000
,
0001
0000
0000
0000
,
1000
0000
0000
0000
,
0010
0000
0000
0000
,
0100
0000
0010
0000
,
0100
0000
0000
0000
,
0001
0000
1000
0000
,
0001
0000
0000
0000
,
1000
0000
0001
0000
,
1000
0000
0000
0000
,
1000
0000
0000
0000
,
0100
0000
0000
0000
,
0010
0000
0000
0000
,
0001
0000
0000
0000
,
0100
0000
0100
0000
,
0010
0000
0010
0000
,
1000
0000
0000
0000
,
0000
1001
0000
0000
,
0000
0000
0000
0000
,
1000
0000
0000
0000
,
0000
0000
0000
0000
,
0001
0000
0000
0000
,
0100
0000
0000
0000
,
0010
0000
0000
0000
,
1000
0000
1000
0000
,
0001
0000
0001
0000
,
0010
0000
0010
0000
,
0100
0000
0100
0000
,
1000
0000
1000
0000
,
1001
0000
0000
0000
,
0000
0000
0000
0000
,
1000
1000
1000
0000
,
0100
0000
0000
0000
,
0010
0010
0010
0000
,
0001
0000
0000
0000
,
0001
0000
0000
0000
,
0100
0000
0000
0000
,
0010
0000
0000
0000
,
1000
0000
0000
0000
,
1000
1000
1000
0000
,
0100
0000
0000
0000
,
0010
0010
0010
0000
,
0001
0000
0000
0000
,
0001
0000
0000
0000
,
0100
0000
0000
0000
,
0010
0000
0000
0000
,
1001
0000
0000
0000
,
1000
0000
1000
0000
,
1000
0000
0000
0000
,
0001
0000
0001
0000
,
0001
0000
0000
0000
,
0100
0000
0100
0000
,
0100
0000
0000
0000
,
0010
0000
1000
0000
,
0100
0000
0010
0000
,
0001
0000
0000
0000
,
0000
1001
0000
0000
0000
0000
0000
0000
;

//--------------- dance-single - Extraordiberry ----------------
#NOTES:
     dance-single:
     Extraordiberry:
     Easy:
     8:
     0,0,0,0,0:
0000
0000
0000
0000
,
0000
0000
0000
0000
,
0000
0000
0000
0000
,
0000
0000
0000
0000
,
0000
0000
0000
0000
,
1001
0000
0110
0000
,
1001
0000
0110
0110
,
1001
0000
0110
0000
,
0002
1000
1000
1003
,
0001
0100
0010
0100
,
0001
0100
0010
0000
,
1000
0100
0010
0100
,
1000
0100
0010
0001
,
0001
0100
1000
0100
,
0001
0100
0010
0000
,
1000
0100
0001
0100
,
2000
0001
0001
3001
,
1001
1000
0010
0000
,
1001
0001
0010
0000
,
1001
1000
0010
1000
,
1001
0000
0001
0000
0010
0100
0000
0000
,
1000
1000
0010
0010
,
0100
0100
0001
0001
,
1000
0000
0001
0000
1000
0001
1000
0000
,
2002
0000
0000
3003
,
1001
0000
0000
0000
,
0110
0000
0000
0000
,
1001
0000
0000
0000
,
0110
0000
0000
0000
,
1001
0000
0110
0000
,
1001
1001
0110
0000
,
1000
0100
1100
0000
,
0002
0000
0103
0000
,
0001
0100
0001
1000
,
0010
1000
0100
0010
,
0001
0001
0100
0100
,
0010
1000
0100
0010
,
0001
0001
1000
1000
,
0010
0010
0100
0010
,
0110
0000
1000
0001
,
1001
0000
0001
0100
,
0010
1000
1000
0100
,
0010
0001
0100
1000
,
0100
0001
1000
0100
,
0001
0100
1000
0001
,
1001
1000
1001
0010
,
0110
0100
0110
1001
,
1000
0000
0100
0000
0010
0000
0001
0010
,
0000
2002
0000
3003
,
1000
0000
0010
0000
,
0100
0000
0001
0000
,
1000
1000
1000
0000
,
0001
0001
0001
0000
,
1001
0000
0110
0000
,
1001
1001
0110
0000
,
1000
0100
0010
0001
,
0010
0100
1000
0001
,
0100
0000
0110
0000
,
0010
0000
1001
0000
,
1000
0001
1000
0100
,
0020
0000
0000
0000
,
0030
0001
1000
0001
,
1000
0100
0001
0100
,
0010
0001
0010
0000
0001
0000
0100
0000
,
0001
0100
1000
0100
,
0010
1000
0010
0000
1000
0000
1001
0000
,
0001
0100
0110
0000
,
1000
0100
0110
0000
,
0001
0100
0010
1000
,
1010
0000
1001
0000
,
1000
0010
0001
0010
,
1000
0001
1000
0000
0001
0000
1000
0000
,
0001
0010
1000
0010
,
0001
1000
0001
0000
1000
0000
0110
0000
,
1001
0000
0110
0000
,
1001
1001
0110
0000
,
1000
1000
0010
0010
,
0100
0001
0010
0100
,
1001
0000
0110
0000
,
1001
0000
0110
0110
,
1001
0000
0110
0000
,
2000
0010
0010
3010
,
1010
0000
0101
0000
,
1100
0000
0011
0011
,
0001
0100
0010
1000
,
0020
0000
0100
0130
,
0001
0010
0100
1000
,
0000
2002
0000
0000
0000
0000
0000
0000
,
0000
0000
0000
0000
,
3003
0000
0000
0000
;

//--------------- dance-single - Extraordiberry ----------------
#NOTES:
     dance-single:
     Extraordiberry:
     Medium:
     13:
     0,0,0,0,0:
0000
0000
0000
0000
,
0000
0000
0000
0000
,
0000
0000
0000
0000
,
0000
0000
0000
0000
,
0000
0000
0000
0000
,
1000
0100
0000
1000
0000
0000
0001
0000
0001
0100
0000
0001
0000
0000
1000
0000
,
1000
0100
0000
1000
0000
0000
0100
0000
0010
0000
0010
0000
0001
0000
0100
0000
,
0010
1000
0000
1000
0000
0000
0001
0000
0010
0001
0000
0001
0000
0000
0001
0000
,
2000
0100
0001
3010
,
1000
0100
0010
0100
0000
1000
1000
0100
,
0010
0100
0000
1000
1000
0100
0010
0001
,
0001
0100
0010
0100
0000
0001
0001
0100
,
0010
0100
0000
0001
0100
1000
0100
0001
,
1000
0100
0020
0100
0000
0031
1000
0100
,
0020
0100
0000
0031
1000
0010
1000
1000
,
0001
0100
0020
0100
0000
1030
0001
0100
,
0020
0000
0000
0100
0000
0000
0130
0000
0001
0000
0010
0000
1000
0000
0010
0000
,
0001
0000
0010
0000
0100
0000
0000
0000
1000
0000
0000
0100
0000
0100
0010
0000
,
0001
0000
0100
0000
0010
0000
0000
0000
0010
0000
1000
0010
0000
0010
0100
0000
,
0001
0000
1000
0000
0100
0000
0000
0000
0010
0000
0000
0100
0000
0100
1000
0000
,
0001
0000
0100
0010
0000
0010
1000
0000
0001
0000
1001
0000
0000
0000
1000
0000
,
0100
0000
0000
0010
0000
0010
0001
0000
0100
0000
0000
0010
0000
0010
1000
0000
,
0100
0000
0010
0001
0000
0001
1000
0000
0010
0000
0100
0001
0000
0001
1000
0000
,
0100
0000
0100
0000
0010
0000
0010
0000
0001
1000
0001
0000
1000
0001
1000
0000
,
0002
0000
0000
0003
,
1010
0000
0000
1000
0000
0000
0000
0000
0000
0000
0000
0000
0000
0000
0000
0000
,
0011
0000
0000
0001
0000
0000
0000
0000
0000
0000
0000
0000
0000
0000
0000
0000
,
1100
0000
0000
1000
0000
0000
0000
0000
0000
0000
0000
0000
0000
0000
0000
0000
,
0101
0000
0000
0001
0000
0000
0100
0000
0001
0000
0000
0000
1000
0000
1000
0000
,
1001
0000
0000
0001
0000
0000
0000
0000
0110
0000
0000
0010
0000
0000
0000
0000
,
1001
0000
0000
0000
0110
0000
0000
0000
1001
0000
0000
1000
0000
0000
0001
0000
,
0000
0000
0100
0000
0110
0000
0000
1000
0000
0100
0000
0000
0010
0001
0010
0000
,
0001
0001
0001
0001
0020
0000
0032
0000
,
1003
0100
0001
0100
1000
0001
0100
0100
,
0001
0000
0100
0000
1000
0000
0100
0000
0001
0000
1000
0100
0000
0000
0100
0000
,
0010
0001
0000
0001
0010
0000
0100
0000
1000
0100
0000
0100
1000
0000
0001
0000
,
0100
0010
1000
0001
0010
0100
1000
0001
,
0100
0000
0010
1000
0000
1000
0010
0000
1000
0000
0001
0010
0000
0010
0001
0000
,
1000
0000
0100
0000
0000
0010
0000
0000
1000
0000
0010
0000
0001
0000
0100
0000
,
0020
0000
0000
0000
0000
0000
0000
0000
0100
0000
0000
2030
0000
0000
3001
0000
,
0020
0000
0000
0000
0000
0000
0000
0000
0100
0000
0000
0032
0000
0000
1003
0000
,
0010
0000
1000
0000
0001
0000
1000
0000
0100
0000
0010
0001
0000
0001
0010
0000
,
0010
0000
0001
0000
1000
0000
0001
0000
0100
0000
0010
1000
0000
1000
0010
0000
,
0010
0000
0000
1000
0000
0000
0100
0000
1000
0000
0010
0000
0001
0000
0010
0000
,
1000
0001
0001
0000
0011
0000
1100
0000
,
0001
0100
0010
1000
0001
0100
0010
1000
,
0001
0010
0100
1000
0001
0010
0100
1000
,
0001
0001
0100
0100
0010
0010
1000
1000
,
0000
2002
0000
3003
,
1000
0000
0000
0000
0100
0000
0000
0000
1000
0000
0000
0001
0000
0000
0001
0000
,
0000
0000
0100
0000
0100
0000
0000
0000
0010
0000
0000
1000
0000
0000
1000
0000
,
0001
0000
0000
0000
0010
0000
0000
0000
0001
0000
0000
0100
0000
0000
0100
0000
,
0000
0000
1000
0000
1000
0000
0000
0000
0100
0000
0000
0001
0000
0000
0001
0000
,
0011
0000
0000
0001
0000
0000
1000
0000
1001
0000
0000
1000
0000
0000
0010
0000
,
1000
0000
0010
0000
1010
0000
0000
0000
0101
0000
0000
0001
0000
0000
1000
0000
,
0001
0010
0100
1000
0100
0010
0001
1000
,
0010
0100
0001
0100
0010
1000
0010
0010
,
1000
0000
0000
1010
0000
0000
1000
0000
0001
0000
0000
1001
0000
0000
0001
0000
,
0010
0000
0000
0011
0000
0000
0010
0000
0100
0000
0000
0110
0000
0000
0100
0000
,
0010
0000
0001
0000
0010
0000
0100
0000
1000
0100
1000
0000
0001
0010
0001
0000
,
2002
0000
0000
0000
,
3003
0001
0100
0010
,
1000
0000
0100
0010
0000
0010
0001
0000
0010
0000
0001
0000
0100
0000
0200
0000
,
0000
0010
0310
1000
0100
0001
0100
1000
,
0001
0000
0100
0010
0000
0010
1000
0000
0010
0000
1000
0000
0100
0000
0200
0000
,
0000
0010
0310
0001
0100
1000
0001
0010
,
1000
0000
0000
0100
0000
0000
1000
0100
1000
0000
0100
0000
0020
0000
0001
0000
,
0000
0000
0130
0000
0010
0000
0001
0000
0200
0000
0000
1000
0000
0000
0310
0000
,
1000
0000
0000
1000
0000
0000
0001
0000
0010
0000
0000
0010
0000
0000
0001
0000
,
0100
0000
0100
0000
0010
0000
0010
0000
1000
0001
1000
0000
0001
1000
0001
0000
,
1000
0000
0100
0010
0000
0010
0001
0000
1000
0000
0010
1000
0010
0000
0200
0000
,
0000
0000
0001
0000
0301
0000
1000
0000
0100
0000
0001
0000
0100
0000
1000
0001
,
1000
0000
0001
0100
0000
0100
0010
0000
1000
0000
0100
1000
0100
0000
0020
0000
,
0000
0000
0001
0000
0031
0000
1000
0001
1000
0000
0010
0100
0010
0100
0010
0000
,
2000
0000
0000
3100
0010
0001
0010
0100
,
1000
0000
0001
0000
0100
0000
0010
0000
1000
0000
0000
0001
0000
0000
0010
0100
,
0010
0000
0100
0000
0010
0000
0001
0000
1000
0001
1000
0000
0001
1000
0001
0000
,
1001
0000
0000
1000
0000
0000
0110
0000
0000
0010
0000
0000
1002
0000
0000
0000
,
1003
0100
0000
0100
0000
0000
1000
0000
0001
0100
0000
0100
0000
0000
0001
0000
,
1000
0100
0000
0100
0000
0000
1000
0000
0001
0000
0100
0000
1000
0000
0100
0000
,
0001
0100
0000
0100
0000
0000
0010
0000
1000
0100
0000
0100
0000
0000
0010
0000
,
0002
0000
0000
0000
1000
0000
0000
0000
0023
0000
0000
1000
0000
0000
0130
0000
,
0010
0001
0000
0100
0000
0000
0100
0000
0010
1000
0000
0100
0000
0000
0100
0000
,
0010
0001
0000
0100
0000
0100
0010
0000
1000
0000
0100
0000
0001
0000
0100
0000
,
1000
0010
0100
0001
1000
0100
0010
0001
,
2000
0100
0001
3010
,
1000
0100
0000
0010
0000
0001
0000
0010
0000
0100
0000
1000
0001
1000
0001
0000
,
0000
2002
0000
0000
0000
0000
0000
0000
,
0000
0000
0000
0000
,
3003
0000
0000
0000
;

//--------------- dance-single - Extraordiberry ----------------
#NOTES:
     dance-single:
     Extraordiberry:
     Hard:
     16:
     0,0,0,0,0:
0000
0000
0000
0000
,
0000
0000
0000
0000
,
0000
0000
0000
0000
,
0000
0000
0000
0000
,
0000
0000
0000
0000
,
0001
1000
0000
0010
0000
0000
1001
0000
1000
0001
0000
0010
0000
0000
1001
0000
,
0001
1000
0000
0010
0000
0000
1000
0000
0100
0000
0001
0000
0100
0000
1000
0000
,
0001
0100
0000
0010
0000
0000
1010
0000
1000
0100
0000
0010
0000
0000
0011
0000
,
2000
0100
0001
3010
,
1000
0001
0000
0100
0000
1000
0000
0100
0000
0001
0000
0001
1000
0001
0000
0100
,
0000
1000
0000
0100
0000
0001
0000
0001
1000
0100
1000
0100
1000
0000
0001
0000
,
0001
0010
0000
0100
0000
0001
0000
0100
0000
1000
0000
1000
0001
0010
0000
0100
,
0000
0001
0000
0100
0000
1000
0000
1000
0010
0100
0001
0000
0010
0001
1000
0000
,
1000
0010
0100
0010
0000
0100
0000
0001
0000
0010
0000
0001
1000
0010
0100
0010
,
0000
0100
0000
0001
0000
0010
0000
0001
1000
0010
0100
0010
0100
0000
0001
0000
,
0001
0010
0100
0010
0000
0100
0000
1000
0000
0010
0000
1000
0001
0010
0100
0010
,
0002
0000
0000
0010
0000
0000
1003
0000
0001
0100
0010
1000
0001
0100
0010
1000
,
0001
0000
1000
0000
0100
0010
0001
0000
0010
0000
0100
1000
0000
1000
0001
0000
,
1000
0000
0001
0000
0100
0010
1000
0000
0010
0000
0100
0001
0000
0001
1000
0001
,
0010
0000
0001
0000
1000
0100
0010
0000
0001
0000
1000
0100
0000
0100
0010
0000
,
0001
0000
0100
0010
0000
0010
1000
0000
2010
0000
0001
0000
0000
0000
3100
0000
,
1000
0100
0000
0010
0000
0100
1000
0000
0001
0100
0000
0010
0000
0100
0001
0000
,
1000
0100
0000
0001
0000
0100
1000
0000
0001
0100
0000
1000
0000
0100
0001
0000
,
1000
0000
1000
0000
0100
0000
0100
0000
0010
0001
0010
0001
1000
0001
1000
0001
,
0200
1000
0010
0301
,
0012
0000
0000
1003
0000
0000
0000
0000
0000
0000
0000
0000
0000
0000
0000
0000
,
2010
0000
0000
3001
0000
0000
0000
0000
0000
0000
0000
0000
0000
0000
0000
0000
,
0102
0000
0000
1003
0000
0000
0000
0000
0000
0000
0000
0000
0000
0000
0000
0000
,
2100
0000
0000
0001
0000
0000
3100
0000
0000
0000
0100
0000
0110
0000
0000
0000
,
2001
0000
0000
3010
1000
0000
0000
0000
1002
0000
0000
0013
0001
0000
0000
0000
,
0021
0000
0000
0130
0010
0000
0000
0000
1100
0000
0000
0011
0000
0000
1001
0000
,
0000
0000
2010
0000
0010
0000
0000
0001
0000
3001
0000
0000
1000
0100
0010
0001
,
1000
0010
1000
0010
1000
0010
1000
0001
0020
0000
0000
0000
0032
0000
0000
0000
,
1003
0100
0010
0100
1000
1000
0001
0100
,
0010
0000
1000
0000
0010
0000
0100
0000
0001
0000
0001
0010
0000
0010
0001
0000
,
0001
0100
0010
0000
0001
0100
0010
0000
1000
0010
0100
0000
0010
0100
0010
0000
,
1000
0100
0010
0001
0010
0000
0001
0010
0100
0000
1000
0001
0000
0001
0100
0000
,
0001
0000
0010
0100
0000
0100
1000
0000
0001
0000
0010
0100
0000
1000
0001
0100
,
0010
0000
0000
0000
0000
0000
1000
0000
0000
0010
0000
0000
0000
0000
0000
0010
0000
0000
0100
0000
0000
0000
0000
0000
0001
0000
0000
0000
0000
0000
1000
0000
0000
0000
0000
0000
0001
0000
1000
0000
0001
0000
1000
0000
0000
0000
0000
0000
,
0001
0000
1000
0000
0200
0000
0000
0000
1000
0000
0000
0010
0000
0000
0301
0000
,
0200
0000
0000
0000
0000
0000
0000
0000
1000
0000
0000
0010
0000
0000
0301
0000
,
0100
0010
0100
0000
1000
0000
0100
1000
0001
0000
1000
0010
0000
0010
0100
0000
,
0001
0100
0001
0000
0100
0000
0010
1000
0100
0000
0010
0001
0000
1000
0001
0010
,
0100
0000
1000
0100
0000
1000
0010
0100
0001
0000
0100
0000
1000
0000
0100
0000
,
0001
0000
0012
0000
0010
0000
0000
0000
1003
0001
1000
0010
0000
0010
0100
0000
,
0001
0010
0100
0000
1000
0100
0010
0000
0001
0100
0010
0000
1000
0010
0100
0000
,
0001
1000
0100
0000
1000
0001
0010
0000
0001
1000
0010
0000
1000
0001
0100
0000
,
0001
0010
0100
1000
0100
0010
0001
0010
0100
1000
0100
0010
0001
1000
0010
0100
,
0000
2002
0000
3003
,
1000
0000
0000
0000
1200
0000
0000
0000
0310
0000
0000
0001
0000
0000
0100
0000
,
0000
0000
0001
0000
0201
0000
0000
0000
0310
0000
0000
1000
0000
0000
0100
0000
,
0100
0010
0001
0100
0100
0010
1000
0000
,
0001
0020
1000
0000
0031
0020
1000
0000
,
0031
0000
0000
0100
0000
0000
0101
0000
0001
0000
0000
1000
0000
0000
1100
0000
,
1000
0000
0001
0000
1001
0000
0000
1000
0000
0100
0000
0001
0000
0000
0100
0000
,
1000
0001
0000
0100
0010
0000
0100
1000
0000
0100
0010
0000
1000
0001
0000
0010
,
0100
0000
0001
0100
0000
0010
0100
0000
1000
0001
0010
0000
0001
1000
0010
0000
,
1010
0000
0000
1000
0000
0000
0001
0000
0011
0000
0000
0001
0000
0000
0100
0000
,
0101
0000
0000
0001
0000
0000
1000
0000
1100
0000
0100
0000
0100
0000
0010
0000
,
0001
0100
0001
0000
1000
0010
1000
0000
0001
0010
0001
0010
0100
1000
0100
1000
,
0002
0000
0000
0000
,
0003
0001
0100
0010
,
1000
0000
0000
0000
0000
0000
1000
0000
0000
0100
0000
0000
0000
0000
0000
0100
0000
0000
0010
0000
0000
0000
0000
0000
0001
0000
0000
0000
0000
0000
1000
0000
0001
0000
1000
0000
0100
0000
0000
0000
0000
0000
2000
0000
0000
0000
0000
0000
,
0000
0000
3010
0000
1020
0000
0000
0000
1030
0000
0010
0000
0100
0000
0001
1000
,
0001
0000
0000
0000
0000
0000
0001
0000
0000
0100
0000
0000
0000
0000
0000
0100
0000
0000
0010
0000
0000
0000
0000
0000
1000
0000
0000
0000
0000
0000
0001
0000
1000
0000
0001
0000
0100
0000
0000
0000
0000
0000
0002
0000
0000
0000
0000
0000
,
0000
0000
0013
0000
0021
0000
0000
0000
0031
0000
0010
0000
0100
1000
0010
0000
,
1000
0000
0001
0100
0000
0100
0010
1000
0001
0000
0010
0000
0100
0000
0002
0000
,
0000
0000
0103
0000
1000
0000
0001
0000
0200
0000
0000
0000
1300
0000
0100
0001
,
2000
0000
0000
0010
0000
0000
0001
0000
3002
0000
0000
0000
0023
0000
0000
0000
,
0031
0000
0001
0000
1000
0000
1000
0010
0100
0001
0100
0010
1000
0001
0100
0010
,
1000
0000
0000
0000
0000
0000
1000
0000
0000
0001
0000
0000
0000
0000
0000
0001
0000
0000
0010
0000
0000
0100
0000
0000
0010
0000
0000
0000
0000
0000
0100
0000
0010
0000
0100
0000
1000
0000
0000
0000
0000
0000
0001
0000
0000
0000
0000
0000
,
0100
0000
0001
0000
0012
0000
0000
0000
1003
0000
0001
0010
0000
0100
1000
0001
,
0100
0000
0100
0010
0000
0010
1000
0001
0010
0000
0000
0110
0000
0000
1100
0000
,
0000
0000
1001
0000
1010
0000
1000
0010
0100
0000
1000
0010
1000
0001
1000
0100
,
2000
0000
0000
0000
0000
0000
3001
1000
0001
0010
0100
1000
0100
0010
0001
0000
,
1000
0010
0100
0001
0100
0010
1000
0010
0100
0000
0010
0100
0000
0100
0001
1000
,
0100
0000
0100
0000
0010
0000
0010
0000
0001
1000
0001
1000
0010
0100
0010
0100
,
0001
0000
0000
1100
0000
0000
0101
0000
0000
1010
0000
0000
0012
0000
0000
0000
,
1003
0001
1000
0100
0000
0000
1001
0000
0001
1000
0001
0100
0000
0000
1001
0000
,
1000
0001
1000
0100
0000
0010
0001
1000
0001
0000
0100
0000
1000
0000
0100
0000
,
0001
0100
0010
0100
0000
0000
1010
0000
1000
0100
0010
0100
0000
0000
0012
0000
,
1000
0000
0000
0000
0203
0000
0000
0000
0320
0000
0000
0001
0000
0000
0130
0000
,
0010
1000
0100
0010
0000
0000
0110
0000
0010
0001
0100
0010
0000
0000
0110
0000
,
0010
1000
0100
0010
0000
0100
0010
0001
1000
0000
0100
0000
0001
0000
0100
0000
,
1000
0010
0100
0001
1000
0010
0100
0001
1000
0100
0010
0001
0010
0100
1000
0001
,
0020
0000
1000
0000
0032
0000
0100
0103
,
0010
1000
0000
0100
0000
0010
0000
0001
0000
0100
0000
0010
1000
0100
0010
0001
,
0000
2002
0000
0000
0000
0000
0000
0000
,
0000
0000
0000
0000
,
3003
0000
0000
0000
;
