#TITLE:Airbrushed;
#SUBTITLE:;
#ARTIST:Anamanaguchi;
#TITLETRANSLIT:;
#SUBTITLETRANSLIT:;
#ARTISTTRANSLIT:;
#GENRE:;
#CREDIT:;
#MUSIC:Airbrushed.ogg;
#BANNER:Airbrushed.png;
#BACKGROUND:Airbrushed-bg.png;
#CDTITLE:;
#SAMPLESTART:66.880;
#SAMPLELENGTH:11.840;
#SELECTABLE:YES;
#OFFSET:0.000;
#BPMS:0.000=187.500;
#STOPS:;
#BGCHANGES:;
#FGCHANGES:;

//--------------- dance-single - OrangeRight ----------------
#NOTES:
     dance-single:
     OrangeRight:
     Beginner:
     5:
     0,0,0,0,0:
0000
0000
0000
0000
,
2000
0000
0000
0000
,
3000
0000
1000
0000
,
0001
0000
0100
0000
,
0010
0000
1000
0000
,
0002
0000
0000
0000
,
0003
0000
0001
0000
,
1000
0000
0100
0000
,
0010
0000
0001
0000
,
1000
0000
1000
0000
,
0001
0000
1000
0000
,
0100
0000
0010
0000
,
0001
0000
0100
0000
,
0001
0000
0001
0000
,
1000
0000
0001
0000
,
0010
0000
0100
0000
,
0010
0000
0100
0000
,
1000
0000
1000
0000
,
1000
0000
1000
0000
,
1000
1000
1000
1000
,
2000
3000
0002
0003
,
1000
0000
0001
0000
,
1000
0000
0100
1000
,
0100
0000
0000
0000
,
1000
0000
1000
0000
,
0001
0000
1000
0000
,
0001
0000
0100
0001
,
0100
0000
0000
0000
,
0001
0000
0001
0000
,
1000
0000
0100
0000
,
1000
0000
0001
1000
,
0001
0000
0010
0000
,
0100
0000
1000
0000
,
0002
0003
2000
3000
,
0002
0003
2000
3000
,
0020
0030
0200
0300
,
2002
0000
3003
0000
,
1000
0000
1000
0000
,
0100
0000
0010
0000
,
0001
0000
1000
0000
,
1000
0000
0001
0000
,
0001
0000
0001
0000
,
0100
0000
0010
0000
,
1000
0000
0001
0000
,
0001
0000
1000
0000
,
0001
0000
0001
0000
,
1000
0000
0010
0000
,
0100
0000
0001
0000
,
1000
0000
0100
0000
,
1000
0000
1000
0000
,
1000
0000
1000
0000
,
1000
1000
1000
1000
,
2000
0000
3000
0000
,
1000
0000
0001
0000
,
0100
0000
0002
0003
,
1000
0000
0001
0000
,
0010
0000
0100
0100
,
1000
0000
0001
0000
,
0010
0000
0002
0003
,
1000
0000
0001
0000
,
1000
0000
0001
1000
,
0001
0000
1000
0000
,
0100
0000
0010
0000
,
0001
0000
0100
0000
,
0001
1000
0001
0000
,
1000
1000
1000
1000
,
0001
0001
0001
0001
,
1000
0001
1000
0001
,
0100
0010
0100
0010
,
1000
0000
0100
0000
,
1000
0000
0001
0000
,
1000
0000
0010
0000
,
1000
0001
0001
1000
,
0001
0000
0100
0000
,
0001
0000
0010
0000
,
0001
1000
0001
1000
,
2002
0000
3003
0000
,
2000
0000
0000
0000
,
3000
0000
1000
0000
,
0001
0000
0010
0000
,
0001
1000
0001
0000
,
0002
0000
0000
0000
,
0003
0000
0001
0000
,
1000
0000
0100
0000
,
1000
0001
1000
0000
,
0100
0000
0100
0000
,
0010
0000
0100
0000
,
1000
0000
0001
0000
,
0001
0000
1000
0000
,
0010
0010
0100
0100
,
0001
0001
1000
1000
,
0100
0000
1000
0000
,
0001
1000
0001
1000
,
0001
0000
1000
0000
;

//--------------- dance-single - OrangeRight ----------------
#NOTES:
     dance-single:
     OrangeRight:
     Easy:
     7:
     0,0,0,0,0:
0000
0000
0000
0000
,
2000
0000
0001
0000
,
3001
0000
1000
0001
,
0100
0000
0001
0010
,
0001
0100
0001
1000
,
0002
0000
1000
0000
,
1003
0000
0001
1000
,
0100
0000
1000
0001
,
0100
0010
1000
0100
,
1000
0001
1000
0001
,
0010
0100
1000
0001
,
0100
0001
0010
0100
,
0100
1000
0010
0100
,
0001
1000
0001
1000
,
0100
0010
0001
1000
,
0010
1000
0100
0010
,
0010
0100
1000
0001
,
1000
1000
1000
1000
,
0001
0001
0001
0001
,
1000
0001
1000
0001
,
2000
3000
0002
0003
,
1000
0000
0001
1000
,
0100
0000
0010
0001
,
1000
0000
1000
0000
,
0001
0000
0001
0000
,
1000
0000
0001
1000
,
0010
0000
0010
0100
,
0001
0000
0010
0000
,
0100
0000
1000
0000
,
0001
0000
1000
0100
,
1000
0000
0001
1000
,
0001
0000
0100
0001
,
0100
0000
0001
0000
,
1000
1000
0001
0001
,
0100
0100
0010
0010
,
1000
0001
1000
0001
,
2002
0000
3003
0000
,
1000
0100
1000
0010
,
0100
0001
0010
0100
,
1000
0001
1000
0000
,
0002
0003
2000
3000
,
0001
0100
0001
0010
,
0100
1000
0010
0100
,
0001
1000
0001
0000
,
2000
3000
0001
0001
,
1000
0100
1000
0010
,
0001
0010
1000
0100
,
0010
0001
1000
0000
,
2000
3000
0002
0003
,
1000
1000
1000
1000
,
0001
0001
0001
0001
,
1000
0001
1000
0001
,
2000
0001
0001
3001
,
1000
0100
0001
0100
,
1000
0001
0100
0100
,
0001
0010
1000
0010
,
0001
1000
0010
0010
,
1000
0100
0001
0100
,
1000
0010
0100
0100
,
0001
0100
1000
0100
,
0001
0010
0100
1000
,
0002
0000
1000
0000
,
1003
0000
0001
0100
,
0010
1000
0100
1000
,
0010
0100
0001
0000
,
1000
1000
0001
0001
,
0100
0100
0010
0010
,
1000
0100
1000
0010
,
0100
0001
0010
0001
,
1000
1000
0001
0001
,
1000
1000
0001
0001
,
0100
0100
0010
0010
,
1000
0001
0001
1000
,
0001
0001
0010
0010
,
0100
0100
1000
1000
,
0001
1000
0001
1000
,
2002
0000
3003
0000
,
2000
0000
0100
0000
,
3001
1000
0001
0100
,
0010
0000
0100
0001
,
0100
0010
2000
3000
,
0002
0000
0010
0000
,
1003
0001
0010
0100
,
1000
0000
0010
0100
,
0001
1000
0002
0003
,
1000
0100
1000
0100
,
0010
0001
1000
0100
,
1000
0001
0100
0010
,
0010
0100
0001
1000
,
0100
0100
0010
0010
,
0001
0001
1000
1000
,
0010
0100
0001
1000
,
1001
1001
1001
0000
,
1000
0000
1000
0000
1000
0000
0002
0000
0000
0000
0000
0000
,
0003
0000
0000
0000
;

//--------------- dance-single - OrangeRight ----------------
#NOTES:
     dance-single:
     OrangeRight:
     Medium:
     10:
     0,0,0,0,0:
0000
0000
0000
0000
,
1000
0001
1000
0000
0100
0000
0010
0000
,
0001
0000
0100
0000
0010
1000
0000
0002
,
0000
1003
2000
3100
,
0200
0310
0020
0031
,
0001
1000
0001
0000
0100
0000
0010
0000
,
1000
0000
0100
0000
0010
0001
0000
2000
,
0000
3001
0002
0013
,
0020
0130
0200
1300
,
0000
1000
0010
1000
0000
1000
0010
1000
,
0001
0010
0100
1000
,
0000
0001
0010
0001
0000
0001
0100
0001
,
1000
0100
0010
0001
,
0000
1000
0010
1000
0000
0001
0010
0001
,
0000
1000
0100
1000
0000
0001
0100
0001
,
0000
1000
0100
0010
0000
0100
0010
0001
,
0000
0001
1000
0001
0000
1000
0001
0000
,
2001
0001
0001
0001
,
0001
0001
0001
3001
,
2000
3002
2003
3002
,
0203
0010
0320
1000
,
1030
0100
0010
0010
,
0001
0000
0100
0000
0010
0000
1000
0001
,
0000
0001
1000
0000
0100
0000
0010
0000
,
0001
0100
0010
1000
,
0001
0010
0010
0001
,
2000
0010
3002
0100
,
1003
0100
0010
0001
,
1000
0000
0010
0100
0010
0000
1000
0000
,
0001
0010
0010
0001
,
1000
0001
1000
0000
0010
0000
0010
0100
,
0000
0100
0010
0000
1000
0000
0001
0000
,
0010
0100
1000
0001
,
2001
0100
3002
0100
,
2003
0010
3002
0010
,
0203
0010
0302
1003
,
2002
0000
0000
3003
,
1000
0100
1000
0000
0010
0000
0100
0000
,
0001
0010
0001
0000
1000
0001
1000
0001
,
0000
0001
0100
0000
0010
0000
1000
0000
,
0002
0000
0000
2003
0000
0000
3001
0000
,
0001
0010
0001
0000
0100
0000
0010
0000
,
1000
0100
1000
0000
0001
0100
0001
0100
,
0000
0100
0010
0000
1000
0000
0100
0000
,
1000
0001
0000
1002
0000
0000
0103
0000
,
0001
0100
0010
0000
1000
0000
0100
0000
,
0010
0001
1000
0000
0010
0100
0010
0100
,
0000
0100
0001
0000
0010
0000
0100
0000
,
2000
0000
0000
3002
0000
0000
1003
0000
,
1001
1001
1001
1001
,
0101
0101
0101
0101
,
0110
0000
0110
0000
1010
0000
1000
0002
,
0000
1000
1000
1003
,
1000
0010
0000
1000
0001
0000
1000
0100
,
0000
0010
0000
0010
0001
0000
2000
0000
,
3001
0010
0000
0001
1000
0000
0001
0100
,
0000
0100
0000
0010
2000
0000
3002
0000
,
1003
0100
0000
1000
0001
0000
1000
0010
,
0000
0100
0000
0001
1000
0000
0002
0000
,
1003
0001
0000
0001
0100
0000
0100
0010
,
0000
0010
0000
1000
0002
0000
2003
0000
,
3001
0100
1000
0100
,
0001
0000
0010
0000
0100
1000
0000
1000
,
0000
0001
0100
0000
0010
0000
0100
0000
,
0001
0000
0010
0000
0100
1000
0100
0000
,
1000
0010
0001
0010
,
1000
0100
0001
0100
,
2000
3020
0230
0302
,
0013
0010
0100
0100
1000
0001
1000
0001
,
0000
1000
0100
1000
0000
1000
0001
1000
,
0000
1000
0010
1000
0000
1000
0001
1000
,
0001
0100
0010
1000
,
0100
1000
0100
0000
0010
0000
0001
0000
,
0000
0001
0100
0001
0000
0001
1000
0001
,
0000
0001
0010
0001
0000
0001
1000
0001
,
1000
0000
0100
0000
0010
0000
0002
2000
,
0000
0000
3003
1001
,
0001
1000
0001
0000
0100
0000
0010
0000
,
1000
0000
0100
0000
0010
0001
0000
0002
,
0000
1003
2000
0010
,
3002
0100
2003
3001
,
1000
0001
1000
0000
0010
0000
0100
0000
,
0001
0010
0001
0000
0100
0000
0010
2000
,
0000
0000
3001
0000
1000
0010
0000
0100
,
0000
0001
1000
0000
0100
0000
1000
0000
,
0000
1000
0010
1000
0000
1000
0001
1000
,
0000
1000
0100
1000
0000
0100
0010
0100
,
0000
0010
0001
0010
0000
0001
0100
0001
,
0000
0100
0010
0100
0000
0010
1000
0010
,
2000
0100
3002
0100
,
2003
0000
0010
0000
3001
0010
0100
2000
,
0000
0100
0000
3001
,
1001
0000
1001
0000
1000
0001
1000
0000
,
0001
0000
0100
0000
0010
0000
2000
0000
0000
0000
0000
0000
,
3000
0000
0000
0000
;

//--------------- dance-single - OrangeRight ----------------
#NOTES:
     dance-single:
     OrangeRight:
     Hard:
     13:
     0,0,0,0,0:
0000
0000
0000
0000
,
1000
0002
0010
0000
1000
0000
0100
0000
,
1000
0000
0010
0000
0103
0001
1000
0200
,
0000
1000
0320
0001
,
0230
0001
0320
1000
,
0031
2000
0010
0000
0001
0000
0100
0000
,
0001
0000
0010
0000
3100
1000
0001
0200
,
0000
0001
0320
1000
,
0230
1000
0320
0001
,
1030
0010
1000
0010
0000
1000
0100
1000
,
0000
0010
0100
0010
0000
1000
0010
1000
,
0000
0001
0010
0100
0000
1000
0010
0100
,
0000
0001
1000
0100
0010
0001
1000
0001
,
0000
0001
0100
0001
0000
0010
0001
0010
,
0000
0100
0010
0100
0000
1000
0100
1000
,
0000
0001
1000
0010
0M00
0010
0001
1000
,
0000
0001
1000
0010
0100
0001
1000
0000
,
1002
0100
0100
1003
,
2001
0010
0010
3001
,
1000
0001
1000
0001
1000
0001
1000
0001
,
0010
0010
0100
0100
1000
1000
0001
0001
,
1000
0000
0100
0000
0010
0001
0020
0000
,
0032
0000
0203
0000
0320
0000
1030
0002
,
0000
0010
0013
0000
0001
1000
0010
0100
,
0000
0010
0100
0001
1000
0100
1000
0000
,
0001
0000
0010
0100
0020
0000
0031
0100
,
0020
0000
1030
0100
0020
0000
0031
2000
,
0000
0001
3001
0000
1000
0100
0010
0002
,
0000
0100
0103
0010
1000
0001
1000
0000
,
0001
0100
0001
0010
0100
1000
0010
1000
,
0100
0010
0002
0000
0203
0000
0310
2000
,
0000
0001
3001
0000
0001
1000
0001
0020
,
0000
0031
0001
0100
0000
0010
1000
0000
,
2001
3100
1200
0310
,
0012
0000
0103
0000
0120
0000
1030
0200
,
0000
0010
0310
0000
0012
0000
1003
1001
,
0000
1000
0001
0001
0100
0100
0010
0010
,
1000
0100
0001
0100
0010
0001
0100
0010
,
0100
1000
0100
0010
1000
0001
0010
0210
,
0000
1300
0001
1000
0010
0100
0001
0000
,
2000
0000
3100
0020
0000
0031
2000
0000
,
3001
0100
1000
0100
0010
1000
0100
0010
,
0100
0001
0100
0010
0001
1000
0010
0210
,
0000
0301
1000
0001
0010
0100
1000
0000
,
0001
2000
0000
3020
0000
0130
0002
0000
,
1003
0010
0001
0010
0100
0001
0010
0100
,
1000
0100
0001
0100
0010
0100
1000
1002
,
0000
0103
0010
2000
0000
3001
0010
0100
,
2000
0000
3010
0200
0000
0301
1000
0000
,
1001
0000
1100
0000
0100
1000
0010
0100
,
0110
0000
0101
0000
0100
0001
0010
0100
,
1000
0010
0100
0010
0001
0010
0100
0002
,
0000
2003
3200
0320
,
0031
0100
0000
0100
0010
1000
0100
1000
,
0000
0000
0000
1000
0010
0000
0000
0000
0000
1000
0000
0000
0100
0000
0000
0010
0000
0000
0002
0000
0000
0000
0000
0000
,
1003
0010
0000
0010
0100
0001
0010
0100
,
0000
0000
0000
1000
0100
0000
0000
0000
0000
1000
0000
0000
0020
0000
0000
0000
0000
0000
0230
0000
0000
0000
0000
0000
,
0301
0100
0000
1000
0100
0001
0010
0100
,
0000
0000
0000
0100
1000
0000
0000
0000
0000
1000
0000
0000
0001
0000
0000
1000
0000
0000
0020
0000
0000
0000
0000
0000
,
1030
0100
0000
0001
0100
1000
0010
0100
,
0001
0010
1000
0010
0001
1000
0010
0010
,
1000
0020
0100
0000
1000
0000
0001
0000
,
1000
0000
0100
0000
1030
0100
0010
0001
,
0000
0001
0100
0010
1000
0010
0100
0001
,
0010
0100
1000
0002
0000
0103
0010
1000
,
0100
0010
0100
1000
0100
0001
0100
0010
,
0100
1000
0010
0100
0010
0001
0010
0100
,
0010
1000
0100
1000
0010
0100
0001
0010
,
0001
0001
1000
1000
0010
0010
0100
0100
,
0000
0001
0010
0100
M000
0100
0001
0010
,
0000
0001
1000
0010
0M00
0010
0001
1000
,
0000
1000
0100
0010
000M
0010
1000
0100
,
0000
0000
1000
0001
1000
0000
0001
0000
0010
0000
1000
0000
0010
0000
0001
0000
,
0000
0001
1000
0100
00M0
0100
0001
1000
,
0000
1000
0001
0010
0M00
0010
1000
0001
,
0000
1000
0001
1001
0000
0100
0010
0220
,
0000
0000
0330
0010
1000
0001
1001
0000
,
0001
2000
0100
0000
0001
0000
0010
0000
,
3002
0000
0100
0000
1003
0001
0100
0020
,
0000
0000
1030
0000
1000
0010
1000
0010
,
0100
0001
0100
0001
0010
0100
1000
0000
,
1000
0002
0010
0000
1000
0000
0100
0000
,
1003
0001
1000
0000
0001
0010
0100
2000
,
0000
0000
3010
0000
1000
0100
1000
0100
,
0010
0001
0010
0001
0100
0010
1000
0000
,
0000
1000
0010
0001
0000
0001
0010
1000
,
0000
1000
0100
0001
0000
0001
0100
1000
,
0000
0100
1000
0010
0M00
0010
0001
0100
,
00M0
0100
1000
0010
0100
0001
1000
0001
,
0011
0001
1000
0100
1100
1000
0001
0100
,
0101
0001
1000
0010
1010
1000
0001
2001
,
0000
0001
0001
0001
0000
0100
0100
3100
,
1100
0000
0011
0000
0001
1000
1001
0000
,
1010
0000
0011
0000
0101
0000
0220
0000
0000
0000
0000
0000
,
0330
0000
0000
0000
;
