#VERSION:0.83;
#TITLE:Accelerate;
#SUBTITLE:;
#ARTIST:Teminite & Skybreak;
#TITLETRANSLIT:;
#SUBTITLETRANSLIT:;
#ARTISTTRANSLIT:;
#GENRE:;
#CREDIT:;
#MUSIC:Accelerate.ogg;
#BANNER:Accelerate-bn.png;
#BACKGROUND:Accelerate-bg.png;
#CDTITLE:;
#SAMPLESTART:72.499;
#SAMPLELENGTH:12.800;
#SELECTABLE:YES;
#OFFSET:1.301;
#BPMS:0.000=150.000;
#STOPS:;
#SPEEDS:0.000=1.000=0.000=0,
316.000=2.000=16.000=0
;
#SCROLLS:0.000=1.000,
184.000=0.000,
186.000=-1.000,
186.125=-0.875,
186.250=-0.750,
186.375=-0.625,
186.500=-0.500,
186.625=-0.375,
186.750=-0.250,
186.875=-0.125,
187.000=0.000,
187.125=0.125,
187.250=0.250,
187.375=0.375,
187.500=0.500,
187.625=0.625,
187.750=0.750,
187.875=0.875,
188.000=1.000
;
#BGCHANGES:;
#FGCHANGES:;

//--------------- dance-single - FS- XO- ----------------
#NOTEDATA:;
#STEPSTYPE:dance-single;
#DESCRIPTION:FS- XO-;
#DIFFICULTY:Hard;
#METER:14;
#RADARVALUES:0,0,0,0,0;
#CREDIT:Talkion;
#NOTES:
0000
0000
0000
0000
,
0000
0000
0000
0000
,
0000
0000
0000
0000
,
2100
0000
0000
3010
0000
0000
0012
0000
0000
0103
0000
0000
2100
0000
0000
0000
,
0000
0000
3001
0010
0100
1000
0002
0000
0000
0103
0000
0000
2010
0000
0000
0000
,
0000
0000
0000
0000
,
3001
0010
0000
0010
0000
0010
0000
0100
1000
0000
0000
0000
0010
0000
0000
0000
,
1001
0000
0000
0000
1000
0000
0000
0100
0000
0000
0010
0000
0000
0100
0000
0000
,
1000
0000
0001
0000
0100
0000
0000
0110
0000
0000
0010
0000
0001
0000
0010
0000
,
1010
0000
0000
0000
0001
0000
0000
0010
0000
0000
0100
0000
0000
0010
0000
0000
,
0001
1000
0100
1000
0010
1000
0200
0300
,
1001
0000
0000
0000
1000
0000
0000
0010
0000
0000
0100
0000
0000
0010
0000
0000
,
1000
0000
0001
0000
0010
0000
0000
0110
0000
0000
0100
0000
0001
0000
0100
0000
,
2100
0000
0000
0000
0001
0000
0000
0100
0000
0000
0001
0000
0000
0100
0000
0000
,
3010
0000
0000
0000
0200
0000
0000
0000
0301
0100
0000
0100
0000
0100
0010
0000
,
1000
0000
0100
0000
1000
0010
0000
0010
0100
0000
0001
0000
0020
0001
0000
0130
,
0000
0000
1000
0001
0000
0100
0010
0100
0000
0001
1000
0000
1200
0000
0000
0000
,
0310
0000
0100
0000
1000
0010
0000
0010
0100
0000
0001
0000
0010
0100
0010
0000
,
1000
0010
0100
0001
0100
0010
0001
0100
,
0010
0000
1000
0000
0001
0010
0000
0010
0100
0000
1000
0000
0020
1000
0000
0130
,
0000
0000
0001
1000
0000
0100
0010
0100
0000
1000
0001
0000
0201
0000
0000
0000
,
0310
0000
0100
0000
0000
0001
0000
0001
0010
0000
0001
0000
1000
0100
1000
0000
,
0010
0100
0000
1000
0000
0100
0000
0010
0000
0001
0000
0010
0100
0000
0001
0020
,
0001
0000
0000
0000
0130
0000
1000
0000
0001
0000
0000
0100
0000
0000
0020
0000
,
0000
0000
0000
0000
0000
0000
0130
0000
0100
0000
0001
1000
0001
0000
0010
0200
,
0000
0000
0000
2300
0000
0000
0000
0000
,
3000
0000
0000
0000
0000
0001
0100
0001
,
0010
0001
0100
0002
0010
0000
0003
1000
,
0100
0000
1000
0000
0010
0000
1000
0000
0100
0000
0000
0100
0000
0000
0010
0000
,
0002
0000
0000
2003
0000
3010
0100
0001
,
1000
0000
0100
0010
0100
0000
1000
0001
0100
0001
1000
0000
0020
0000
0000
0000
,
0230
0000
0000
0000
0301
0000
0010
0000
0100
0000
1000
0010
1000
0000
0100
0000
,
0010
0000
0001
0000
0001
0000
0000
1000
0000
0010
0100
0010
1000
0000
0001
0010
,
0100
0000
1000
0000
1000
0000
0000
0001
0000
0100
0010
0000
0010
0000
0100
0000
,
0001
0000
1000
0000
1000
0000
0000
0001
0000
0010
0100
0010
0001
0000
1000
0000
,
0100
1000
0010
1000
0200
0010
0310
0001
,
0100
0000
0001
0000
0010
0000
0001
0000
0100
0000
0010
1000
0010
0000
0100
0000
,
0001
0000
0001
0000
1000
0000
0000
0100
0000
0010
0100
0000
0100
0000
1000
0000
,
0001
0100
0000
0100
0000
0100
0000
0010
1000
0000
0000
0000
0100
0000
0000
0000
,
1001
0000
0000
0000
1000
0000
0010
0000
0100
0000
0000
0100
0000
0000
0001
0000
,
0010
0000
0000
0020
0000
0000
0130
0000
0001
0000
0100
0010
0000
0010
0100
0000
,
1000
0000
0000
0000
0001
0000
0100
0000
0010
0000
0000
0010
0000
0000
1000
0000
,
0100
0000
0000
0100
0000
0000
0010
0000
0001
0000
1000
0100
0000
0100
1000
0000
,
0001
0100
0010
0100
0001
0010
0100
0010
,
0001
0100
1000
0100
0001
0010
1000
0010
,
0001
0001
0001
0001
0001
0001
0001
0001
,
0000
0000
0000
0000
,
1001
0000
0000
0000
1000
0100
0010
0001
1000
0000
0001
0100
00M0
0100
1000
0000
,
0010
0000
1000
0100
00M0
0100
0001
0000
0021
0000
0000
0000
0000
0000
0030
0000
,
1100
0000
0000
0000
1000
0001
0100
0010
1000
0000
0001
0010
0M00
0010
1000
0000
,
0100
0000
1000
0010
0M00
0010
0001
0000
0200
0000
0000
0000
0320
0000
0030
0000
,
1001
0000
0000
0000
0001
0100
0010
1000
0001
0000
1000
0100
00M0
0100
0001
0000
,
0010
0000
0001
0100
00M0
0100
1000
0000
1020
0000
0000
0000
0000
0000
0030
0000
,
0101
0000
0000
0000
0001
1000
0100
0010
0001
0000
0100
0010
000M
0010
0100
0000
,
1000
0000
0001
0000
0010
0000
0001
0100
0002
0000
0003
0000
0210
0000
0300
0000
,
1001
0000
0000
0000
0001
1000
0001
1000
0100
0000
1000
0010
0M00
0010
0001
0000
,
0100
0000
0001
0010
0001
0000
0100
0000
0010
0000
0000
0010
0000
0000
0010
0000
,
0100
0000
1000
0000
0100
0000
0010
0000
1000
0000
0001
0100
00M0
0100
1000
0000
,
0200
0000
0010
0000
1000
0000
0310
0000
0001
0000
0001
0200
0000
0000
0301
0000
,
1001
0000
0000
0000
1000
0001
1000
0001
0100
0000
0001
0010
0M00
0010
1000
0000
,
0100
0000
1000
0010
0200
0000
0301
0000
0021
0000
0000
0000
0000
0000
0030
0000
,
1100
0000
0000
0000
1000
0001
1000
0001
0100
0000
0000
0110
0000
0000
2001
0000
,
0000
0000
0000
0000
0000
0000
0000
0000
3001
0100
0001
0000
0010
0000
0001
0000
,
1001
0000
0000
0000
1000
0010
0100
0001
1000
0000
0100
0000
1000
0010
0M00
0010
,
0001
0000
0001
0100
00M0
0100
1000
0000
0001
0000
0000
0000
0000
0000
0000
0000
,
1000
0010
0M00
0010
0001
0000
0001
0000
0010
0000
0100
0010
0001
0000
0000
0001
,
0000
0000
0000
0000
0000
0000
0001
0000
0000
0000
0000
0000
0000
0000
0000
0001
0000
0000
0000
0000
0000
0000
0000
0000
1000
0000
0000
0000
0010
0000
0000
0000
0100
0000
0000
0000
0001
0000
0000
0000
0100
0000
0000
0000
0010
0000
0000
0000
,
2000
0000
0000
3002
0000
0000
0013
0000
0100
0000
0000
0000
2100
0000
0000
0000
,
0100
0000
0100
0000
3010
0100
0001
0100
,
0010
0000
1000
0001
1000
0000
0100
0000
1000
0001
1000
0000
0010
0000
0100
0000
,
0001
0000
0100
0000
0010
0000
1000
0001
1000
0000
0100
0000
0020
0000
0100
0000
,
0032
0000
0000
0000
0003
0000
0000
0000
1001
0000
1000
0000
0001
0010
0M00
0010
,
1000
0000
1000
0100
00M0
0100
0001
0000
1000
0000
0000
0000
0000
0000
0000
0000
,
0001
0010
0M00
0010
1000
0000
1000
0000
0010
0000
0100
0010
1000
0000
0000
1000
,
0000
0000
0000
0000
0000
0000
1000
0000
0000
0000
0000
0000
0000
0000
0000
1000
0000
0000
0000
0000
0000
0000
0000
0000
0001
0000
0000
0000
0010
0000
0000
0000
0100
0000
0000
0000
1000
0000
0000
0000
0100
0000
0000
0000
0010
0000
0000
0000
,
0002
0000
0000
2003
0000
0000
3010
0000
0100
0000
0000
0000
0102
0000
0000
0000
,
0100
0000
0000
0000
0100
0000
0000
0000
0023
0000
0000
0230
0000
0000
1300
0000
,
0010
0000
0100
0000
0010
0000
1000
0000
0001
0100
0001
0000
0020
0000
0000
0000
,
0000
0130
1000
0000
1001
0000
0110
0000
,
2002
0000
0000
0000
,
0000
0000
0000
0000
,
0000
0000
0000
0000
,
3003
0000
0000
0000
;

//--------------- dance-single - DS- FS- XO- ----------------
#NOTEDATA:;
#STEPSTYPE:dance-single;
#DESCRIPTION:DS- FS- XO-;
#DIFFICULTY:Challenge;
#METER:16;
#RADARVALUES:0,0,0,0,0;
#CREDIT:Talkion;
#NOTES:
0000
0000
0000
0000
,
0000
0000
0000
0000
,
0000
0000
0000
0000
,
2100
0000
0000
3010
0000
0000
0012
0000
0000
0103
0000
0000
2100
0000
0000
0000
,
0000
0000
3001
0010
0100
1000
0002
0000
0000
0103
0000
0000
2010
0000
0000
0000
,
0000
3004
0000
0000
0000
0000
0000
0000
,
0013
0100
0000
0100
0000
0100
0000
0010
0001
0000
0000
0000
0100
0000
0000
0000
,
1001
0000
0000
0000
0001
0000
1000
0100
0000
1000
0001
0000
1000
0100
0000
1000
,
0001
0000
0100
0000
0010
1000
0000
0001
0000
0001
0010
0100
0001
0000
0100
0000
,
1100
0000
0000
0000
1000
0000
0001
0010
0000
0001
1000
0000
0001
0010
0000
0001
,
0100
0000
0010
0100
1000
0000
0100
0010
0000
1000
0001
0010
0100
1000
0100
0010
,
0001
0000
0000
0000
1000
0000
0001
0100
0000
0001
1000
0000
0001
0100
0000
0001
,
1000
0000
0100
0000
0010
0100
0000
0001
0000
0100
0010
0000
1000
0010
0000
0010
,
0002
0000
0000
0000
1000
0000
0000
0010
0000
0000
1000
0000
0000
0010
0000
0000
,
0103
0000
0000
0000
0020
0000
0000
0000
1030
0010
0000
0010
0000
0010
0100
0000
,
0101
0000
0001
0000
0020
0001
0000
0130
1000
0000
0001
0000
0200
0001
0000
0310
,
0000
0000
1000
0001
0000
0010
0100
0010
0000
0001
1000
0000
1020
0000
0000
0000
,
0130
0000
0001
0000
0020
0001
0000
0130
1000
0000
0001
0000
0100
0010
0100
0000
,
1000
0100
0010
0100
0001
0010
0001
1000
0010
1000
0100
0010
0001
1000
0010
1000
,
0100
0000
1000
0000
0020
1000
0000
0130
0001
0000
1000
0000
0200
1000
0000
0310
,
0000
0000
0001
1000
0000
0010
0100
0010
0000
1000
0001
0000
0021
0000
0000
0000
,
0130
0000
2000
0000
0000
3001
0000
0001
0100
0000
0010
0000
1000
0100
1000
0000
,
0010
0100
0000
1000
0000
0100
0000
0010
0000
0001
0000
0010
0100
0000
0001
0020
,
0001
0000
0000
0000
0130
0000
1000
0000
0001
0000
0000
0100
0000
0000
0020
0000
,
0000
0000
0000
0000
0000
0000
0130
0000
0100
0000
0001
1000
0001
0000
0010
0200
,
0000
0000
0000
2300
0000
0000
0000
0000
,
3000
0000
0000
0000
0000
0000
0000
0000
0000
0000
0001
0100
0001
0000
1000
0100
,
1000
0000
0001
0100
0001
0000
1000
0100
2000
0000
0000
0000
3000
0000
0001
0010
,
0001
0000
1000
0010
1000
0000
0001
0010
0001
0000
1000
0020
0000
0000
0130
0000
,
0002
0000
0000
0000
0000
0000
2003
0000
0000
0000
3100
0010
0100
0000
1000
0000
,
0001
0100
0010
1000
0001
1000
0100
0010
0001
1000
0001
0100
0010
1000
0010
0100
,
0002
0000
0000
0000
1003
0000
0100
0000
0010
0000
0001
0100
0001
0000
0010
0000
,
0100
0000
1000
0000
1000
0000
0001
0100
0000
0100
0010
1000
0001
0000
0010
0100
,
1000
0000
0001
0000
0001
0000
0100
0001
0000
0001
1000
0000
1000
0000
0010
0100
,
0001
0000
1000
0000
1000
0000
0100
1000
0000
1000
0001
0010
0100
0000
1000
0010
,
1000
0000
0001
0010
0001
0000
1000
0010
2000
0000
0001
0000
3001
0000
1000
0100
,
1000
0000
0001
0100
0001
0000
1000
0100
1000
0000
0001
0100
0010
0000
0100
0000
,
0001
0000
0001
0000
1000
0000
0100
1000
0000
1000
0001
0000
0001
0000
0010
0000
,
0100
0010
0000
0010
0000
0010
0000
0100
1000
0000
0000
0000
0010
0000
0000
0000
,
1001
0000
0000
0000
1000
0100
0010
0100
1000
0000
0000
1000
0000
0000
0001
0000
,
0100
0000
0000
0100
0020
0000
0130
0000
1000
0000
0100
0010
0000
0010
0100
0000
,
0001
0000
0000
0000
1000
0001
0010
0001
1000
0000
0000
1000
0000
0000
0010
0000
,
0100
0000
0000
0100
0000
0000
0001
0000
1000
0000
0100
0010
0000
0010
0100
1000
,
0001
0100
0010
0100
0001
0010
0100
0010
0001
1000
0010
0100
0010
1000
0100
0010
,
0100
1000
0010
0100
0001
0010
0001
1000
0010
1000
0100
0010
0001
0100
0010
1000
,
0001
0011
0110
1100
1001
1010
0110
0101
,
0000
0000
0000
0000
,
1001
0000
0000
0000
1000
0001
0010
0001
0100
00M0
0200
1000
0000
0310
0001
0000
,
0100
00M0
0200
1000
0000
0310
0001
0000
0021
0000
0000
0000
0000
0000
0030
0000
,
1100
0000
0000
0000
1000
0001
0100
0001
0010
0M00
0020
1000
0000
0130
0001
0000
,
0010
0M00
0020
1000
0000
0130
0001
0000
0010
0000
0100
0010
0200
0000
0300
0000
,
1001
0000
0000
0000
0001
1000
0010
1000
0100
00M0
0200
0001
0000
0310
1000
0000
,
0100
00M0
0200
0001
0000
0310
1000
0000
1020
0000
0000
0000
0000
0000
0030
0000
,
0101
0000
0000
0000
0001
1000
0100
1000
0010
000M
0010
0100
M000
0100
0001
0000
,
1000
0100
0010
0001
1000
0010
0100
0010
1000
0100
0010
0100
1000
0000
0000
0000
,
1001
0000
0000
0000
0001
0100
0001
0100
0010
M000
0020
0001
0000
0130
1000
0000
,
0010
0M00
0010
0002
0100
0000
1003
0000
1100
0000
0000
1100
0000
0000
1100
0000
,
0100
0000
0001
0000
0100
0010
0001
0000
0100
00M0
0200
1000
0000
0310
0001
0000
,
2000
0000
0100
0000
0001
0000
3010
0000
0100
000M
0100
2000
0000
0000
3001
0000
,
1001
0000
0000
0000
1000
0100
1000
0100
0010
000M
0020
1000
0000
0130
0001
0000
,
0010
0M00
0010
1000
0100
1000
0010
0100
0002
0000
0000
0000
0000
0000
0003
0000
,
0011
0000
0000
0000
0010
0100
0010
0100
1000
0000
0000
1010
0000
0000
0021
0000
,
0000
0000
0000
0000
0000
0000
0030
0000
0100
0010
0200
0000
0010
0000
1300
0000
,
1001
0000
0000
0000
0001
1000
0100
1000
0010
0000
1000
0001
0010
0100
M000
0200
,
0001
0000
0310
0100
000M
0100
1000
0000
0100
0010
0001
1000
0010
0100
0010
1000
,
0001
0000
0000
0100
0000
0000
00M0
0000
0000
0100
0000
0000
1000
0000
0000
0000
0000
0000
1000
0000
0000
0000
0000
0000
0010
0000
0000
0000
0000
0000
0100
0000
0010
0000
0100
0000
0001
0000
0000
0000
0000
0000
0000
0000
0000
0101
0000
0000
,
0000
0000
0000
0000
0000
0000
0101
0000
0000
0000
0000
0000
0000
0000
0000
0101
0000
0000
0000
0000
0000
0000
0000
0000
1000
0000
0001
0000
1000
0000
0000
0000
0100
0000
0000
0000
0010
0000
0000
0000
0100
0000
0000
0000
1000
0000
0000
0000
,
0002
0000
0000
0203
0000
0000
0310
0000
1000
0000
0000
0000
2100
0000
0000
0000
,
0100
0000
0000
0000
0100
0000
0000
0000
3001
0000
0100
0010
1000
0010
0100
0001
,
1000
0100
0010
0001
1000
0000
0001
0100
0010
1000
0001
0000
0010
0000
0001
1000
,
0010
0000
0000
0100
0000
0000
0001
0000
0000
0010
0000
0000
0100
0000
0000
0000
0000
0000
1000
0000
0100
0000
1000
0000
0001
0000
0000
0000
0000
0000
0001
0000
0000
0000
0000
0000
0100
0000
0000
0000
0000
0000
0100
0000
0000
0000
0000
0000
,
0020
0000
0000
0000
0030
0000
0000
0000
1001
0000
0001
1000
0010
0100
000M
0200
,
1000
0000
0310
0100
M000
0100
0001
0000
0100
0010
1000
0001
0010
0100
0010
0001
,
1000
0000
0000
0100
0000
0000
00M0
0000
0000
0100
0000
0000
0001
0000
0000
0000
0000
0000
0001
0000
0000
0000
0000
0000
0010
0000
0000
0000
0000
0000
0100
0000
0010
0000
0100
0000
1000
0000
0000
0000
0000
0000
0000
0000
0000
1100
0000
0000
,
0000
0000
0000
0000
0000
0000
1100
0000
0000
0000
0000
0000
0000
0000
0000
1100
0000
0000
0000
0000
0000
0000
0000
0000
0001
0000
1000
0000
0001
0000
0000
0000
0100
0000
0000
0000
0010
0000
0000
0000
0100
0000
0000
0000
0001
0000
0000
0000
,
2000
0000
0000
3200
0000
0000
0310
0000
0001
0000
0000
0000
0012
0000
0000
0000
,
0010
0000
0000
0000
0010
0000
0000
0000
0203
0000
0000
0320
0000
0000
1030
0000
,
0100
0000
0010
0000
0100
0000
1000
0000
0001
0010
0001
0000
0200
0000
0000
0000
,
0000
0310
1000
0000
1001
0000
0110
0000
,
2002
0000
0000
0000
,
0000
0000
0000
0000
,
0000
0000
0000
0000
,
3003
0000
0000
0000
;
