#VERSION:0.83;
#TITLE:About Damn Time;
#SUBTITLE:(Purple Disco Machine Remix);
#ARTIST:Lizzo;
#TITLETRANSLIT:;
#SUBTITLETRANSLIT:;
#ARTISTTRANSLIT:;
#GENRE:;
#CREDIT:;
#MUSIC:About Damn Time (Purple Disco Machine Remix).ogg;
#BANNER:About Damn Time (Purple Disco Machine Remix)-bn.png;
#BACKGROUND:About Damn Time (Purple Disco Machine Remix)-bg.png;
#CDTITLE:;
#SAMPLESTART:48.412;
#SAMPLELENGTH:12.101;
#SELECTABLE:YES;
#OFFSET:2.008;
#BPMS:0.000=119.000;
#STOPS:;
#BGCHANGES:;
#FGCHANGES:;

//--------------- dance-single - XO ----------------
#NOTEDATA:;
#STEPSTYPE:dance-single;
#DESCRIPTION:XO;
#DIFFICULTY:Hard;
#METER:11;
#RADARVALUES:0,0,0,0,0;
#NOTES:
0000
0000
0000
0000
,
0000
0000
0000
0000
,
0000
0000
0000
0000
,
0000
0000
0000
0000
,
0000
0000
0000
0000
,
2000
0000
0100
0000
3001
0100
0010
0100
,
0001
1000
0100
1000
,
2001
3010
1002
0013
,
0011
0000
1100
0000
0100
0010
2000
3010
,
0100
0000
0000
0100
0000
0000
1000
0000
0001
0000
0000
0000
0100
0000
0010
0000
,
1000
0000
0000
0000
0100
0010
0000
0000
0010
0000
0000
0000
0001
0000
0010
0000
,
0100
0000
0000
0100
0000
0000
1000
0000
0001
0000
0000
0000
0100
0000
0010
0000
,
1000
0000
0000
0000
0100
0010
0000
0000
0010
0000
0001
0000
0001
0000
0000
0000
,
1000
0010
0100
0002
0100
1003
0001
0000
,
0001
0010
0100
2000
0100
3001
1000
0000
,
1000
0010
0100
0002
0100
1003
0001
2000
,
0100
3001
1000
0001
0200
0010
0310
0000
,
1000
0000
0010
0000
1002
0000
0000
0000
0000
0000
0000
0000
0000
0013
0000
0100
,
0000
1000
0000
0010
0000
0100
0000
0001
0000
0010
0000
0200
0000
0000
0310
0000
,
0000
0000
0001
0000
0000
0101
0000
0000
2010
0000
0000
3010
0000
0100
0000
0010
,
0000
1000
0000
0100
0000
0010
0000
0001
0000
0100
0000
0020
0000
0000
1030
0000
,
0001
0000
0100
0000
2001
0000
0000
0000
0000
0000
0000
0000
0000
3100
0000
0010
,
0000
0001
0000
0100
0000
0010
0000
1000
0000
0100
0000
0010
0000
0002
0000
0000
,
0203
0010
0010
0010
,
0310
1001
0000
1000
0100
0001
0100
1000
,
0000
0000
0010
0000
0010
0000
0100
0020
0000
0000
1030
0000
0000
0000
0011
0000
,
0000
0000
0010
0000
0010
0000
0100
2000
0000
0000
3001
0000
0010
0000
0001
1000
,
0001
0000
0100
0000
0100
0000
0010
0200
0000
0000
0301
0000
1000
0000
0000
1200
,
0000
0310
1000
0010
0001
0000
2000
0000
,
3010
0002
0103
2000
,
3010
0000
0001
0100
0010
0110
1001
0000
,
0001
0000
0010
0000
0010
0000
0100
0020
0000
0000
0031
0000
0000
0000
1010
0000
,
0000
0000
0010
0000
0010
0000
0100
0002
0000
0000
1003
0000
0010
0000
1000
0001
,
1000
0000
0100
0000
0100
0000
0010
0200
0000
0000
1300
0000
0001
0000
0000
0201
,
0000
0310
0001
0010
1000
0000
0002
0000
,
0013
2000
3100
0002
,
0013
0000
1010
0000
1100
0100
0101
0000
,
0001
0000
1000
0000
0010
0000
2000
0000
0100
0000
0000
0100
0000
0000
3001
0000
,
0100
0000
0001
0000
0010
0000
0000
0010
0000
0000
0100
0000
0002
0000
0000
0000
,
0103
0000
0010
0000
0100
0000
2000
0000
0010
0000
0000
0010
0000
0000
3001
0000
,
0010
0001
0100
0010
0100
0110
1001
0000
,
1000
0000
0100
0000
0010
0000
0002
0000
0100
0000
0000
0100
0000
0000
0013
0000
,
0100
0000
1000
0000
0010
0000
0000
0010
0000
0000
0100
0000
0002
0000
0000
0000
,
0013
2000
3100
0002
,
0013
0000
1000
0100
0010
0110
1001
0000
,
0001
0000
1000
0000
0010
0000
0200
0000
1000
0000
0000
1000
0000
0000
0301
0000
,
0010
0000
0100
0000
0001
0000
0000
0001
0000
0000
0100
0000
0010
0000
0100
0000
,
1000
0000
0001
0000
0100
0000
0020
0000
0001
0000
0000
0001
0000
0000
1030
0000
,
0100
0000
0010
0000
1000
0000
0000
2000
0000
0000
3010
0000
0001
0000
0000
0000
,
1000
0000
0100
0000
1000
0000
0020
0000
0001
0000
0000
0001
0000
0000
0130
0000
,
0001
0000
0010
0000
1000
0000
0000
1000
0000
0000
0010
0000
0100
0000
1000
0000
,
0001
2000
3010
0002
,
0103
0000
1000
0010
0100
0110
1001
0000
;

//--------------- dance-single - FS Rolls- XO ----------------
#NOTEDATA:;
#STEPSTYPE:dance-single;
#DESCRIPTION:FS Rolls- XO;
#DIFFICULTY:Challenge;
#METER:13;
#RADARVALUES:0,0,0,0,0;
#NOTES:
0000
0000
0000
0000
,
0000
0000
0000
0000
,
0000
0000
0000
0000
,
0000
0000
0000
0000
,
0000
0000
0000
0000
,
2000
0000
0000
0000
0100
0000
0000
0000
3001
0000
1000
0010
1000
0000
0001
0010
,
0001
0000
1000
0000
0001
0000
0100
0000
0010
0100
0010
0000
1000
0000
0100
0000
,
1002
0000
0000
0000
0010
0000
0003
0000
1001
0000
1000
0010
1000
0000
0001
0010
,
0001
0100
0010
1000
0400
0000
0302
0103
,
0120
0000
0000
0031
0000
0000
1000
0000
1020
0000
0000
0000
0130
0000
0001
0000
,
0011
0000
0000
0000
0010
0100
0000
0100
2000
0000
0000
0000
3001
0000
0100
0000
,
0120
0000
0000
1030
0000
0000
0001
0000
0021
0000
0000
0000
0130
0000
1000
0000
,
1010
0000
0000
0000
0010
0100
0000
0100
0002
0000
0010
0000
1003
0000
0000
0001
,
0100
0010
0100
0001
1000
0001
0010
0100
2000
0000
3002
0000
0103
0000
0000
0001
,
1000
0100
0010
0100
1000
0001
1000
0010
0200
0000
0320
0000
1030
0000
0000
0001
,
0010
0100
0010
0001
1000
0001
0100
0010
2000
0000
3002
0000
0013
0000
0100
0010
,
0002
0000
2003
0000
3010
0000
0100
0010
2000
0000
0100
0000
3100
0000
0000
0000
,
1000
0000
0010
0000
1002
0000
0000
0000
0000
0000
0000
0000
0000
0013
0000
0100
,
0000
0001
0000
0100
0000
0010
0000
1000
0000
0010
0000
0200
0000
0000
1300
0000
,
0000
0000
0001
0000
0000
0101
0000
0000
2010
0000
0000
3010
0000
0100
0000
0010
,
0000
0001
0000
0010
0000
0100
0000
1000
0000
0100
0000
0020
0000
0000
1030
0000
,
0001
0000
0100
0000
2001
0000
0000
0000
0000
0000
0000
0000
0000
3100
0000
0010
,
0000
1000
0000
0010
0000
0100
0000
0001
0000
0100
0000
0010
0000
0002
0000
0000
,
2003
0000
0000
0000
0000
0M00
00M0
000M
0000
0000
0000
0000
0000
0000
0000
0000
,
3000
0000
0110
0000
0000
0000
0001
0010
0100
1000
0010
1000
0100
0010
0001
0000
,
1000
0000
0100
00M0
0100
0000
0001
0200
0000
0000
0310
0100
0001
0000
0110
0000
,
0000
1000
0010
0M00
0010
0000
0001
0020
0000
0000
0130
0000
0001
0000
0100
0010
,
0001
1000
0100
00M0
0100
0000
0001
0200
0000
0000
0310
0100
0010
0000
0000
1020
,
0000
0100
0001
0100
1030
0000
2001
0000
,
3200
0304
0403
2300
,
3020
0000
0000
0000
0031
0000
0010
0100
0010
0000
0110
0000
1001
0000
0000
0000
,
0001
0000
0100
00M0
0100
0000
1000
0200
0000
0000
0310
0001
0000
0001
0010
0100
,
1000
0001
0010
0M00
0010
0000
1000
0020
0000
0000
0130
0000
1000
0000
0100
0010
,
1000
0001
0100
00M0
0100
0000
1000
0200
0000
0000
0310
0100
0010
0000
0000
0021
,
0000
0100
1000
0100
0031
0000
1002
0000
,
0203
4300
3400
0302
,
0023
0000
0000
0000
1030
0000
0010
0100
0010
0000
0110
0000
1001
0000
0000
0000
,
0001
0000
1000
0000
0010
0000
1000
0000
0100
00M0
0100
0002
0000
0000
1003
0000
,
0010
0000
1000
0000
0100
00M0
0100
0002
0000
0000
0103
0000
2000
0000
0000
0000
,
3100
0000
0010
0000
1000
0000
0001
0000
0100
00M0
0100
2000
0000
0000
3001
0000
,
0010
0000
0001
0000
0100
00M0
0100
1000
0010
0000
0110
0000
1001
0000
0000
0000
,
1000
0000
0010
0000
0100
0000
0001
0000
0010
0M00
0010
2000
0000
0000
3010
0000
,
0100
0000
0001
0000
0010
0M00
0010
2000
0000
0000
3100
0000
1002
0000
0000
0000
,
0023
4030
3040
0032
,
0203
0000
0000
0000
1300
0000
0100
0010
0100
0000
0110
0000
1001
0000
0000
0000
,
0001
0000
0100
0000
0001
0000
0010
0000
0100
M000
0100
0002
0000
0000
1003
0000
,
0001
0000
0010
0000
0100
M000
0100
0002
0000
0000
0103
0000
0010
0000
1000
0000
,
0001
0000
0010
0000
0001
0000
0100
0000
0010
M000
0010
0002
0000
0000
1003
0000
,
0001
0000
0100
0000
0010
M000
0010
0001
0000
0010
0100
0010
2000
0000
0000
0000
,
3010
0000
0100
0000
1000
0000
0010
0000
0100
000M
0100
2000
0000
0000
3001
0000
,
1000
0000
0010
0000
0100
M000
0100
0020
0000
0000
0031
0000
1000
0000
0100
0000
,
1000
0010
0004
0000
0043
0000
2030
0000
,
3200
0000
0000
0000
0301
0000
0100
0010
0100
0000
0110
0000
1001
0000
0000
0000
;
