#VERSION:0.83;
#TITLE:ABC;
#SUBTITLE:feat. Sophia Black;
#ARTIST:Polyphia;
#TITLETRANSLIT:;
#SUBTITLETRANSLIT:;
#ARTISTTRANSLIT:;
#GENRE:;
#CREDIT:;
#MUSIC:ABC.ogg;
#BANNER:ABC-bn.png;
#BACKGROUND:ABC-bg.png;
#CDTITLE:;
#SAMPLESTART:34.291;
#SAMPLELENGTH:13.714;
#SELECTABLE:YES;
#OFFSET:1.709;
#BPMS:0.000=140.000;
#STOPS:;
#BGCHANGES:;
#FGCHANGES:;

//--------------- dance-single - XO FS- SS- ----------------
#NOTEDATA:;
#STEPSTYPE:dance-single;
#DESCRIPTION:XO FS- SS-;
#DIFFICULTY:Hard;
#METER:14;
#RADARVALUES:0,0,0,0,0;
#CREDIT:Talkion;
#NOTES:
0000
0000
0000
0000
,
0000
0000
0000
0000
1000
0001
0010
0001
,
2000
3010
0200
0301
,
0010
1000
0010
0001
,
0100
0000
0010
0000
1000
0001
0010
0100
,
0010
0000
0000
0001
0000
0000
1000
1000
,
0010
0000
0000
0100
0000
0010
0000
0000
1000
0000
0001
0000
0010
0000
0100
0000
,
0001
0100
0010
0001
1000
0010
0100
0001
,
1000
0100
0010
0001
0100
0000
2000
3000
,
0100
0010
0010
0000
1010
0000
0011
0000
,
2001
0000
3100
0000
1000
0001
0010
0001
,
0100
0000
0010
0000
1000
0001
0010
0001
,
0100
0000
0001
1000
0010
1000
0200
0000
,
0001
0000
0000
0010
0000
0000
1300
0000
0001
0000
0000
0000
0200
0000
0000
0000
,
1000
0000
0000
0010
0000
0000
0301
0000
1000
0000
0000
0000
0100
0000
0010
0000
,
0002
0000
0000
1000
0000
1000
0000
0000
0103
0000
0000
0000
0010
0000
0100
0000
,
0002
0000
0000
1000
0000
0000
0013
0000
0100
0000
0000
0100
0000
0000
0100
0000
,
1000
0010
0100
0001
0010
0000
0001
0010
,
0100
1000
0010
0000
1000
0010
0100
0001
,
0010
0000
1000
0010
0001
0100
0020
0000
,
2030
0000
3000
0000
,
1001
0001
0001
0010
0100
0010
0001
0100
,
0010
0010
0001
0000
0021
0000
0130
0001
,
0010
1000
0001
0100
1000
0010
0100
0001
,
0100
0010
1000
0000
1100
0100
1000
0010
,
0100
0100
0100
0001
0000
1000
0001
0001
,
0010
0000
0000
0100
0000
0010
0000
0000
0001
0000
1000
0000
0010
0000
0100
0000
,
1000
0100
0010
1000
0001
0010
0100
1000
,
0001
0100
0010
1000
0100
0000
0002
0003
,
0100
1000
0001
1000
0010
0M00
0010
0001
,
1000
0001
0100
00M0
0100
1000
0001
1000
,
0010
0M00
0010
0001
1000
0001
0100
00M0
,
0100
1000
0001
1000
0010
0000
1001
0000
,
1000
0100
0010
0100
0001
M000
0001
0010
,
0100
0010
1000
000M
1000
0100
0010
0100
,
0001
M000
0001
0010
0100
0010
1000
000M
,
1000
0100
0010
0100
0001
0000
0110
0000
,
0002
0000
0000
0000
1003
0010
0100
0010
,
2000
3100
0020
0031
,
0200
1300
0100
0001
,
0020
0000
0130
0000
1000
0001
0100
0010
,
2000
0000
0000
0010
0000
0000
3001
0000
0010
0000
0000
0000
0100
0010
0100
0000
,
1000
0000
0000
0010
0000
0100
0000
0000
0001
0000
0100
0000
0020
0000
0000
0000
,
0001
0000
0000
0100
0000
0000
2030
0000
0010
0000
0000
3001
0000
0000
0010
0000
,
0100
1000
0010
0100
0002
0003
0000
0000
,
1002
0000
0000
0000
0000
0000
0013
0000
0100
0000
1000
0010
1000
0000
0001
0010
,
0002
0003
0101
0100
0010
2010
0000
3100
,
0010
0001
0010
0001
0010
0001
1000
0000
0010
0000
0100
0001
0100
0000
0010
0000
,
1000
0001
1000
0001
0010
0100
0010
0100
1000
0000
0001
0000
0100
0010
1000
0100
,
0010
0000
0000
0011
0000
0000
1010
0000
0100
0000
0001
0000
0010
0100
0010
0000
,
0002
0000
0103
0001
0100
0000
0010
0000
2000
0000
3100
1000
0100
0000
0010
0000
,
1000
0010
0100
1000
0001
0100
0010
1000
0001
0000
0010
0000
0100
0010
0001
0000
,
1000
0000
0000
0010
0000
0000
0100
0000
0000
0000
0000
0000
0101
0000
0000
0000
0000
0000
1010
0000
0000
0000
0000
0000
2001
0000
0000
0000
0000
0000
0000
0000
0000
0000
0000
0000
3100
0000
0000
0000
0010
0000
0000
0000
0100
0000
0000
0000
,
2000
0000
0000
0000
0000
0000
3010
0000
0100
0000
0001
1000
0001
1000
0001
1000
,
0010
0000
0000
1010
0000
0000
0011
0000
0100
0000
1000
0001
0100
0010
0100
0001
,
2000
0000
0000
3200
0000
0000
0310
0000
0001
0000
1000
0010
1000
0000
0001
0010
,
0002
0000
0100
0000
0100
0000
0103
0000
0010
0000
0002
0023
1030
0000
0000
0000
,
2000
0100
0000
3002
0100
0000
1003
0100
0010
0000
2000
3020
0031
1000
0100
1000
,
0002
0000
0000
0000
0013
0100
1000
0000
0001
0000
0100
0000
0120
0000
0000
0000
,
0031
0010
0100
0001
1000
0100
0010
0000
0001
1000
0100
1000
0001
0100
0010
0000
,
1000
0000
0000
0010
0000
0000
0100
0000
0000
0001
0000
0000
1000
0000
0000
0100
0000
0000
0010
0000
0000
0001
0000
0000
0200
0000
0000
0000
0000
0000
0000
0000
0000
0000
0000
0000
0301
0000
0000
0000
1000
0000
0000
0000
0100
0000
0000
0000
,
0010
0001
1000
0001
0100
00M0
0100
1000
,
0001
1000
0010
0M00
0010
0001
1000
0001
,
0200
0000
0000
0010
0000
0000
0301
0000
0020
0000
0000
0100
0000
0000
0031
0000
,
0200
0000
0000
0302
0000
0000
0013
0000
1000
0000
0000
0000
0110
0000
0000
0000
,
1000
0010
0100
0010
0001
M000
0001
0100
,
0010
0100
1000
000M
1000
0010
0100
0010
,
0001
M000
0001
0100
0010
0100
1000
000M
,
1000
0010
0100
0010
0001
0000
0110
0000
,
1001
1001
1001
0000
0000
0000
0000
0000
;

//--------------- dance-single - BU XO FS- SS- ----------------
#NOTEDATA:;
#STEPSTYPE:dance-single;
#DESCRIPTION:BU XO FS- SS-;
#DIFFICULTY:Challenge;
#METER:16;
#RADARVALUES:0,0,0,0,0;
#CREDIT:Talkion;
#NOTES:
0000
0000
0000
0000
,
0000
0000
0000
0000
1000
0001
0010
0001
,
0200
0310
2000
3100
,
0010
1000
0001
0100
,
1000
0000
0001
0000
0100
0010
1000
0100
,
1000
0000
0000
0000
0000
0000
0001
0000
0000
0000
0100
0000
0010
1000
0010
0000
,
0100
0000
0000
0001
0000
1000
0000
0000
0100
0010
0100
1000
0001
0000
0100
0000
,
1000
0100
0001
1000
0100
0010
0100
1000
,
0001
0100
0010
1000
0100
0000
0002
0003
,
0100
0000
0010
0000
0010
0000
0000
0002
0100
0000
0000
2003
0100
0000
0000
3001
,
0100
0010
0000
0000
1010
0000
0000
0000
1000
0001
0010
0100
2000
0000
0100
0000
,
3001
0000
0000
0000
0011
0000
0000
0010
0001
1000
0010
0100
0002
0000
0100
0000
,
1003
0000
0000
0000
0100
0010
0100
0000
2000
0000
0010
0000
3001
0000
0000
0000
,
0100
0000
1000
0100
0000
0100
0001
0000
0010
0000
0100
0000
1000
0000
0000
0000
,
0100
0000
0001
0100
0000
0100
1000
0000
0001
0000
0100
0000
0010
0000
0001
0000
,
0010
0000
0100
0010
0000
0010
0000
0000
1000
0000
0100
0000
0010
0000
1000
0000
,
0010
0000
0100
0010
0000
0010
0001
0000
1000
0000
0000
1000
0000
0000
1000
0000
,
0001
0100
0001
0000
0010
0000
0100
0000
1000
0000
0000
0000
1000
0100
1000
0000
,
0010
0000
0100
0000
0001
0000
0000
0000
0001
0100
0001
0000
0010
0000
0100
0000
,
2000
0000
0000
0000
3001
1000
0001
0000
0100
0000
0010
0000
0200
0000
0000
0000
,
0302
0000
0003
MMMM
,
1001
1000
1000
0100
0010
0100
1000
0010
,
0100
0100
1000
0000
1200
0000
0310
1000
,
0100
0001
1000
0010
0001
0100
0010
1000
,
0010
0100
0001
0000
0011
0010
0001
0100
,
0010
0000
0010
0000
0010
0000
1000
0000
0000
0000
0100
0000
0010
0001
0010
0000
,
0100
0000
0000
1000
0000
0001
0000
0000
0100
0010
0100
0001
1000
0000
0100
0000
,
0001
0100
1000
0001
0100
0010
0100
0001
,
1000
0000
0100
0000
0010
0000
0001
0000
0100
0000
0010
0000
0002
0000
0003
0010
,
0100
0000
0001
0000
0010
0M00
0010
0000
1000
0000
0000
0000
0100
0000
1000
0000
,
0010
0M00
0010
0000
0001
0000
0000
0000
0100
0000
0001
0000
0010
0M00
0010
0000
,
1000
0000
0000
0000
0100
0000
1000
0000
0010
0M00
0010
0000
0001
0000
0000
0000
,
0100
0000
0001
0000
0010
0M00
0010
0000
1000
0000
0000
0000
0110
0000
0000
0000
,
0001
0000
0100
0000
1000
00M0
1000
0000
0010
0000
0000
0000
1000
0000
0100
0000
,
0001
00M0
0001
0000
0010
0000
0000
0000
0001
0000
0100
0000
1000
00M0
1000
0000
,
0010
0000
0000
0000
1000
0000
0100
0000
0001
00M0
0001
0000
0010
0000
0000
0000
,
0001
0000
0100
0000
1000
00M0
1000
0000
0010
0000
0000
0000
1001
0000
0000
0000
,
2000
0000
0000
3001
0000
0000
0001
0000
0010
0000
0100
0000
0010
0000
0001
0000
,
0200
0310
2000
3100
,
0021
1030
0001
0100
,
1200
0000
0310
0000
0001
1000
0010
0100
,
0002
0000
0000
0010
0000
0000
1003
0000
0001
0000
0100
0000
0010
1000
0010
0000
,
0100
0000
0000
0001
0000
1000
0000
0000
0100
0000
0010
0000
0001
0000
0200
0000
,
1000
0000
0000
0010
0000
0000
0302
0000
0100
0000
0000
1003
0000
0000
0100
0000
,
0010
0001
0100
0010
2000
3000
0000
0000
,
1002
0000
0000
0000
0000
0000
0000
0000
0000
0013
0000
0000
0100
0000
0000
1000
0001
0100
0001
0000
0000
1000
0100
1000
,
0002
0000
0003
0000
0101
0000
0100
0000
0010
0000
2010
0000
0000
0000
3100
0010
,
1000
0000
0000
0010
0000
0000
0100
0000
0000
0001
0000
0000
0100
0000
0000
0010
0000
0000
0001
0000
0000
0000
0000
0000
0100
0000
0000
0000
0000
0000
0001
0000
1000
0000
0010
0000
1000
0000
0000
0000
0000
0000
0001
0000
0010
0000
0001
0000
,
1000
0100
1000
0100
0010
0001
0010
0001
1000
0000
0001
0100
0001
1000
0100
0010
,
0001
0100
0001
1000
0100
1000
0010
0000
0100
0000
0010
0000
1000
0001
1000
0000
,
0100
0000
0001
0100
2000
0000
3001
0000
0100
0000
1000
0100
0002
0000
0013
0000
,
1000
0010
0100
1000
0001
0100
0010
1000
0001
0010
0100
1000
0100
0010
0001
0000
,
1000
0000
0000
0010
0000
0000
0100
0000
0000
0010
0000
0000
1000
0000
0000
0100
0000
0000
0010
0000
0000
0100
0000
0000
0002
0000
0000
0000
0000
0000
0000
0000
0000
0000
0000
0000
0103
0000
0000
0000
0010
0000
0000
0000
0100
0000
0000
0000
,
2000
0000
0000
0000
0000
0000
3010
0000
0100
0000
0001
1000
0010
1000
0001
0010
,
0001
0100
0010
1000
0100
0010
0001
0000
0000
0000
1000
0001
0100
0010
0100
0001
,
2000
0000
0000
0000
0000
0000
0000
0000
0000
3200
0000
0000
0000
0000
0000
0000
0000
0000
0310
0000
0000
0000
0000
0000
0001
0000
0000
0000
0000
0000
1000
0000
0001
0000
0010
0000
0001
0000
0000
0000
0000
0000
1000
0000
0010
0000
1000
0000
,
0001
0100
0001
0100
0010
1000
0010
1000
0002
0000
0010
0013
0000
0100
1000
0000
,
0001
0100
0001
0000
0000
0000
1000
0100
1000
0000
0000
0000
0001
0000
0100
0000
0020
0000
0000
0000
0100
0000
0130
0000
0000
0000
0001
0000
0100
0000
0001
0000
,
2000
0000
0000
0000
0000
0000
3100
0010
0100
1000
0000
0000
0001
0000
0000
0100
0000
0000
0120
0000
0000
0000
0000
0000
,
0031
0010
0100
0001
1000
0100
0010
0001
1000
0001
0100
0010
0100
0001
1000
0100
,
0010
0000
0000
0100
0000
0000
1000
0000
0000
0001
0000
0000
1000
0000
0000
0010
0000
0000
0100
0000
0000
0001
0000
0000
0020
0000
0000
0000
0000
0000
0000
0000
0000
0000
0000
0000
0031
0000
0000
0000
1000
0000
0000
0000
0010
0000
0000
0000
,
0100
0000
0001
0000
0010
0M00
0010
0000
1000
0000
0000
0000
0100
0000
1000
0000
,
0010
0M00
0010
0000
0001
0000
0000
0000
0100
0000
0001
0000
0010
M000
0010
0000
,
0200
0000
0000
0010
0000
0000
0301
0000
0020
0000
0000
0100
0000
0000
0031
0000
,
0200
0000
0000
0302
0000
0000
0013
0000
1000
0000
0000
0000
0110
0000
0000
0000
,
1000
0000
0100
0000
0001
00M0
0001
0000
0010
0000
0000
0000
0001
0000
0100
0000
,
1000
00M0
1000
0000
0010
0000
0000
0000
1000
0000
0100
0000
0001
00M0
0001
0000
,
0010
0000
0000
0000
0001
0000
0100
0000
1000
00M0
1000
0000
0010
0000
0000
0000
,
1000
0000
0100
0000
0001
00M0
0001
0000
0010
0000
0000
0000
1001
0000
0000
0000
,
0110
0110
0110
0000
0000
0000
0000
0000
;

//--------------- dance-single - Slay Dairy Queen! ----------------
#NOTEDATA:;
#STEPSTYPE:dance-single;
#DESCRIPTION:Slay Dairy Queen!;
#DIFFICULTY:Edit;
#METER:16;
#RADARVALUES:0,0,0,0,0;
#CREDIT:Talkion;
#NOTES:
0000
0000
0000
0000
,
0000
0000
0000
0000
1000
0001
0010
0001
,
0200
0310
2000
3100
,
0010
1000
0001
0100
,
1000
0000
0001
0000
0100
0010
1000
0100
,
1000
0000
0000
0000
0000
0000
0001
0000
0000
0000
0100
0000
0010
1000
0010
0000
,
0100
0000
0000
0001
0000
1000
0000
0000
0100
0010
0100
1000
0001
0000
0100
0000
,
1000
0100
0010
1000
0001
0010
0100
1000
0001
1000
0010
0100
0010
1000
0001
0010
,
0100
0010
0001
1000
0001
0100
0010
1000
0100
0000
0000
0000
0002
0000
0003
0000
,
0100
0000
0010
0000
0010
0000
0000
0002
0100
0000
0000
2003
0100
0000
0000
3001
,
0100
0010
0000
0000
1010
0000
0000
0000
1000
0001
0010
0100
2000
0000
0100
0000
,
3001
0000
0000
0000
0011
0000
0000
0010
0001
1000
0010
0100
0001
1000
0001
1000
,
0100
0000
0000
0000
0010
0100
0010
0000
0002
0000
0100
0000
1003
0000
0000
0000
,
0010
0000
0001
0010
0000
0010
1000
0000
0001
0100
0001
1000
0001
0010
0100
0000
,
0010
0000
1000
0010
0000
0010
0001
0000
1000
0100
1000
0001
1000
0010
0100
0000
,
1000
0000
0100
0010
0000
0010
0000
1000
0001
0100
0001
0000
1000
0000
0100
0000
,
0001
0000
0100
0010
0000
0010
0001
0000
1000
0000
0010
0100
0000
0010
0100
0000
,
0001
0100
0001
0000
0010
0000
0100
0000
1000
0000
0000
0000
1000
0100
1000
0000
,
0010
0000
0100
0000
0001
0000
0000
0000
0001
0100
0001
0000
0010
0000
0100
0000
,
2000
0000
0000
0000
3001
1000
0001
0000
0100
0000
0010
0000
0200
0000
0000
0000
,
0302
0000
0003
MMMM
,
1001
1000
1000
0100
0010
0100
1000
0010
,
0100
0100
1000
0000
1200
0000
0310
1000
,
0100
0001
1000
0010
0001
0100
0010
1000
,
0010
0100
0001
0000
0011
0010
0001
0100
,
0010
0000
0010
0000
0010
0000
1000
0000
0000
0000
0100
0000
0010
0001
0010
0000
,
0100
0000
0000
1000
0000
0001
0000
0000
0100
0010
0100
0001
1000
0000
0100
0000
,
0001
0100
0010
0001
1000
0010
0100
0001
1000
0001
0010
0100
0010
0001
1000
0010
,
0100
0010
1000
0001
1000
0100
0010
0001
1000
0010
0100
0020
0001
0000
0030
0010
,
0100
0000
0001
0000
0010
0M00
0010
0000
1000
0000
0000
0000
0100
0000
1000
0000
,
0010
0M00
0010
0000
0001
0000
0000
0000
0100
0000
0001
0000
0010
0M00
0010
0000
,
1000
0000
0000
0000
0100
0000
1000
0000
0010
0M00
0010
0000
0001
0000
0000
0000
,
0100
0000
0001
0000
0010
0M00
0010
0000
1000
0000
0000
0000
0110
0000
0000
0000
,
0001
0000
0100
0000
1000
00M0
1000
0000
0010
0000
0000
0000
1000
0000
0100
0000
,
0001
00M0
0001
0000
0010
0000
0000
0000
0001
0000
0100
0000
1000
00M0
1000
0000
,
0010
0000
0000
0000
1000
0000
0100
0000
0001
00M0
0001
0000
0010
0000
0000
0000
,
0001
0000
0100
0000
1000
00M0
1000
0000
0010
0000
0000
0000
1001
0000
0000
0000
,
2000
0000
0000
3001
0000
0000
0001
0000
0010
0000
0100
0000
0010
0000
0001
0000
,
0200
0310
2000
3100
,
0021
1030
0001
0100
,
1200
0000
0310
0000
0001
1000
0010
0100
,
0002
0000
0000
0010
0000
0000
1003
0000
0001
0000
0010
0000
0100
1000
0100
0000
,
0010
0000
0000
0001
0000
1000
0000
0000
0010
0000
0100
0001
0100
0000
0020
0000
,
0001
0000
0000
0100
0000
0000
2030
0000
0010
0000
0000
3001
0000
0000
0010
0100
,
1000
0000
0001
0010
0001
0000
1000
0010
2000
0000
0000
0000
3000
0000
0000
0000
,
1002
0000
0000
0000
0000
0000
0000
0000
0000
0013
0000
0000
0100
0000
0000
1000
0001
0100
0001
0000
0000
1000
0100
1000
,
0002
0000
0003
0000
0101
0000
0100
0000
0010
0000
2010
0000
0000
0000
3100
0010
,
0004
0000
0000
0000
0000
0000
0000
0000
0000
0000
0000
0000
0103
0000
0000
0001
1000
0010
1000
0000
0000
0001
0010
0001
,
1000
0100
1000
0100
0010
0001
0010
0001
1000
0000
0001
0010
0001
1000
0010
0100
,
0002
0000
0000
0023
0000
0000
1030
0000
0001
0000
0100
0000
1000
0001
1000
0000
,
1020
0000
0030
0010
0100
0000
0001
0000
0021
0000
0030
0010
0100
0000
0010
0000
,
1000
0010
0100
1000
0001
0100
0010
1000
0001
0010
0100
1000
0100
0010
0001
0000
,
0100
0000
0000
0010
0000
0000
0100
0000
0000
0001
0000
0000
0010
0000
0000
0100
0000
0000
0010
0000
0000
0001
0000
0000
0200
0000
0000
0000
0000
0000
0000
0000
0000
0000
0000
0000
0301
0000
0000
0000
1000
0000
0000
0000
0010
0000
0000
0000
,
2000
0000
0000
0000
0000
0000
3100
0000
0010
0000
0001
1000
0010
1000
0001
0010
,
0001
0100
0010
1000
0100
0010
0001
0000
0000
0000
1000
0001
0100
0010
0100
0001
,
2000
0000
0000
0000
0000
0000
0000
0000
0000
3200
0000
0000
0000
0000
0000
0000
0000
0000
0310
0000
0000
0000
0000
0000
0001
0000
0000
0000
0000
0000
1000
0000
0001
0000
0010
0000
0001
0000
0000
0000
0000
0000
1000
0000
0010
0000
1000
0000
,
0001
0100
0001
0100
0010
1000
0010
1000
0002
0000
0010
0013
0000
0100
1000
0000
,
0001
0100
0001
0000
0000
0000
1000
0100
1000
0000
0000
0000
0001
0000
0100
0000
0020
0000
0000
0000
0100
0000
0130
0000
0000
0000
0001
0000
0100
0000
0001
0000
,
2000
0000
0000
0000
0000
0000
3100
0010
0100
1000
0000
0000
0001
0000
0000
0100
0000
0000
0120
0000
0000
0000
0000
0000
,
0031
0010
0100
0001
1000
0100
0010
0001
1000
0001
0100
0010
0100
0001
1000
0100
,
0010
0000
0000
0100
0000
0000
1000
0000
0000
0001
0000
0000
1000
0000
0000
0010
0000
0000
0100
0000
0000
0001
0000
0000
0020
0000
0000
0000
0000
0000
0000
0000
0000
0000
0000
0000
0031
0000
0000
0000
1000
0000
0000
0000
0010
0000
0000
0000
,
0100
0000
0001
0000
0010
0M00
0010
0000
1000
0000
0000
0000
0100
0000
1000
0000
,
0010
0M00
0010
0000
0001
0000
0000
0000
0100
0000
0001
0000
0010
M000
0010
0000
,
0200
0000
0000
0010
0000
0000
0301
0000
0020
0000
0000
0100
0000
0000
0031
0000
,
0200
0000
0000
0302
0000
0000
0013
0000
1000
0000
0000
0000
0110
0000
0000
0000
,
1000
0000
0100
0000
0001
00M0
0001
0000
0010
0000
0000
0000
0001
0000
0100
0000
,
1000
00M0
1000
0000
0010
0000
0000
0000
1000
0000
0100
0000
0001
00M0
0001
0000
,
0010
0000
0000
0000
0001
0000
0100
0000
1000
00M0
1000
0000
0010
0000
0000
0000
,
1000
0000
0100
0000
0001
00M0
0001
0000
0010
0000
0000
0000
1001
0000
0000
0000
,
0110
0110
0110
0000
0000
0000
0000
0000
;
