#VERSION:0.83;
#TITLE:AA;
#SUBTITLE:;
#ARTIST:D.J.Amuro;
#TITLETRANSLIT:;
#SUBTITLETRANSLIT:;
#ARTISTTRANSLIT:;
#GENRE:RENAISSANCE;
#ORIGIN:beatmania IIDX 11 IIDX RED;
#TAGS:;
#CREDIT:;
#BANNER:AA.png;
#BACKGROUND:AA-bg.png;
#PREVIEWVID:;
#JACKET:AA-jacket.png;
#CDIMAGE:;
#DISCIMAGE:;
#LYRICSPATH:;
#CDTITLE:cdtitle.png;
#MUSIC:AA.ogg;
#OFFSET:0.000000;
#SAMPLESTART:14.026000;
#SAMPLELENGTH:24.934999;
#SELECTABLE:YES;
#BPMS:0.000000=154.000000
;
#STOPS:;
#DELAYS:;
#WARPS:;
#TIMESIGNATURES:0.000000=4=4
;
#TICKCOUNTS:0.000000=4
;
#COMBOS:0.000000=1
;
#SPEEDS:0.000000=1.000000=0.000000=0
;
#SCROLLS:0.000000=1.000000
;
#FAKES:;
#LABELS:0.000000=Song Start
;
#BGCHANGES:;
#KEYSOUNDS:;
#ATTACKS:
;

//---------------dance-single - ----------------
#NOTEDATA:;
#CHARTNAME:;
#CHARTHASH:2366508773;
#STEPSTYPE:dance-single;
#BANNER:;
#DESCRIPTION:;
#CHARTSTYLE:;
#DIFFICULTY:Beginner;
#METER:4;
#METERF:4.000000;
#LASTSECONDHINT:115.324677;
#RADARVALUES:0.171273,0.218674,0.160417,0.008443,0.000000,142.000000,123.000000,19.000000,1.000000,0.000000,0.000000,0.000000,0.000000,0.000000,0.171273,0.218674,0.160417,0.008443,0.000000,142.000000,123.000000,19.000000,1.000000,0.000000,0.000000,0.000000,0.000000,0.000000;
#CREDIT:-YOSEFU-;
#NOTES:
// measure 0
0000
0000
0000
0000
,  // measure 1
0000
0000
0000
0000
,  // measure 2
0000
0000
0000
0000
,  // measure 3
0000
0000
0000
0000
,  // measure 4
0000
0000
0000
0000
,  // measure 5
1000
0000
0001
0000
,  // measure 6
0100
0000
0010
0000
,  // measure 7
0100
0000
0001
0000
,  // measure 8
1000
0000
0100
0000
,  // measure 9
1001
0000
0001
0000
,  // measure 10
0100
0000
0010
0000
,  // measure 11
1000
0000
0100
0000
,  // measure 12
0010
0000
0001
0000
,  // measure 13
1001
0000
1000
0000
,  // measure 14
0010
0000
0100
0000
,  // measure 15
0001
0000
1000
0000
,  // measure 16
0001
0000
0010
0000
,  // measure 17
1001
0000
1000
0000
,  // measure 18
0010
0000
0100
0000
,  // measure 19
0001
0000
1000
0000
,  // measure 20
0100
0000
0010
0000
,  // measure 21
1001
0000
0001
0000
,  // measure 22
0010
0000
0100
0000
,  // measure 23
1000
0000
0010
0000
,  // measure 24
0100
0000
0001
0000
,  // measure 25
1001
0000
1000
0000
,  // measure 26
0100
0000
0010
0000
,  // measure 27
0001
0000
0100
0000
,  // measure 28
0010
0000
1000
0000
,  // measure 29
1001
0000
0001
0000
,  // measure 30
0010
0000
0100
0000
,  // measure 31
1000
0000
0001
0000
,  // measure 32
0100
0000
0010
0000
,  // measure 33
1001
0000
0000
0000
,  // measure 34
1000
0000
0000
0000
,  // measure 35
0100
0000
0000
0000
,  // measure 36
0010
0000
0000
0000
,  // measure 37
0001
0000
0000
0000
,  // measure 38
0100
0000
0000
0000
,  // measure 39
0010
0000
0000
0000
,  // measure 40
1000
0000
0000
0000
,  // measure 41
0001
0000
0000
0000
,  // measure 42
1001
0000
0000
0000
,  // measure 43
1000
0000
0000
0000
,  // measure 44
0100
0000
0000
0000
,  // measure 45
0010
0000
0000
0000
,  // measure 46
1001
0000
0000
0000
,  // measure 47
0110
0000
0000
0000
,  // measure 48
1001
0000
0110
0000
,  // measure 49
0002
0000
0000
0003
,  // measure 50
1001
0000
1000
0000
,  // measure 51
0100
0000
0010
0000
,  // measure 52
0001
0000
0100
0000
,  // measure 53
0010
0000
1000
0000
,  // measure 54
1001
0000
0001
0000
,  // measure 55
0010
0000
0100
0000
,  // measure 56
1000
0000
0010
0000
,  // measure 57
0100
0000
0001
0000
,  // measure 58
1001
0000
1000
0000
,  // measure 59
0100
0000
0010
0000
,  // measure 60
0100
0000
1000
0000
,  // measure 61
0001
0000
0100
0000
,  // measure 62
0110
0000
0010
0000
,  // measure 63
1000
0000
0100
0000
,  // measure 64
0010
0000
0001
0000
,  // measure 65
0100
0000
0010
0000
,  // measure 66
1001
0000
1000
0000
,  // measure 67
0100
0000
0001
0000
,  // measure 68
0100
0000
1000
0000
,  // measure 69
0010
0000
0100
0000
,  // measure 70
0110
0000
0010
0000
,  // measure 71
1000
0000
0100
0000
,  // measure 72
0010
0000
0001
0000
,  // measure 73
0100
0000
0010
0000
,  // measure 74
1001
0000
0000
0000
;

//---------------dance-single - ----------------
#NOTEDATA:;
#CHARTNAME:;
#CHARTHASH:3452903090;
#STEPSTYPE:dance-single;
#BANNER:;
#DESCRIPTION:;
#CHARTSTYLE:;
#DIFFICULTY:Easy;
#METER:9;
#METERF:9.000000;
#LASTSECONDHINT:115.324677;
#RADARVALUES:0.344958,0.437349,0.143531,0.067544,0.000000,286.000000,269.000000,17.000000,8.000000,0.000000,0.000000,0.000000,0.000000,0.000000,0.344958,0.437349,0.143531,0.067544,0.000000,286.000000,269.000000,17.000000,8.000000,0.000000,0.000000,0.000000,0.000000,0.000000;
#CREDIT:-YOSEFU-;
#NOTES:
0000
0000
0000
0000
,
0000
0000
0000
0000
,
0000
0000
0000
0000
,
0000
0000
0000
0000
,
0000
0000
0000
0000
,
1000
0100
1000
0100
,
0010
0001
0010
0001
,
1000
0010
1000
0010
,
0100
0001
1000
0100
,
0110
0010
0001
0000
,
1000
0000
0010
0000
,
0100
0100
0000
0001
,
1000
0100
0001
0100
,
1100
1000
0001
0000
,
0100
0000
0010
0000
,
1000
1000
0000
0001
,
0010
0000
0000
0000
0100
1000
0100
0000
,
1001
0001
0100
0010
,
1000
0000
0001
0000
1000
0001
1000
0000
,
0100
0010
0001
1000
,
0010
0000
0100
0000
0001
1000
0001
0000
,
1001
1000
0100
0010
,
0001
0000
1000
0000
0010
1000
0010
0000
,
0100
0001
1000
0100
,
0010
0001
0010
0000
0100
1000
0100
0000
,
1001
0001
0100
0010
,
1000
0000
0100
0000
0010
0001
0010
0000
,
0100
1000
0001
0100
,
0010
0000
0100
0000
0001
1000
0001
0000
,
0011
0010
0100
1000
,
0010
0000
0100
0000
0001
1000
0001
0000
,
0010
0100
0010
0001
,
1000
0010
1000
0000
0010
0100
0010
0000
,
1001
0000
0000
0000
,
2000
0000
0000
0000
,
3200
0000
0000
0000
,
0320
0000
0000
0000
,
0032
0000
0000
0000
,
0203
0000
0000
0000
,
0320
0000
0000
0000
,
2030
0000
0000
0000
,
3002
0000
0000
1003
,
1100
0000
0100
1000
,
0001
0100
0010
1000
,
0001
0000
0000
0000
0000
0010
0000
0100
,
0000
1000
0000
0001
0000
0100
0000
0001
,
0100
0000
0000
0000
0001
1000
0001
0000
,
1001
0000
1000
0100
,
0110
0010
0011
0001
,
1000
0010
1000
0000
0001
0100
0001
0000
,
1001
1000
0100
0001
,
0100
0010
0001
1000
,
0010
0001
0010
1000
,
0100
0001
0100
1000
,
1001
0000
0001
0000
0100
0010
0100
0000
,
0001
0000
1000
0000
0100
0010
0100
0000
,
1000
0000
0001
0000
1000
0010
1000
0000
,
0001
0000
0010
0000
0100
1000
0100
0000
,
1100
1000
0010
0100
,
0001
0000
0010
0000
0100
1000
0100
0000
,
0010
0001
1000
0010
,
0100
0000
0010
0000
1000
0001
1000
0000
,
1100
0100
0010
0001
,
0100
0000
0010
0000
1000
0001
1000
0000
,
0100
0010
0100
1000
,
0001
1000
0010
0000
0100
0010
1000
0000
,
1001
0000
1000
0000
0100
0010
0001
0000
,
1000
0000
0010
0000
0100
0001
1000
0000
,
0100
0000
0010
0000
0100
1000
0001
0000
,
0100
0000
0010
0000
1000
0001
0010
0000
,
0100
0000
0010
0000
0001
1000
0010
0000
,
0100
0000
0001
0000
1000
0100
0010
0000
,
0100
0000
1000
0000
0001
0100
0010
0000
,
1000
0000
0001
0000
0010
0100
1000
0000
,
1001
0000
0000
0000
;

//---------------dance-single - ----------------
#NOTEDATA:;
#CHARTNAME:;
#CHARTHASH:1486617707;
#STEPSTYPE:dance-single;
#BANNER:;
#DESCRIPTION:;
#CHARTSTYLE:;
#DIFFICULTY:Medium;
#METER:14;
#METERF:14.000000;
#LASTSECONDHINT:115.324677;
#RADARVALUES:0.552415,0.656023,0.025329,0.092873,0.350385,458.000000,455.000000,3.000000,11.000000,0.000000,0.000000,0.000000,0.000000,0.000000,0.552415,0.656023,0.025329,0.092873,0.350385,458.000000,455.000000,3.000000,11.000000,0.000000,0.000000,0.000000,0.000000,0.000000;
#CREDIT:-YOSEFU-;
#NOTES:
0000
0000
0000
0000
,
0000
0000
0000
0000
,
0000
0000
0000
0000
,
0000
0000
0000
0000
,
0000
0000
0000
0000
,
1000
0010
1000
0010
1000
0010
1000
0000
,
0001
0010
0001
0010
0001
0010
0001
0000
,
1000
0100
1000
0100
1000
0100
1000
0000
,
0001
0100
0001
0100
0010
1000
0010
1000
,
0001
0000
1000
0100
0010
0000
0001
0000
,
1000
0010
0100
0001
,
1000
0000
1000
0000
0100
0010
0001
1000
,
0010
0001
0010
1000
0100
0001
0100
1000
,
0001
0000
0100
0010
1000
0000
0001
0000
,
0010
0100
1000
0010
,
0001
0000
0010
0000
1000
0100
0001
0100
,
0010
0000
0000
0000
0001
0000
0000
0000
1000
0010
0000
0010
0000
0000
0000
0000
,
0100
0001
0000
1000
0000
0000
0100
0000
0010
0000
0000
0001
0000
0000
1000
0000
,
0010
0100
0000
0001
0000
0000
1000
0000
0100
0000
0010
0000
0001
0000
0100
0000
,
0010
1000
0000
0001
0000
0000
1000
0000
0100
0000
0000
0010
0000
0000
0001
0000
,
1000
0010
0000
0100
0000
0000
0001
0000
1000
0000
0100
0000
0010
0000
0001
0000
,
1000
0010
0000
0100
0000
0000
0001
0000
0010
0000
0000
0100
0000
0000
1000
0000
,
0001
0100
0000
0010
0000
0000
1000
0000
0001
0000
0010
0000
0100
0000
1000
0000
,
0010
0100
0000
0001
0000
0000
1000
0000
0100
0000
0000
0010
0000
0000
0001
0000
,
1000
0010
1000
0000
0001
0000
0010
0000
1000
0000
0010
0000
0100
1000
0100
0000
,
1000
0001
0000
0100
0000
0000
0010
0000
1000
0000
0000
0100
0000
0000
0010
0000
,
0001
1000
0000
0001
0000
0000
0100
0000
0010
0000
1000
0000
0100
0000
0010
0000
,
0001
1000
0000
0010
0000
0000
0100
0000
0001
0000
0000
0010
0000
0000
0100
0000
,
1000
0001
0000
0100
0000
0000
0010
0000
1000
0000
0100
0000
0010
0000
0001
0000
,
0100
0010
0000
1000
0000
0000
0001
0000
0010
0000
0000
0100
0000
0000
1000
0000
,
0001
0100
0000
0010
0000
0000
0100
0000
0001
0000
0010
0000
0100
0000
1000
0000
,
0001
0100
0000
0010
0000
0000
0100
0000
0001
0000
0000
1000
0000
0000
0100
0000
,
0010
0001
0010
0000
0100
0000
1000
0000
0010
0000
0100
0000
0001
1000
0001
0000
,
2002
0000
0000
3003
,
2000
0000
0000
0000
,
3200
0000
0000
0000
,
0320
0000
0000
0000
,
0032
0000
2003
0000
,
3020
0000
0000
0000
,
0230
0000
0000
0000
,
0302
0000
0000
0000
,
2003
0000
0000
0000
0000
0000
3100
0010
,
0011
0000
0000
0000
0000
0001
0100
0100
,
0100
0000
0000
0010
0000
0000
0010
0000
0000
0000
1000
0000
0000
0000
0001
1000
,
0001
0000
0000
0000
0000
1000
0000
0100
,
0000
0000
0010
0000
0000
0000
0001
0000
0000
0000
1000
0000
0000
0000
0010
0100
,
0001
0000
0000
1000
0100
0010
0001
1000
,
0010
0100
0000
0100
0000
0000
0000
0001
,
0100
1000
0100
0001
0010
1000
0010
0001
,
1000
0010
1000
0000
0010
0100
0010
0000
0100
0001
0100
0000
0001
1000
0001
0000
,
1000
0100
0010
0001
0100
0010
0001
0010
,
1000
0010
0100
0001
0010
0100
0001
0100
,
1000
0100
0010
0001
0010
1000
0010
0100
,
1000
0010
0100
0001
0010
1000
0010
0001
,
1000
0000
0010
0000
0100
0000
0001
0000
1000
0001
1000
0000
0010
0000
0100
0000
,
0001
0000
0010
0000
0100
0000
1000
0000
0001
1000
0001
0000
0010
0000
0001
0000
,
0100
0000
0010
0000
1000
0000
0001
0000
0100
0001
0100
0000
0010
0000
1000
0000
,
0001
0000
0010
0000
0100
0000
1000
0000
0001
0100
0000
0100
0000
0000
0000
0000
,
0001
1000
0000
0100
0000
0000
0010
0000
0001
0000
0000
0100
0000
0000
0010
0000
,
1000
0001
0000
1000
0000
0000
0100
0000
0010
0000
0001
0000
0100
0000
0010
0000
,
1000
0001
0000
0010
0000
0000
0100
0000
1000
0000
0000
0010
0000
0000
0100
0000
,
0001
1000
0000
0100
0000
0000
0010
0000
0001
0000
0100
0000
0010
0000
1000
0000
,
0100
0010
0000
0001
0000
0000
1000
0000
0010
0000
0000
0100
0000
0000
0001
0000
,
1000
0100
0000
0010
0000
0000
0100
0000
1000
0000
0010
0000
0100
0000
0001
0000
,
1000
0100
0000
0010
0000
0000
0100
0000
1000
0000
0000
0001
0000
0000
0100
0000
,
0010
1000
0010
0000
0100
0000
0001
0000
0010
0100
0000
0100
0000
0000
0000
0000
,
1000
0000
0010
0000
0100
0000
0001
0000
1000
0100
1000
0000
0001
0000
0100
0000
,
0010
0000
1000
0000
0100
0000
0010
0000
0001
1000
0001
0000
1000
0000
0010
0000
,
0100
0000
0010
0000
1000
0000
0100
0000
0010
0001
0010
0000
0100
0000
1000
0000
,
0001
0000
0100
0000
0010
0000
1000
0000
0001
1000
0001
0000
0010
0000
0100
0000
,
1000
0000
0010
0000
0100
0000
0001
0000
1000
0100
1000
0000
0001
0000
0100
0000
,
0010
0000
1000
0000
0001
0000
0010
0000
0100
1000
0100
0000
0010
0000
0001
0000
,
0100
0000
0010
0000
1000
0000
0001
0000
0010
0001
0010
0000
0100
0000
1000
0000
,
0001
0000
0100
0000
0010
0000
1000
0000
0001
0010
0001
0000
0100
0000
0001
0000
,
1001
0000
0000
0000
;

//---------------dance-single - ----------------
#NOTEDATA:;
#CHARTNAME:;
#CHARTHASH:2703015172;
#STEPSTYPE:dance-single;
#BANNER:;
#DESCRIPTION:;
#CHARTSTYLE:;
#DIFFICULTY:Hard;
#METER:17;
#METERF:17.000000;
#LASTSECONDHINT:115.324677;
#RADARVALUES:0.783995,0.968415,0.016886,0.118202,1.152472,650.000000,648.000000,2.000000,14.000000,0.000000,0.000000,0.000000,0.000000,0.000000,0.783995,0.968415,0.016886,0.118202,1.152472,650.000000,648.000000,2.000000,14.000000,0.000000,0.000000,0.000000,0.000000,0.000000;
#CREDIT:Yosefu's Betrayal;
#NOTES:
0000
0000
0000
0000
,
0000
0000
0000
0000
,
0000
0000
0000
0000
,
0000
0000
0000
0000
,
0000
0000
0000
0000
,
1000
0000
0001
0100
0010
0000
1000
0001
0010
0100
0010
0001
1000
0001
0100
0000
,
0010
0000
1000
0001
0010
0000
0100
1000
0001
0100
0010
0100
0001
1000
0100
0000
,
0010
0000
0001
1000
0010
0000
0100
0001
1000
0100
0010
0100
1000
0001
0100
0000
,
0010
1000
0010
0000
0100
0001
0100
0000
0001
1000
0001
0000
1000
0100
1000
0000
,
0001
0000
0100
0000
0010
0000
1000
0000
0100
0000
0000
0100
1000
0000
0000
0000
,
0001
0000
0000
0001
1000
0000
0000
0000
0010
0000
0000
0010
1000
0000
0000
0100
,
1000
0000
0000
0100
1000
0000
0000
0000
0001
0000
0000
1000
0001
0000
0100
0010
,
1000
0000
0000
1000
0100
0000
0000
0100
0010
0000
0000
0010
0001
0000
0001
0000
,
1000
0000
0010
0000
0100
0000
0001
0000
0010
0000
0000
0010
0001
0000
0000
0000
,
0100
0000
0000
0100
0001
0000
0000
0000
1000
0000
0000
1000
0010
0000
0000
0001
,
0010
0000
0000
0100
0010
0000
1000
0000
0001
0000
0010
0000
1000
0000
0010
0000
,
0002
0000
0000
0000
0100
0000
0000
0000
1003
0010
0000
0010
0000
0000
0000
0000
,
1000
0010
0000
0100
0000
0000
0001
0000
1000
0000
0000
0100
0000
0000
0010
0000
,
0001
1000
0000
0100
0000
1000
0001
0100
0010
0100
0000
0001
0000
1000
0010
0000
,
0100
0010
0000
1000
0000
0001
0010
0000
0100
0000
0000
1000
0000
0001
0100
0000
,
0001
0010
0000
0100
0000
1000
0001
0000
0100
0001
0100
0010
0000
1000
0000
0100
,
1000
0001
0000
0100
0000
0000
0001
0000
0010
0000
0000
0100
0000
0000
1000
0000
,
0001
0010
0000
0001
0000
0100
0001
1000
0010
1000
0000
0001
0000
1000
0010
0000
,
0100
0010
0000
1000
0000
0100
0010
0000
0001
0000
1000
0010
0000
1000
0010
0000
,
1000
0010
0100
0010
0001
0010
0100
0001
0010
0100
1000
0010
0100
0001
1000
0100
,
0010
0001
0000
1000
0000
0000
0010
0000
0100
0000
0000
0001
0000
0000
1000
0000
,
0100
0010
0000
0001
0000
1000
0001
0100
0010
0100
0000
0001
0000
1000
0100
0000
,
0010
0001
0000
1000
0000
0001
0100
0000
0010
0000
0000
1000
0000
0001
0100
0000
,
0001
0010
0000
0100
0000
1000
0001
0000
0100
0001
0100
0001
0000
1000
0000
0100
,
0010
0001
0000
1000
0000
0000
0010
0000
0100
0000
0000
0001
0000
0000
0010
0000
,
0100
1000
0000
0001
0000
0100
0001
1000
0100
1000
0000
0001
0000
1000
0010
0000
,
0100
0010
0000
1000
0000
0100
0010
0000
0001
0000
1000
0010
0000
1000
0010
0000
,
1000
0100
0010
0100
0001
0100
0010
0001
1000
0010
0100
0001
0010
0100
1000
0001
,
0100
0000
0000
0000
,
0002
0000
0000
0000
,
0023
0000
0000
0000
,
0230
0000
0000
0000
,
0320
0000
0032
0000
,
2003
0000
3020
0000
,
0230
0000
0302
0000
,
0023
0000
0000
0000
,
0230
0000
0000
0000
2300
0000
0000
0000
3002
0000
0000
0000
0103
0010
1000
0001
,
0010
0000
0001
0000
1000
0010
0100
0100
,
0100
0000
0000
0001
0000
0000
0001
0000
0000
0000
1000
0000
0000
0000
0100
1000
,
0100
0000
0010
0000
0001
0100
0000
0010
,
0000
0000
1000
0000
0000
0000
0100
0000
0000
0000
0010
0000
0000
0000
0001
1000
,
0010
0000
0000
0100
0001
1000
0100
0010
,
0100
1000
0000
1000
0010
0000
0100
0010
,
0001
0010
0100
0010
1000
0001
1000
0000
0100
0010
0100
1000
0001
0100
0010
0000
,
1000
0100
1000
0100
0010
0001
0010
0001
1000
0010
0100
0001
1000
0100
0010
0100
,
1000
0000
0001
0100
0010
0000
1000
0001
0010
0100
1000
0010
0100
0001
1000
0000
,
0001
0000
1000
0100
0010
0000
0100
1000
0001
0100
0010
1000
0100
0010
0001
0000
,
0010
0000
0001
1000
0010
0000
0100
0001
1000
0100
0010
0001
0100
0001
1000
0000
,
0001
0000
1000
0100
0010
0000
0100
1000
0001
0100
0010
1000
0100
0010
0001
0000
,
1000
0000
0001
0100
0010
0000
1000
0001
0010
0100
1000
0010
1000
0001
0010
0000
,
0001
0000
1000
0100
0010
0000
0100
1000
0001
0100
0010
1000
0100
1000
0001
0000
,
0010
0000
0001
1000
0010
0000
1000
0100
0010
1000
0010
0100
1000
0001
0100
0000
,
0010
0000
0100
0001
1000
0000
0010
0100
1000
0100
0010
1000
0001
0010
0100
0000
,
1000
0001
0000
1000
0000
0000
0100
0000
0010
0000
0000
0001
0000
0000
1000
0000
,
0010
0100
0000
0001
0000
1000
0001
0010
0100
0010
0000
0001
0000
1000
0010
0000
,
0100
0001
0000
1000
0000
0001
0010
0000
0100
0000
0000
1000
0000
0001
0010
0000
,
0001
0100
0000
0010
0000
1000
0001
0000
0010
0001
0010
0001
0000
1000
0000
0010
,
0100
0001
0000
1000
0000
0000
0100
0000
0010
0000
0000
0001
0000
0000
0100
0000
,
0010
1000
0000
0001
0000
0010
0001
1000
0010
1000
0000
0001
0000
1000
0100
0000
,
0010
0100
0000
1000
0000
0010
0100
0000
0001
0000
1000
0100
0000
1000
0100
0000
,
1000
0001
1000
0010
0001
0010
0100
0001
0010
0100
1000
0010
0100
0001
0010
0001
,
1000
0000
0001
0100
0010
0000
1000
0010
0100
1000
0100
0010
1000
0001
0010
0100
,
1000
0000
0001
0100
0010
0000
1000
0100
0010
1000
0010
0100
1000
0001
0100
0010
,
1000
0000
0100
0010
0001
0000
1000
0010
0100
1000
0100
0010
1000
0001
0010
0100
,
1000
0000
0001
1000
0100
0000
0010
0100
0001
0100
0010
0001
1000
0010
1000
0000
,
1001
0000
0001
0100
0010
0000
1000
0001
0010
0100
1000
0010
0100
0001
1000
0000
,
0001
0000
1000
0100
0010
0000
0100
1000
0001
0100
0010
1000
0100
0010
0001
0000
,
1000
0000
0010
0100
0001
0000
1000
0100
0010
0001
0100
0010
1000
0001
0010
0000
,
0100
0000
1000
0001
0100
0000
0010
1000
0001
0010
0100
1000
0001
0100
0010
0000
,
1010
0000
0000
0000
;
