#TITLE:AA -rebuild-;
#SUBTITLE:;
#ARTIST:D.J.Amuro;
#TITLETRANSLIT:;
#SUBTITLETRANSLIT:;
#ARTISTTRANSLIT:;
#GENRE:;
#CREDIT:;
#BANNER:AA -rebuild-.png;
#BACKGROUND:AA -rebuild--bg.png;
#LYRICSPATH:;
#CDTITLE:;
#MUSIC:AA -rebuild-.ogg;
#OFFSET:-0.017949;
#SAMPLESTART:33.099995;
#SAMPLELENGTH:12.000000;
#SELECTABLE:YES;
#DISPLAYBPM:174.000000;
#BPMS:0.000000=174.000000
,160.000000=348.000000
,164.000000=174.000000
;
#STOPS:160.000000=0.129000,
160.750000=0.129000,
161.500000=0.129000,
162.250000=0.129000,
163.000000=0.043000,
163.250000=0.043000,
163.500000=0.043000,
163.750000=0.043000,
220.000000=1.034000
;
#BGCHANGES:0.000=AA -rebuild-.mp4=1.000=0=0=0=StretchNoLoop====,
99999=-nosongbg-=1.000=0=0=0 // don't automatically add -songbackground-
;
#KEYSOUNDS:;
#ATTACKS:;

//---------------dance-single - ----------------
#NOTES:
     dance-single:
     :
     Hard:
     13:
     0.617104,0.722205,0.171418,0.317123,0.492826,504.000000,484.000000,20.000000,37.000000,0.000000,0.000000,0.617104,0.722205,0.171418,0.317123,0.492826,504.000000,484.000000,20.000000,37.000000,0.000000,0.000000:
0000
0000
0000
0000
,
0000
0000
0000
0000
,
0000
0000
0000
0000
,
0000
0000
0000
0000
,
0000
0000
0000
0000
,
0000
0000
0000
0000
,
0000
0000
0000
0000
,
0000
0000
0000
0000
,
2002
0000
0000
0003
,
0020
0000
0000
3000
,
0200
0000
0000
0030
,
0002
0000
0303
0000
1000
0001
1000
0001
,
0100
0000
0001
0010
0000
0010
0100
0000
,
1000
0000
0001
0100
0000
0010
1000
0000
,
0001
0000
1000
0100
0000
0100
0010
0000
,
0001
0000
0000
1000
0000
0000
0010
0000
0000
0100
0000
0000
0001
0000
1000
0000
,
2001
0000
3010
0100
0002
0000
0013
0100
,
2000
0000
0000
0000
3010
0000
0100
0000
0020
0000
0000
0000
1030
0000
0000
0001
,
0010
0000
0000
0000
0011
0000
0000
0000
0000
0000
0000
1000
0010
0000
0000
0010
,
0100
0000
0000
0100
0001
0000
0000
0001
1000
0000
0000
1000
0001
0000
0000
0000
,
1002
0000
0103
0010
2000
0000
3100
0010
,
0002
0000
0000
0000
0103
0000
0010
0000
0200
0000
0000
0000
0301
0000
0000
1000
,
0100
1100
0000
0102
,
1003
0000
0000
0010
0003
0000
0100
0000
0001
0000
1000
0000
0001
0000
0000
0000
,
1000
0000
0000
0100
0000
0000
0100
0000
0010
0000
0000
0001
0000
0000
0001
0000
,
1000
0010
0000
1000
0000
0000
0010
0000
0100
0001
0000
0100
0000
0000
0001
0000
,
1000
0000
0000
0001
0000
0000
0001
0000
0010
0000
0000
0100
0000
0000
0100
0000
,
1000
0001
0000
1000
0000
0000
0001
0000
0100
0010
0000
1000
0000
0001
0000
0000
,
1000
0000
0000
0100
0000
0000
0010
0000
0010
0000
0000
0001
0000
0000
1000
0000
,
0001
0100
0000
0001
0000
0000
0100
0000
0010
1000
0000
0010
0000
0000
1000
0000
,
0001
0000
0000
0010
0000
0000
0100
0000
0100
0000
0000
1000
0000
0000
0001
0000
,
1000
0100
0001
0100
1000
0010
0100
0001
,
1000
0001
0000
0100
0000
0000
0010
0000
1000
0000
0000
0001
0000
0000
0100
0000
,
0001
1000
0000
0100
0000
0010
0100
0000
1000
0001
0000
1000
0000
0000
0100
0000
,
1000
0001
0000
0010
0000
0000
0100
0000
1000
0000
0000
0001
0000
0000
0010
0000
,
0001
1000
0000
0010
0000
0100
0010
0000
1000
0001
0000
0010
0000
0100
0000
0000
,
1000
0010
0000
0100
0000
0000
0001
0000
0010
0000
0000
0100
0000
0000
1000
0000
,
0010
0100
0000
0010
0000
1000
0100
0000
0010
0001
0000
0100
0000
0000
0010
0000
,
1000
0001
0000
0100
0000
0000
0001
0000
1000
0000
0000
0100
0000
0000
0010
0000
,
0001
0100
1000
0100
0001
0010
0100
1000
,
0010
0000
0000
0110
0000
0000
0100
0000
0000
0110
0000
0000
0001
1000
0001
1000
,
0001
0000
0101
0100
0010
1000
0001
0000
,
0010
0000
0000
0010
0000
0000
0100
0000
0000
1000
0001
0000
1000
0000
0010
0000
,
0100
0000
0000
0100
0000
0000
0010
0000
0000
1000
0001
0000
1000
0000
0010
0000
,
0100
1000
0100
0001
0010
1000
0010
0001
,
0100
0000
0000
0100
0010
0000
1000
0000
0000
1000
0100
0000
0010
0000
0001
0000
,
1000
0010
0000
0010
0100
0000
0002
0000
0000
0000
0013
0000
0100
0000
1000
0000
,
0010
0100
0000
0010
0100
0000
0001
1000
0001
0000
1000
0000
0100
0000
0010
0000
,
0001
0000
0000
0101
0000
0000
1000
0000
0100
0000
0010
0000
0001
1000
0001
1000
,
0001
0000
0000
0000
0000
1000
0100
0100
,
0100
0000
0000
0010
0000
0000
0001
0000
0000
0000
1000
0000
0000
0000
0001
0100
,
0001
0000
1000
0010
0000
2000
0000
3200
,
0000
0302
0000
0203
0000
1300
0010
0100
,
0202
0000
0303
1000
0001
0010
0100
2000
,
0000
3020
0000
0230
0000
0301
0310
0100
,
2002
0000
3003
0000
1000
0000
0000
0100
0000
0000
0010
0000
0001
0000
0100
0000
,
0001
1000
0001
0000
1000
0000
0100
0000
0010
0000
0100
0000
0001
0000
0100
0000
,
0010
0100
1000
0100
0010
0100
0001
0100
,
0010
0100
0010
1000
0010
0100
0010
0001
,
0010
0000
0100
0000
0010
0000
1000
0000
0010
0000
0100
0000
1000
0100
1000
0000
,
0001
0010
0001
0000
1000
0000
0010
0000
0001
0000
0010
0000
1000
0000
0010
0000
,
0001
0010
1000
0100
0001
0100
1000
0100
,
0001
0100
1000
0010
0001
0010
1000
0100
,
0001
0000
0100
0000
0010
0000
0000
0110
0000
0000
0001
0000
1000
0001
1000
0000
,
0001
0000
0000
0000
1000
0010
0030
0200
0000
0000
0301
0000
0010
0000
0000
0010
,
0000
0000
0100
0000
1000
0001
0000
0100
0000
0000
0001
0000
1000
0100
0000
0010
,
0000
0000
0001
0000
0100
0010
0000
0200
0000
0000
0301
0000
0010
0000
0000
0010
,
0000
0000
0100
0000
1000
0010
0000
0100
0000
0001
1000
0000
0001
0010
0000
0100
,
0000
1000
0000
0000
0001
0100
0300
0020
0000
0000
1030
0000
0100
0000
0000
0100
,
0000
0000
0010
0000
0001
1000
0000
0010
0000
0000
1000
0000
0001
0010
0000
0100
,
0000
0000
1000
0000
0010
0100
0000
0020
0000
0000
1030
0000
0100
0000
0000
0100
,
0000
0000
0010
0000
0001
0000
0000
1000
0000
0000
0010
0000
0100
0000
0001
0000
,
1000
0100
2100
0000
3001
0100
1000
0100
,
0001
0010
0100
1000
0010
0100
0201
0000
,
0310
1000
1002
0000
0013
1000
0010
0001
,
0100
0000
0100
0000
0010
0000
0000
0110
0000
0000
1000
0000
0200
0000
0000
0000
,
0313
0000
1002
0000
0103
0010
0100
1000
,
0100
0010
0100
0001
0100
0010
2000
0000
,
3100
0000
2001
0000
3010
0100
0010
0001
,
0010
0000
0100
0000
0001
0000
0000
0101
0000
0000
1000
0000
0100
0000
0010
0000
,
0001
1000
0001
0000
0100
0000
0000
0000
0000
0000
0000
0000
0000
0000
0000
0000
;

//---------------dance-single - ----------------
#NOTES:
     dance-single:
     :
     Challenge:
     16:
     0.821581,0.962939,0.299981,0.377119,1.019936,671.000000,636.000000,35.000000,44.000000,0.000000,0.000000,0.821581,0.962939,0.299981,0.377119,1.019936,671.000000,636.000000,35.000000,44.000000,0.000000,0.000000:
0000
0000
0000
0000
,
0000
0000
0000
0000
,
0000
0000
0000
0000
,
0000
0000
0000
0000
,
0000
0000
0000
0000
,
0000
0000
0000
0000
,
0000
0000
0000
0000
,
0000
0000
0000
0000
,
2002
0000
0000
3000
,
0200
0000
0000
0003
,
0020
0000
0000
0300
,
2000
0000
0000
0000
3030
0000
0001
1000
3031
0000
1000
0100
1000
0001
0100
0001
,
1000
0000
1100
0100
0010
0001
1000
0000
,
0001
0000
0101
0100
0010
1000
0001
0000
,
1000
0000
1010
0010
0100
0001
1000
0000
,
0001
0010
0000
0100
1000
0000
0001
0100
0000
0010
1000
0000
0001
1000
0001
1000
,
0020
0000
0000
0000
0130
0000
0001
0000
1000
0100
0010
0000
0001
0000
1000
0000
,
0010
0000
0010
0000
0100
0000
0001
0010
0100
0000
1000
0000
0002
0000
0000
0103
,
0010
0000
1000
0000
1100
0000
0000
0000
0000
0000
0000
3001
1000
0000
0000
0001
,
0100
0001
0000
1000
0100
1000
0000
0001
0010
0001
0000
1000
0010
1000
0000
0001
,
0200
0000
0000
0000
0310
0000
1000
0000
0001
0010
0100
0000
1000
0000
0001
0000
,
0100
0000
0100
0000
0010
0000
1000
0100
0010
0000
0001
0000
2000
0000
0000
3010
,
0100
0000
0001
0000
0011
0000
0000
0000
0000
0000
0000
1003
0001
0000
0000
0000
,
0101
0000
0000
0110
0000
0000
1000
0000
0001
0013
0100
1000
0010
0100
0010
1000
,
0001
1000
0000
0010
0000
0000
0100
0000
0001
0000
0000
1000
0000
0000
0010
0000
,
1000
0001
0000
0010
0000
0100
0010
0000
0001
1000
0000
0001
0000
0000
0010
0000
,
0001
1000
0000
0100
0000
0000
0010
0000
0001
0000
0000
1000
0000
0000
0100
0000
,
1000
0001
0000
0100
0000
0010
0100
0000
0001
1000
0000
0100
0000
0010
0000
0000
,
0001
0100
0000
0100
0000
0000
0010
0000
2000
0000
0000
3002
0000
0000
0013
0000
,
0100
1000
0000
0001
0000
1000
0100
0000
0010
0001
0000
0100
0000
0000
0010
0000
,
1000
0100
0000
0100
0000
0000
0010
0000
0002
0000
0000
2003
0000
0000
3010
0000
,
0110
0000
0000
0101
0000
0000
1000
0100
1000
0001
0100
0010
1000
0100
0010
0001
,
1000
0010
0000
0010
0000
0100
0001
0000
1000
0100
0000
0100
0000
0010
0001
0000
,
1000
0010
1000
0001
0000
0001
0010
0000
0100
1000
0001
1000
0000
0001
0100
0000
,
0001
0010
0000
0100
0000
0100
1000
0000
0001
0100
0000
0010
0000
0100
0001
0000
,
1000
0100
0010
0001
0000
1000
0010
0000
0100
0001
1000
0100
0000
0100
0010
0000
,
0001
0100
0000
0100
0000
0010
1000
0000
0001
0010
0000
0010
0000
0100
1000
0000
,
0001
0100
0001
1000
0000
1000
0100
0000
0010
0001
1000
0001
0000
1000
0010
0000
,
1000
0100
0000
0010
0000
0010
0001
0000
1000
0010
0000
0100
0000
0010
1000
0000
,
0001
0010
0100
1000
0010
0100
0001
1000
0100
0010
0001
1000
0001
0100
0010
1000
,
0001
0000
0000
0101
0000
0000
1010
0000
0000
1001
0000
0000
1000
0001
1000
0001
,
0010
0000
0000
0010
0030
0000
0100
0000
0000
0100
1000
0000
0001
0000
1000
0000
,
0010
0000
0000
0010
0000
0000
0100
0000
0000
0100
0001
0000
1000
0000
0001
0000
,
0010
0000
0000
0010
0000
0000
0100
0000
0000
0100
1000
0000
0010
0000
0100
0000
,
0001
0100
0001
0000
1000
0100
1000
0000
0001
0010
0100
1000
0010
0100
0001
1000
,
0001
0000
0000
1000
0010
0000
0002
0000
0000
0013
1000
0000
0001
0000
1000
0000
,
0001
0010
0000
0100
1000
0000
0020
0000
0000
0000
0130
0000
0001
0000
1000
0000
,
0200
0000
0000
0302
0000
0000
0103
1000
0100
0000
1000
0000
0010
0000
0100
0000
,
0101
0000
0000
0110
0000
0000
1000
0000
0001
0010
0100
1000
0010
0100
0001
1000
,
0001
0000
0000
0000
0000
1000
0100
0100
,
0100
0000
0000
0010
0000
0000
0002
0000
0000
0000
2003
0000
0000
0000
3010
0100
,
0010
0000
1000
0010
0000
1010
0000
0110
,
0000
0000
0101
0000
0000
0000
1001
0000
0000
0000
0001
0000
0010
0000
0001
1000
,
0002
0000
0103
0100
0010
1000
0100
0010
,
0001
0100
0000
0100
0010
0000
1000
0100
0000
0100
0010
0000
0001
1000
0001
0000
,
2002
0000
3003
0000
0001
0100
0010
0000
1000
0100
0010
0000
0001
1000
0010
0100
,
0010
1000
0100
0010
0001
0000
0100
0000
0010
0000
1000
0000
0100
0010
0001
0000
,
1000
0010
1020
1030
0100
0010
0021
0031
,
0100
0010
0120
0130
0001
0010
0120
0130
,
1000
0001
1002
1003
0010
0100
0201
0301
,
1000
0100
0010
0001
2003
0000
0000
0000
3010
0000
0100
0001
1000
0000
0001
0000
,
0010
0000
0100
0000
1200
0000
1300
0000
0001
0000
0100
0010
1000
0000
0001
0000
,
0010
0000
0001
1000
0002
0000
0000
0000
0103
0000
0000
0000
0001
0000
0010
0100
,
1000
0000
0000
0000
1010
0000
0000
0110
0000
0000
0001
0000
1000
0100
0010
0001
,
0100
0010
1000
0001
1000
0010
0000
0100
0000
0100
0001
1000
0200
0000
0000
0302
,
0000
0000
0103
0000
1000
0010
0000
0100
0000
0001
0010
0100
1000
0010
0000
0010
,
0000
0100
0001
1000
0001
0100
0000
0010
0000
0010
1000
0001
0020
0000
0000
2030
,
0000
0000
3010
0000
0001
0100
0000
0100
0000
0001
0010
0100
1000
0001
0000
0100
,
0000
0010
1000
0001
1000
0010
0000
0001
0000
0010
1000
0000
0001
0010
0000
1000
,
0000
0010
0001
0000
1000
0010
0000
0100
0000
0001
0100
0001
0100
0010
0000
1000
,
0000
0001
1000
0000
0001
0010
0000
1000
0000
0010
0001
0000
1000
0010
0000
0001
,
0000
0010
1000
0000
1010
0000
0000
0110
0000
0000
0001
0000
1000
0100
0010
0001
,
0100
0010
1000
0001
2000
0000
0100
0000
3001
0000
1000
0010
0100
0000
0001
0000
,
1000
0000
0100
0000
0010
0000
0001
0000
0100
0000
0010
1000
0002
0000
0010
0000
,
1003
0000
0001
0100
0020
0000
0001
0000
0130
0000
0001
0000
1000
0000
0100
0000
,
0020
0000
2030
0000
3020
0000
0031
1000
0000
0010
0100
0000
0210
0000
0000
0000
,
0310
1000
0100
0010
0002
0000
0010
0000
1003
0000
0001
0100
0010
0000
1000
0000
,
0001
0000
0010
0000
0100
0000
1000
0000
0010
0000
0100
0001
2000
0000
0100
0000
,
3001
0000
1000
0010
0100
0001
0100
0001
1000
0000
0100
0000
0010
0100
0010
0100
,
1000
0000
0001
0000
1001
0000
0000
0110
0000
0000
1001
0000
0001
0010
0100
1000
,
0010
0100
0001
1000
0001
0000
0000
0000
0000
0000
0000
0000
0000
0000
0000
0000
;

//---------------dance-single - ----------------
#NOTES:
     dance-single:
     :
     Medium:
     10:
     0.433442,0.584642,0.325694,0.702813,0.000000,354.000000,316.000000,38.000000,82.000000,0.000000,0.000000,0.433442,0.584642,0.325694,0.702813,0.000000,354.000000,316.000000,38.000000,82.000000,0.000000,0.000000:
0000
0000
0000
0000
,
0000
0000
0000
0000
,
0000
0000
0000
0000
,
0000
0000
0000
0000
,
0000
0000
0000
0000
,
0000
0000
0000
0000
,
0000
0000
0000
0000
,
0000
0000
0000
0000
,
2002
0000
0000
3000
,
0200
0000
0000
0003
,
0020
0000
0000
0300
,
2000
0030
0002
3003
,
1001
0000
1000
0000
0000
0001
0100
0000
,
0010
0000
0110
0000
0000
0010
1000
0000
,
0001
0000
1001
0000
0000
1000
0100
0000
,
1000
0010
0100
0000
0001
0010
0100
0000
,
2000
3010
1020
0130
,
0210
0301
0102
1003
,
2001
3100
0000
2000
,
3200
0320
0032
2003
,
3001
0100
0201
0310
,
0120
1030
2010
3001
,
1002
0000
0013
0030
0000
0000
0002
0000
,
0203
0310
2002
3003
,
1000
0001
0100
0000
0001
0000
1000
0000
,
0001
1000
0100
0000
1000
0000
0001
0000
,
1000
0001
0010
0000
0001
0000
1000
0000
,
0001
1000
0010
0000
0100
0000
0000
0000
,
0001
0100
0001
0000
0100
0000
0010
0000
,
1000
0100
1000
0000
0100
0000
0010
0000
,
0001
0010
0001
0000
0100
0000
0010
0000
,
2000
3002
0203
0310
,
2002
0000
3003
0000
1000
0001
0100
0000
,
0001
1000
0100
0000
1000
0001
0010
0000
,
0200
0010
0000
0310
,
0001
1000
0010
0000
0100
0010
0100
0000
,
2002
0000
3003
0000
0001
1000
0010
0000
,
1000
0001
0010
0000
0001
1000
0100
0000
,
0020
0100
0000
0130
,
1000
0010
1000
0010
0100
0001
0100
0000
,
0002
0000
0000
2003
0000
0000
3100
0000
,
2002
0000
3003
1000
,
0001
0100
0010
0000
0100
0010
1000
0000
,
0001
0010
0100
1000
,
0001
0100
0001
0100
0010
1000
0010
1000
,
0100
0000
0000
2200
0000
3300
0001
1000
,
0001
0000
0000
0202
0000
0303
1000
0001
,
1000
0001
0010
0100
,
1000
0010
0100
0000
0001
0010
0100
1000
,
0002
0000
0000
0000
0003
0000
1000
0100
,
1000
0000
0001
0100
0000
0100
0000
0010
,
1000
0000
0001
0010
0000
0002
0000
0203
,
0000
0320
0000
2030
0000
3002
0000
0013
,
0020
0000
0030
0000
0001
0100
0001
2000
,
0000
3020
0000
0230
0000
0000
0310
0000
,
2002
3003
1100
0000
0101
0000
0011
0000
,
1010
0000
1002
0000
0013
0100
0010
0100
,
2000
0000
3001
0000
1000
0010
1000
0010
,
0200
0000
0301
0000
1000
0001
1000
0001
,
0200
0000
0301
0010
0100
0000
0220
0000
,
0330
0000
2001
0000
3100
0010
0100
0010
,
0002
0000
1003
0000
0001
0100
0001
0100
,
0020
0000
1030
0000
0001
1000
0001
1000
,
0020
1030
1100
0001
,
0131
0000
2002
0000
3003
0000
0001
0100
,
0010
0000
1000
0010
0100
0000
0001
0010
,
0100
0020
0100
0000
,
0031
2000
3002
0203
,
0310
0000
2002
0000
3003
0000
1000
0010
,
0100
0000
0001
0100
0010
0000
1000
0100
,
0010
0200
0010
0000
,
1300
2002
3003
0202
,
0303
0000
1000
0010
0100
0000
0010
1000
,
0100
0000
1000
0010
0100
0000
0002
0000
,
1003
0000
0001
0010
0100
0000
0010
0001
,
0100
0000
0001
0010
0100
0000
2000
0000
,
3001
2002
0000
3003
,
1000
0000
0001
0100
0010
0000
1000
0010
,
0100
0002
0013
0200
,
1300
1100
0101
0011
,
1010
1001
0000
0000
;

//---------------dance-single - ----------------
#NOTES:
     dance-single:
     :
     Easy:
     6:
     0.265698,0.378298,0.094280,0.557108,0.000000,217.000000,206.000000,11.000000,65.000000,0.000000,0.000000,0.265698,0.378298,0.094280,0.557108,0.000000,217.000000,206.000000,11.000000,65.000000,0.000000,0.000000:
0000
0000
0000
0000
,
0000
0000
0000
0000
,
0000
0000
0000
0000
,
0000
0000
0000
0000
,
0000
0000
0000
0000
,
0000
0000
0000
0000
,
0000
0000
0000
0000
,
0000
0000
0000
0000
,
2000
0000
0000
3000
,
0020
0000
0000
0030
,
0200
0000
0000
0300
,
0002
0000
0000
0003
,
1000
0100
0000
0100
,
0010
0001
0000
0001
,
0100
0010
0000
0010
,
1000
0001
1000
0000
,
0001
0100
0020
1030
,
0002
0013
0200
1300
,
0002
0103
0000
0200
,
0320
2030
3002
0023
,
0130
1000
0020
0130
,
0002
0013
0200
1300
,
0020
0130
0000
0002
,
2003
3000
0002
0003
,
1000
1001
0001
0100
,
0010
0010
1000
0001
,
0010
0110
0100
1000
,
0010
0010
0100
0000
,
0001
1001
1000
0010
,
0100
0100
0001
1000
,
0100
0110
0010
0001
,
0100
0100
0010
0000
,
1000
0010
0200
0300
,
0002
0003
2000
3000
,
0200
0300
0000
1000
,
0020
0230
0302
2003
,
3001
0013
0200
2300
,
3020
0230
0302
2003
,
3020
0000
0030
0010
,
0200
0300
0020
3033
,
2002
0000
0000
3003
,
2002
3003
0000
0000
,
1000
0001
0100
0000
,
0001
1000
0100
0000
,
1000
1000
0010
0010
,
0100
0000
0000
0100
0000
0000
0100
0000
,
0010
0000
0000
0010
0000
0000
0010
0000
,
1000
1000
0001
0001
,
0010
0100
1000
0001
,
2002
0000
0000
3003
,
0002
0000
0000
0003
,
0200
0000
0000
0300
,
0020
0000
0000
0030
,
1000
0000
0001
0000
,
0010
0000
0010
0100
,
1001
0330
0000
0000
0000
0000
0010
0000
,
0010
1001
0000
0001
,
1000
0010
0010
0100
,
0100
0001
0001
0010
,
0010
0100
0100
1000
,
0001
1000
0000
0001
,
1000
0010
0010
0100
,
0100
0020
0000
0030
,
1000
0001
0010
0100
,
1000
0002
0103
0001
,
1000
0002
0013
0001
,
0000
2000
3100
1000
,
0001
2000
3010
1000
,
0000
0001
0001
1000
,
1000
0100
0100
0010
,
0010
0002
0000
0003
,
1000
0020
0030
0200
,
0300
0002
0000
0000
,
0003
0100
0010
2000
,
3000
0002
0000
0003
,
0010
0200
0300
2000
,
3000
2002
0000
0000
,
3003
1000
0010
0200
,
0300
0020
0000
0030
,
1000
0002
0003
2000
,
3000
1001
0000
0000
;

//---------------dance-single - ----------------
#NOTES:
     dance-single:
     :
     Beginner:
     3:
     0.132237,0.171953,0.051425,0.000000,0.000000,108.000000,102.000000,6.000000,0.000000,0.000000,0.000000,0.132237,0.171953,0.051425,0.000000,0.000000,108.000000,102.000000,6.000000,0.000000,0.000000,0.000000:
0000
0000
0000
0000
,
0000
0000
0000
0000
,
0000
0000
0000
0000
,
0000
0000
0000
0000
,
0000
0000
0000
0000
,
0000
0000
0000
0000
,
0000
0000
0000
0000
,
0000
0000
0000
0000
,
0001
0000
0000
0000
,
1000
0000
0000
0000
,
0010
0000
0000
0000
,
0100
0000
0000
0000
,
1001
0000
0000
0000
,
1000
0000
0000
0000
,
0100
0000
0000
0000
,
0010
0000
0000
0000
,
0000
0000
0001
0000
,
0001
0000
0001
0000
,
0001
0000
0000
0100
,
0100
0000
0100
0000
,
0100
0000
0010
0000
,
0010
0000
0010
0000
,
0010
0000
0000
1000
,
1000
0000
1000
0000
,
1000
0000
0000
0000
,
0001
0000
0001
0000
,
0001
0000
0000
0000
,
0010
0000
0010
0000
,
0010
0000
0000
0000
,
0100
0000
0100
0000
,
0100
0000
0000
0000
,
1000
0000
0000
0000
,
0000
0000
0010
0000
,
0010
0000
0010
0000
,
0010
0000
0000
0100
,
0100
0000
0000
0000
,
0001
0000
0001
0000
,
0001
0000
0001
0000
,
0001
0000
0000
1000
,
1000
0000
0000
0000
,
1001
0000
0000
0000
,
0000
0000
0000
0000
,
1000
0000
0000
0000
,
0001
0000
0000
0000
,
0100
0000
0100
0000
,
0100
0000
0000
0000
,
0010
0000
0000
0000
,
1000
0000
1000
0000
,
1000
0000
0000
0000
,
1001
0000
0000
0000
,
0001
0000
0000
0000
,
0010
0000
0000
0000
,
0100
0000
0000
0000
,
1000
0000
0000
0000
,
0001
0000
0000
0000
,
0100
0000
0000
0000
,
0000
0001
0001
0000
,
0000
0001
0000
0001
,
0000
0001
0000
0000
,
0000
1000
0000
1000
,
0000
1000
1000
0000
,
0000
1000
0000
1000
,
0000
1000
0000
0000
,
0000
0010
0000
0000
,
0000
1001
0000
0000
,
0000
1000
0000
1000
,
0000
1000
0000
0000
,
0000
0100
0100
0100
,
0000
0100
0000
0000
,
0000
0010
0000
0010
,
0000
0010
0000
0000
,
0001
0001
0000
0000
,
0000
1001
0000
0000
,
0000
0000
0000
0001
,
0000
0100
0000
0000
,
0010
0010
0000
0010
,
0000
0010
0000
0000
,
0000
0000
0000
1000
,
0000
0100
0000
0000
,
0010
0010
0000
0000
,
0000
1001
0000
0000
;

//---------------dance-double - ----------------
#NOTES:
     dance-double:
     :
     Challenge:
     16:
     0.762809,0.859767,0.282839,0.385690,0.865660,623.000000,590.000000,33.000000,45.000000,0.000000,0.000000,0.762809,0.859767,0.282839,0.385690,0.865660,623.000000,590.000000,33.000000,45.000000,0.000000,0.000000:
// measure 0
00000000
00000000
00000000
00000000
,  // measure 1
00000000
00000000
00000000
00000000
,  // measure 2
00000000
00000000
00000000
00000000
,  // measure 3
00000000
00000000
00000000
00000000
,  // measure 4
00000000
00000000
00000000
00000000
,  // measure 5
00000000
00000000
00000000
00000000
,  // measure 6
00000000
00000000
00000000
00000000
,  // measure 7
00000000
00000000
00000000
00000000
,  // measure 8
00022000
00000000
00000000
00030000
,  // measure 9
00000200
00000000
00000000
00003000
,  // measure 10
00000020
00000000
00000000
00000300
,  // measure 11
00020000
00000000
00000030
00000000
00030000
00000000
00000100
00010000
00000100
00000000
00010000
00001000
00010000
00001000
00010000
00001000
,  // measure 12
00100000
00000000
00110000
00010000
10000000
00100000
01000000
00000000
,  // measure 13
00001000
00000000
00011000
00010000
00000100
00000010
00000001
00000000
,  // measure 14
00001000
00000000
00001010
00000010
00000100
00000001
00001000
00000000
,  // measure 15
00000100
00010000
00000000
00010000
00001000
00000000
00100000
00010000
00000000
00010000
10000000
00000000
00010000
01000000
00100000
10000000
,  // measure 16
00020000
00000000
00000000
00000000
10030000
00000000
01000000
00000000
00100000
00010000
01000000
00000000
00001000
00000000
00010000
00000000
,  // measure 17
00000100
00000000
00000100
00000000
00001000
00000000
00000001
00000100
00000010
00000000
00001000
00000000
00000100
00000000
00010000
00001000
,  // measure 18
00010000
00000000
00000000
00000000
00011000
00000000
00000000
00000000
00000000
00000000
00000000
00100000
00001000
00000000
00000000
00100000
,  // measure 19
00010000
00100000
00000000
00001000
00010000
00001000
00000000
00010000
00000010
00010000
00000000
00000010
00000100
00000010
00000000
00001000
,  // measure 20
00000002
00000000
00000000
00000000
00003013
00000000
00000100
00000000
00001000
00000010
00010000
00000000
00001000
00000000
00100000
00000000
,  // measure 21
01000000
00000000
01000000
00000000
10000000
00000000
00100000
01000000
00010000
00000000
00100000
00000000
00001000
00000000
00010000
00001000
,  // measure 22
00010000
00011000
00000000
00010020
,  // measure 23
00000130
00000000
00000000
00001000
00000000
00000000
00010000
00000000
00001000
00100000
00001000
00000000
00010000
00000000
00000000
00000000
,  // measure 24
00001000
00010000
00000000
00001000
00000000
00000000
00000100
00000000
00000010
00000000
00000000
00001000
00000000
00000000
00000100
00000000
,  // measure 25
00010000
00001000
00000000
00010000
00000000
01000000
00100000
00000000
00010000
10000000
00000000
00100000
00000000
00000000
01000000
00000000
,  // measure 26
00001000
00010000
00000000
00001000
00000000
00000000
00000100
00000000
00000010
00000000
00000000
00001000
00000000
00000000
00000100
00000000
,  // measure 27
00010000
00001000
00000000
00010000
00000000
00100000
01000000
00000000
00010000
10000000
00000000
00100000
00000000
01000000
03000000
00000000
,  // measure 28
00001000
00010000
00000000
00010000
00000000
00000000
00000100
00000000
00000020
00000000
00000000
00000032
00000000
00000000
00001003
00000000
,  // measure 29
00000001
00000100
00000000
00000100
00000000
00000010
00001000
00000000
00000100
00010000
00000000
00001000
00000000
00100000
00001000
00000000
,  // measure 30
00010000
00001000
00000000
00001000
00000000
00000000
01000000
00000000
00200000
00000000
00000000
20300000
00000000
00000000
30010000
00000000
,  // measure 31
01000000
00000000
00000000
00100000
00000000
00000000
00010000
00000000
00001000
00010000
00001000
00000000
00010000
00000000
00000000
00000000
,  // measure 32
00001000
00100000
00000000
01000000
00000000
10000000
00100000
00000000
01000000
00000000
00000000
01000000
00000000
00000000
00010000
00000000
,  // measure 33
00100000
00001000
00100000
00001000
00000000
00010000
00000100
00000000
00001000
00000010
00001000
00000010
00000000
00010000
00001000
00000000
,  // measure 34
00010000
00000100
00000000
00000010
00000000
00000001
00000100
00000000
00000010
00000000
00000000
00000010
00000000
00000000
00001000
00000000
,  // measure 35
00000100
00010000
00000100
00010000
00000000
00001000
00100000
00000000
00010000
01000000
00000000
00100000
00000000
00010000
00000000
00001000
,  // measure 36
00100000
01000000
00000000
03010000
00000000
00001000
01000000
00000000
00200000
00000000
00000000
00320000
00000000
00000000
00031000
00000000
,  // measure 37
00010000
00000100
00000000
00000010
00000000
00000001
00000100
00000010
00001000
00000100
00000000
00010000
00000000
00001000
00010000
00000000
,  // measure 38
00000010
00000100
00000000
00001030
00000000
00010000
00000100
00000000
00000020
00000000
00000000
00002330
00000000
00000000
00013000
00000000
,  // measure 39
00001000
00000000
00000000
00101000
00000000
00000000
00100000
00000000
00010000
00000000
01000000
00000000
00001000
01000000
00100000
00010000
,  // measure 40
00001000
00000000
00000000
00101000
00000000
00000000
00010000
00000000
00000000
00010010
00000000
00000000
00010000
00001000
00010000
00001000
,  // measure 41
00010000
00000000
00000000
00010000
00000000
00000000
00001000
00000000
00000000
00001000
00000010
00000000
00001000
00000000
00010000
00000000
,  // measure 42
00001000
00000000
00000000
00001000
00000000
00000000
00010000
00000000
00000000
00010000
00100000
00000000
00010000
00000000
00001000
00000000
,  // measure 43
00100000
00000000
00000000
00100000
00000000
00000000
01000000
00000000
00000000
01000000
10000000
00000000
00100000
00000000
00010000
00000000
,  // measure 44
00001000
00100000
00001000
00000000
00010000
00001000
00010000
00000000
00000100
00001000
00000100
00000000
00001000
00000010
00000100
00000001
,  // measure 45
00001000
00000000
00000000
00000001
00000100
00000000
00002000
00000000
00000000
00003100
00000001
00000000
00000010
00000000
00000100
00010000
,  // measure 46
00000100
00010000
00000000
00001000
01000000
00000000
00200000
00000000
00000000
00000000
00310000
00000000
00100000
30000000
10000000
00000000
,  // measure 47
00010000
00100000
00000000
00010000
00100000
00000000
00001000
00100000
00001000
00000000
00010000
00000000
00000100
00000000
00001000
00000000
,  // measure 48
00001010
00000000
00000000
00000110
00000000
00000000
00000001
00000000
00001000
00000100
00000010
00000001
00000100
00000010
00010000
00001000
,  // measure 49
00010000
00000000
00000000
00000000
00000000
00001000
00100000
00100000
,  // measure 50
00100000
00000000
00000000
01000000
00000000
00000000
10000000
00000000
00000000
00000000
00010000
00000000
00000000
00000000
01000000
00100000
,  // measure 51
01000000
00000000
00010000
00100000
00000000
11000000
00000000
00110000
,  // measure 52
00000000
00000000
00001100
00000000
00000000
00000000
00000011
00000000
00000000
00000000
00001000
00000000
00000001
00000000
00000100
00000010
,  // measure 53
00000200
00000000
00000301
00000010
00001000
00010000
01000000
00200000
,  // measure 54
00000000
00302000
00000000
02003000
00000000
03100000
00010000
00001000
,  // measure 55
00022000
00000000
00033000
00000000
00101000
00000000
00000000
00011000
00000000
00000000
00000010
00000000
00001000
00000100
00010000
00000000
,  // measure 56
00001000
00100000
00120000
01030000
00100000
10000000
00010000
00100000
,  // measure 57
00001000
00010000
00010200
00001300
00000010
00000100
00000102
00001003
,  // measure 58
00000100
00010000
00012000
00103000
00010000
01000000
02100000
03010000
,  // measure 59
00100000
00000000
01000000
00000000
21000000
00000000
30100000
00000000
01000000
00000000
00001000
00010000
00001000
00000100
00000010
00000000
,  // measure 60
00001000
00000000
00000001
00001000
00000002
00000000
00003000
00000000
00000013
00000000
00000100
00010000
00001000
00000000
00100000
00000000
,  // measure 61
00001000
00000000
01000000
00000000
01020000
00000000
10030000
00000000
01000000
00000000
00100000
00010000
10000000
00000000
00100000
00000000
,  // measure 62
01000000
00000000
00010000
00100000
00002000
00000000
00000000
00000000
00013000
00000000
00000000
00000000
00000100
00000000
00010000
00000000
,  // measure 63
00011000
00000000
00000000
00000000
00100000
00000000
00000000
00101000
00000000
00000000
00001000
00000000
00010000
00000010
00000100
00000010
,  // measure 64
00001000
00000001
00000010
00000100
00001000
00000010
00000000
00000100
00000000
00000100
00000001
00000000
00000020
00000000
00000000
00002030
,  // measure 65
00000000
00000000
00013000
00000000
00001000
01000000
00000000
00100000
00000000
10000000
00100000
10000000
00010000
01000000
00000000
00100000
,  // measure 66
00000000
10000000
01000000
00100000
00010000
01000000
00000000
00100000
00000000
00100000
10000000
00000000
02000000
00000000
00000000
03020000
,  // measure 67
00000000
00000000
00031000
00000000
00010000
00000010
00000000
00000100
00000000
00000001
00000100
00000001
00001000
00000100
00000000
00010000
,  // measure 68
00000000
00001000
01000000
00000000
00010000
00100000
00000000
10000000
00000000
00100000
00010000
00000000
10000000
00100000
00000000
01000000
,  // measure 69
00000000
00001000
00010000
00000000
00000100
00010000
00000100
00010000
00000000
00000100
00000010
00000000
00000001
00001000
00000001
00000100
,  // measure 70
00000000
00000100
00000010
00000000
00001000
00000100
00000000
00000001
00000000
00000100
00001000
00000000
00000001
00000100
00000000
00000010
,  // measure 71
00000000
00010000
00001000
00000000
00100000
00000000
00000000
00110000
00000000
00000000
00010000
00000000
10000000
00100000
01000000
00000000
,  // measure 72
00010000
00100000
01000000
10000000
00020000
00000000
01000000
00000000
10030000
00000000
00100000
00000000
01000000
00010000
00100000
00000000
,  // measure 73
00001000
00000000
00010000
00000000
00000100
00000010
00000001
00000000
00001000
00000000
00000010
00000000
00000200
00000000
00000001
00000000
,  // measure 74
00000310
00000000
00001000
00000000
00000002
00000000
00000010
00000000
00001003
00000000
00000001
00000000
00000100
00000010
00001000
00000000
,  // measure 75
00000200
00000000
00020300
00000000
00032000
00000000
01003000
00100000
00000000
01000000
00100000
00000000
00010000
00000000
00000100
00000000
,  // measure 76
00001000
00000000
00000000
00000000
00002001
00000000
00000000
00000000
00003001
00000000
00000100
00000000
00000010
00001000
00000100
00000000
,  // measure 77
00010000
00000000
00001000
00000000
00100000
01000000
10000000
00000000
00010000
00000000
01000000
00000000
00200000
00000000
10000000
00000000
,  // measure 78
01300000
00000000
00010000
00000000
10000000
01000000
10000000
00000000
00100000
00000000
01000000
00000000
00001000
00010000
00001000
00000000
,  // measure 79
00010000
00000000
00000100
00000000
00001100
00000000
00000000
00000110
00000000
00000000
00001001
00000000
00000001
00000100
00000010
00001000
,  // measure 80
00000100
00010000
00001000
00100000
00010000
00000000
00000000
00000000
00000000
00000000
00000000
00000000
00000000
00000000
00000000
00000000
;

//---------------dance-double - ----------------
#NOTES:
     dance-double:
     :
     Hard:
     13:
     0.592616,0.653423,0.137134,0.377119,0.355692,484.000000,468.000000,16.000000,44.000000,0.000000,0.000000,0.592616,0.653423,0.137134,0.377119,0.355692,484.000000,468.000000,16.000000,44.000000,0.000000,0.000000:
// measure 0
00000000
00000000
00000000
00000000
,  // measure 1
00000000
00000000
00000000
00000000
,  // measure 2
00000000
00000000
00000000
00000000
,  // measure 3
00000000
00000000
00000000
00000000
,  // measure 4
00000000
00000000
00000000
00000000
,  // measure 5
00000000
00000000
00000000
00000000
,  // measure 6
00000000
00000000
00000000
00000000
,  // measure 7
00000000
00000000
00000000
00000000
,  // measure 8
00022000
00000000
00000000
00030000
,  // measure 9
02000000
00000000
00000000
00003000
,  // measure 10
00200000
00000000
00000000
03000000
,  // measure 11
20000000
00000000
00300000
00000000
30010000
00100000
10030000
00100000
,  // measure 12
00001000
00000000
00010000
00000010
00000000
00000010
00000100
00000000
,  // measure 13
00000010
00000000
00001000
00000100
00000000
00010000
00001000
00000000
,  // measure 14
00010000
00000000
00001000
01000000
00000000
01000000
00100000
00000000
,  // measure 15
10000000
00000000
00000000
10000000
00000000
00000000
00010000
00000000
00000000
00010000
00000000
00000000
00100000
00000000
01000000
00000000
,  // measure 16
21000000
00000000
30100000
00010000
00002000
00000000
00013000
00000100
,  // measure 17
00000020
00000000
00000000
00000000
00000031
00000000
00000100
00000000
00000020
00000000
00000000
00000000
00001030
00000000
00000000
00000100
,  // measure 18
00010000
00000000
00000000
00000000
00011000
00000000
00000000
00000000
00000000
00000000
00000000
00001000
01000000
00000000
00000000
01000000
,  // measure 19
00100000
00000000
00000000
00100000
10000000
00000000
00000000
10000000
00010000
00000000
00000000
00010000
00100000
00000000
00001000
00000000
,  // measure 20
00020000
00000000
00030010
00000100
00000002
00000000
00000013
00000100
,  // measure 21
00020000
00000000
00000000
00000000
00031000
00000000
01000000
00000000
00200000
00000000
00000000
00000000
00310000
00000000
00000000
00001000
,  // measure 22
00100000
00101000
00000000
02010000
,  // measure 23
03100000
00000000
00000000
00100000
00000000
00000000
00010000
00000000
00010000
00000000
00001000
00000000
00011000
00000000
00000000
00000000
,  // measure 24
00001000
00000000
00000000
00100000
00000000
00000000
00100000
00000000
01000000
00000000
00000000
10000000
00000000
00000000
00100000
00000000
,  // measure 25
01000000
00000000
00000000
01000000
00000000
00000000
00001000
00000000
00010000
00000000
00000000
00000100
00000000
00000000
00010000
00000000
,  // measure 26
00001000
00000000
00000000
00001000
00000000
00000000
00000100
00000000
00000010
00000000
00000000
00000010
00000000
00000000
00001000
00000000
,  // measure 27
00000001
00000000
00000000
00000001
00000000
00000000
00000010
00000000
00000100
00000000
00010000
00000000
00001000
00000000
00000000
00000000
,  // measure 28
00010100
00000000
00000000
00010000
00000000
00000000
00001000
00000000
01000000
00000000
00000000
01000000
00000000
00000000
00100000
00000000
,  // measure 29
10000000
00000000
00000000
00010000
00000000
00000000
00100000
00000000
00100000
00000000
00000000
00001000
00000000
00000000
01000000
00000000
,  // measure 30
00001000
00000000
00000000
00001000
00000000
00000000
00010000
00000000
00000010
00000000
00000000
00000010
00000000
00000000
00000100
00000000
,  // measure 31
00000001
00000010
00000100
00010000
00001000
01000000
00100000
10000000
,  // measure 32
00010000
00100000
00000000
00001000
00000000
00000000
00010000
00000000
00010000
00000000
00000000
00000010
00000000
00000000
00000100
00000000
,  // measure 33
00000001
00000010
00000000
00000100
00000000
00000000
00010000
00000000
00001000
01000000
00000000
00100000
00000000
00000000
10000000
00000000
,  // measure 34
01000000
00100000
00000000
00001000
00000000
00000000
00010000
00000000
00010000
00000000
00000000
00000100
00000000
00000000
00001000
00000000
,  // measure 35
00000010
00000100
00000000
00000010
00000000
00000000
00001000
00000000
00000100
00000010
00000000
00000001
00000000
00001000
00000001
00000000
,  // measure 36
00001000
00000100
00000000
00010000
00000000
00000000
00001000
00000000
00001000
00000000
00000000
01000000
00000000
00000000
00100000
00000000
,  // measure 37
10000000
01000000
00000000
00100000
00000000
00000000
00001000
00000000
00010000
00000010
00000000
00000100
00000000
00000000
00000001
00000000
,  // measure 38
00000010
00000100
00000000
00010000
00000000
00000000
00001000
00000000
00001000
00000000
00000000
00100000
00000000
00000000
00010000
00000000
,  // measure 39
01000000
10000000
01000000
00010000
00100000
00001000
00010000
00000100
,  // measure 40
00010000
00000000
00000000
00011000
00000000
00000000
00001000
00000000
00000000
00011000
00000000
00000000
00010000
00001000
00010000
00001000
,  // measure 41
00010000
00000000
00010010
00000010
00000100
00000001
00001000
00000000
,  // measure 42
00000001
00000000
00000000
00000001
00000000
00000000
00000010
00000000
00000000
00000010
00000100
00000000
00010000
00000000
00001000
00000000
,  // measure 43
01000000
00000000
00000000
01000000
00000000
00000000
00100000
00000000
00000000
00100000
10000000
00000000
01000000
00000000
10000000
00000000
,  // measure 44
00010000
00100000
00010000
00000000
10000000
00000000
00100000
00000000
01000000
00000000
00001000
00000000
00010000
00000000
00000100
00000000
,  // measure 45
00010000
00000000
00000000
00010000
00001000
00000000
01000000
00000000
00000000
01000000
00001000
00000000
00010000
00000000
00010000
00000000
,  // measure 46
00000100
00000010
00000000
00000100
00000010
00000000
00000002
00000000
00000000
00000000
00001003
00000000
00000010
00000000
00000100
00000000
,  // measure 47
00000002
00000000
00000000
00000023
00000000
00000000
00000130
00010000
00000100
00000000
00010000
00000000
00001000
00000000
01000000
00000000
,  // measure 48
00100000
00000000
00000000
00100000
00000000
00000000
00100000
00000000
10000000
00010000
10000000
00000000
01000000
00000000
00100000
00000000
,  // measure 49
00001000
00000000
00000000
00000000
00000000
00010000
00000010
00000010
,  // measure 50
00000010
00000000
00000000
00000100
00000000
00000000
00000100
00000000
00000000
00000000
00000001
00000000
00000000
00000000
00001000
00000100
,  // measure 51
00001000
00000000
00000001
00000200
00000000
00002300
00000000
00023030
,  // measure 52
00003000
00230000
00000000
02300000
00000000
03010000
00100000
01000000
,  // measure 53
21000000
00000000
30010000
01000000
00100000
01000000
10000000
02000000
,  // measure 54
00000000
03020000
00000000
00230000
00000000
00301000
00010000
00000100
,  // measure 55
00000220
00000000
00000333
00000000
00000001
00000000
00000000
00000100
00000000
00000000
00001000
00000000
00010000
00000000
00000000
00000000
,  // measure 56
00011000
00000000
00010000
00100000
10000000
00100000
00010000
00001000
,  // measure 57
00000100
00000001
00000100
00001000
00010000
00100000
10000000
00100000
,  // measure 58
00010000
00001000
00010000
01000000
10000000
01000000
00010000
00001000
,  // measure 59
00000010
00000000
00000001
00000000
00000010
00000000
00001000
00000000
00010000
00000000
01000000
00000000
10000000
00100000
10000000
00000000
,  // measure 60
00010000
01000000
00010000
00000000
10000000
00000000
00100000
00000000
01000000
00000000
00100000
00000000
00010000
00000000
00001000
00000000
,  // measure 61
00100000
00001000
00010000
00000100
00000010
00000100
00001000
00000010
,  // measure 62
00000001
00000010
00000100
00001000
00010000
00001000
00000100
00000001
,  // measure 63
00000010
00000000
00000100
00000000
00010000
00000000
00000000
00010000
00000000
00000000
00001000
00000000
00001000
00000000
01000000
00000000
,  // measure 64
00100000
00000000
00000000
00000000
10010000
00000000
00000000
00010000
00000000
00000000
01000000
00000000
00200000
00000000
00310000
00000000
,  // measure 65
00001000
00100000
00002000
00013000
00000100
00001000
00000020
00000130
,  // measure 66
00000001
00000000
00001000
00000100
00001000
00000000
00000000
00000000
00000101
00000000
00000000
00000000
00001000
00000000
00000000
00000001
,  // measure 67
00000100
00000000
00000000
00000100
00000010
00000000
00000000
00000010
00010000
00000000
00000000
00010000
00001000
00000000
00000000
00001000
,  // measure 68
00100000
00000000
00000000
00100000
00020000
00000000
00000000
00000000
01030000
00000000
00001000
00000000
00020000
00000000
00030100
00000000
,  // measure 69
00000010
00000001
00000200
00000310
00001000
00000100
00020000
00031000
,  // measure 70
00100000
00000000
00010000
01000000
00010000
00000000
00000000
00000000
01010000
00000000
00000000
00000000
10000000
00000000
00100000
00000000
,  // measure 71
02000000
00000000
00000000
00000000
03001000
00000000
00000000
00001000
00000000
00000000
00010000
00000000
00000100
00000000
00000010
00000000
,  // measure 72
00000001
00000000
00001000
00000010
00000001
00000020
00000000
00000130
,  // measure 73
00001000
00000200
00000000
00000301
00000010
00000100
00020000
00000000
,  // measure 74
00031000
00100000
00010000
01000000
00100000
02000000
00000000
13000000
,  // measure 75
01000000
00000000
00010000
00000000
00100000
00000000
00000000
00100000
00000000
00000000
00001000
00000000
00020000
00000000
00000000
00000000
,  // measure 76
00031000
00000000
00010000
00000010
00000100
00000010
00001000
00000100
,  // measure 77
00000010
00000001
00001000
00000010
00000100
00000010
00020000
00000000
,  // measure 78
00032000
00000000
00103000
01000000
00100000
00010000
10000000
00100000
,  // measure 79
01000000
00000000
00010000
00000000
00100000
00000000
00000000
00100000
00000000
00000000
00001000
00000000
00002000
00000000
00000000
00000000
,  // measure 80
00013000
00000010
00000100
00000000
00000000
00000000
00000000
00000000
;

//---------------dance-double - ----------------
#NOTES:
     dance-double:
     :
     Medium:
     10:
     0.462828,0.550251,0.368548,0.711384,0.000000,378.000000,335.000000,43.000000,83.000000,0.000000,0.000000,0.462828,0.550251,0.368548,0.711384,0.000000,378.000000,335.000000,43.000000,83.000000,0.000000,0.000000:
00000000
00000000
00000000
00000000
,
00000000
00000000
00000000
00000000
,
00000000
00000000
00000000
00000000
,
00000000
00000000
00000000
00000000
,
00000000
00000000
00000000
00000000
,
00000000
00000000
00000000
00000000
,
00000000
00000000
00000000
00000000
,
00000000
00000000
00000000
00000000
,
00022000
00000000
00000000
00030000
,
00200000
00000000
00000000
00003000
,
02000000
00000000
00000000
00300000
,
20000000
33000000
20020000
30030000
,
10000000
00000000
10100000
00000000
00000000
00010000
00100000
00000000
,
00001000
00000000
00011000
00000000
00000000
00010000
00000010
00000000
,
00000100
00000000
00000101
00000000
00000000
00000001
00000010
00000000
,
00001100
00000101
00000011
00001010
,
00001002
00000000
00000103
00000010
00002000
00000000
00003100
00000000
,
00020000
00000000
00031000
00000000
00200000
00000000
00310000
01000000
,
00200000
10300000
00000000
20100000
,
30020000
00000000
00230000
00000000
00302000
00000000
00013000
00000010
,
00000100
00000001
00000102
00001003
,
00001200
00000000
00010300
00000000
00012000
00000000
00103000
00010000
,
02000000
03100000
00000000
01100000
,
20010000
30100000
20020000
30030000
,
10000000
01000000
00100000
00000000
00010000
00000000
01000000
00000000
,
00001000
00010000
00001000
00000000
00010000
00000100
00001000
00000000
,
00000001
00000010
00000100
00000000
00001000
00000000
00000010
00000000
,
00010000
00001000
00010000
00000000
00001000
00100000
00010000
00000000
,
10000000
00100000
01000000
00000000
00010000
00000000
00100000
00000000
,
00001000
00010000
00001000
00000000
00010000
00000010
00000100
00000000
,
00000001
00000010
00000100
00000000
00010000
00000000
00001000
00000000
,
00100000
00010000
00100000
00010000
10000000
00100000
10000000
00100000
,
02000000
03010000
00210000
00301000
,
00021000
00000000
00030010
00000000
00001020
00000000
00000130
00000001
,
00002000
00000000
00000100
00000000
00003001
00000000
00001000
00000100
,
00020000
00000000
00032000
00000000
00103000
00010000
10000000
00010000
,
01000000
00000000
01001000
00000000
00001000
00010000
00000100
00000000
,
00001000
00000000
00001100
00000000
00000001
00000100
00000010
00000000
,
00002000
00000100
00000001
00003020
,
00020030
00000000
00032000
00000000
00103000
00001000
00010000
00000000
,
00022000
00000000
00033000
00202000
00000000
00303000
00010010
00000000
,
00002002
00000000
00003003
00000000
00000001
00000100
00000010
00000000
,
00001000
00000100
00010000
00000000
00001000
00100000
00010000
00000000
,
10000000
00000000
10000000
00000000
00010000
01000000
00100000
00000000
,
10000000
00100000
10000000
00100000
01000000
00010000
01000000
00010000
,
00100000
00000000
00100000
00001000
00000000
00001000
00010000
00000000
,
00010000
00000010
00000000
00000010
00000100
00000000
00000001
00000000
,
00001000
00000100
00000010
00000000
00000001
00000100
00000010
00000000
,
00001000
00000001
00001000
00000001
00000010
00000100
00010000
00000000
,
00022000
00000000
00000000
00000000
00033000
00000000
00001000
00100000
,
00001000
00000000
00010000
00000000
00000010
00000000
00000100
00000010
,
00000100
00000000
00000001
00000010
00000000
00000100
00000000
00010000
,
00000000
00001000
00000000
00100000
00000000
00010000
10000000
00010000
,
02000000
00000000
03000000
00000000
00010000
01000000
00100000
20000000
,
00000000
32000000
00000000
03200000
00000000
00000000
00301000
00000000
,
00022000
00033000
00101000
00000000
00010010
00000000
01001000
00000000
,
00010100
00000000
00012000
00000000
00003100
00000000
00000010
00000100
,
00000010
00000000
00001000
00000010
00000100
00000000
00000001
00000010
,
00000100
00000000
00001000
00000001
00001000
00000000
00000001
00001000
,
00000100
00010000
00010000
00001000
,
00101000
00000000
00021000
00000000
00130000
00000000
01000000
00100000
,
01000000
00000000
00010000
01000000
00100000
00000000
10000000
01000000
,
00100000
00000000
00010000
10000000
00010000
00000000
10000000
00010000
,
00100000
00020000
02030000
03002000
,
00023000
00000000
00030100
00000010
00000001
00000000
00000012
00000000
,
00001003
00001020
00010030
00012000
,
00103000
00010000
02000000
00000000
03100000
00000000
00000000
00000000
,
00200000
20300000
32000000
03200000
,
00302000
00000000
00013000
00000000
00000100
00010000
00002000
00000000
,
00103000
00001000
00020000
00000000
00030010
00010000
00002000
00000000
,
01003000
00001000
00020000
00000000
00030200
00000000
00000300
00000000
,
00000110
00002002
00003003
00000202
,
00000303
00000000
00002000
00000000
00003100
00000000
00001000
00000010
,
00000100
00000000
00000001
00000100
00000010
00000000
00020000
00000000
,
00032000
00000000
00203000
00000000
00310000
00000000
10000000
00100000
,
01000000
00010000
20000000
00000000
30020000
00000000
00230000
00000000
,
00301000
00000000
00022000
00000000
00033000
00000000
00010000
00001000
,
00100000
00000000
00001000
00100000
00010000
00000000
20000000
00000000
,
30100000
02000000
00010000
00000000
,
03100000
00000000
10000000
00010000
10000000
00010000
00100000
00001000
,
00100000
00011000
00000000
00000000
;

//---------------dance-double - ----------------
#NOTES:
     dance-double:
     :
     Easy:
     6:
     0.257127,0.343907,0.128563,0.531395,0.000000,210.000000,195.000000,15.000000,62.000000,0.000000,0.000000,0.257127,0.343907,0.128563,0.531395,0.000000,210.000000,195.000000,15.000000,62.000000,0.000000,0.000000:
00000000
00000000
00000000
00000000
,
00000000
00000000
00000000
00000000
,
00000000
00000000
00000000
00000000
,
00000000
00000000
00000000
00000000
,
00000000
00000000
00000000
00000000
,
00000000
00000000
00000000
00000000
,
00000000
00000000
00000000
00000000
,
00000000
00000000
00000000
00000000
,
00022000
00000000
00000000
00033000
,
00000200
00000000
00000000
00000300
,
00000020
00000000
00000000
00000030
,
00000002
00000000
00000000
00000003
,
00001001
00000000
00000001
00001000
,
00000100
00000000
00010000
00001000
,
00010000
00000000
00001000
01000000
,
00100000
00000000
00100000
10000000
,
00010000
00000000
20000000
30000000
,
02000000
03000000
00200000
00300000
,
00002000
00003000
00000000
00020000
,
00030020
00000230
00000302
00002003
,
00003001
00000000
00000002
00000003
,
00000020
00000030
00000200
00000300
,
00020000
00030000
00000000
00002000
,
02003000
03000000
00200000
00300000
,
10000000
00010000
00100000
00100000
,
00010000
01000000
00001000
00000000
,
00010000
00000010
00000100
00000100
,
00000010
00001000
00000001
00000000
,
00000001
00000100
00000010
00000010
,
00001000
00000100
00010000
00000000
,
00001000
00100000
00001000
00001000
,
00100000
00010000
01000000
00000000
,
00010000
10000000
00200000
00000000
,
02300000
00000000
03002000
00000000
,
00023000
00000000
00000000
00030100
,
00002000
00003020
00000230
00000302
,
00002003
00000000
00003002
00000000
,
00000203
00000000
00000320
00000000
,
00020030
00000000
00000000
00031000
,
00200000
00000000
01300000
13000000
,
20020000
00000000
00000000
00000000
00000000
00000000
30030000
30030000
,
20020000
30030000
10000000
00000000
,
00010000
01000000
00001000
00000000
,
00010000
00010000
00000100
00000000
,
00010000
00000100
00000010
00000000
,
00000001
00000100
00000010
00000100
,
00000001
00000010
00000100
00000000
,
00000010
00000010
00000100
00000100
,
00010000
00001000
00100000
00010000
,
20020000
00000000
30030000
00000000
,
00020000
00000000
00030000
00000000
,
00200000
00000000
00300000
00000000
,
00002000
00000000
00003000
00000000
,
00010000
00000000
00000100
00000000
,
00000010
00000000
00000001
00000000
,
00001001
00000000
00000000
00001001
,
00000110
00002002
00003003
00001000
,
00000100
00020000
00030000
00002000
,
00003000
00200000
00300000
02000000
,
03000000
20000000
30000000
00020000
,
00030000
20020000
30030000
10000000
,
00100000
02000000
03000000
00002000
,
00003000
00020000
00030000
00000100
,
00000010
00000002
00002003
00003020
,
00000130
00002002
00003003
00000001
,
00001000
00000100
00000100
00010000
,
00001000
00100000
00010000
00000000
,
10000000
00100000
00100000
01000000
,
01000000
00010000
00100000
01000000
,
10000000
00010000
00100000
00100000
,
00001000
00010000
00000010
00000000
,
00000010
00000100
00000100
00000001
,
00001000
00000001
00000000
00001000
,
00000000
00000100
00010000
00011000
,
00000000
00100000
00010000
01000000
,
00000000
00010000
01000000
10010000
,
00000000
10000000
00100000
01000000
,
00000000
00010000
00100000
01100000
,
00000000
00100000
00100000
00001000
,
00001000
00010000
00000010
00000100
,
00000000
00001001
00000000
00000000
;
