#TITLE:99 Luftballons;
#SUBTITLE:;
#ARTIST:Harris & Ford;
#TITLETRANSLIT:;
#SUBTITLETRANSLIT:;
#ARTISTTRANSLIT:;
#GENRE:Hard Dance;
#CREDIT:darkanine;
#MUSIC:99 Luftballons.ogg;
#BANNER:99 Luftballons.png;
#BACKGROUND:99 Luftballons-bg.png;
#CDTITLE:;
#SAMPLESTART:51.600;
#SAMPLELENGTH:19.200;
#SELECTABLE:YES;
#OFFSET:0.000;
#BPMS:0.000=200.000
,236.000=100.000
,240.000=200.000
,400.000=100.000
;
#STOPS:;
#DISPLAYBPM:200.000;
#BGCHANGES:;
#FGCHANGES:;

//--------------- dance-single - ----------------
#NOTES:
     dance-single:
     :
     Challenge:
     14:
     0,0,0,0,0:
0000
0000
0000
0000
,
0000
0000
0000
0000
,
0000
0000
0000
0000
,
0000
0000
0000
0000
,
0000
0000
0000
0000
,
0000
0000
0000
0000
,
0000
0000
0000
0000
,
0000
0000
0000
0000
,
0000
0000
0000
0000
,
4000
0100
0000
0100
0000
0100
0000
3100
,
0040
0100
0000
0100
0000
0100
0000
0130
,
4000
0001
0000
0001
0000
0001
0000
3001
,
0400
0010
0000
0010
0000
0010
0000
0310
,
4000
0100
0000
0100
0000
0100
0000
3100
,
0040
0100
0000
0100
0000
0100
0000
0130
,
4000
0001
0000
0001
0000
0001
0000
3001
,
0400
0010
0000
0010
0000
0010
0000
0310
,
0100
0000
0000
0000
,
0000
0000
0001
0001
,
4000
0000
3040
0034
0000
0003
0040
0000
,
0430
0000
0304
4003
0000
3000
0000
0400
,
0340
0030
0040
0000
0030
0000
0040
0000
0000
0000
0030
0000
0040
0000
0030
0000
,
0040
0034
0000
4003
0000
3000
0400
0000
,
4300
0000
3040
0034
0000
0043
0000
0030
,
0400
0000
0304
4003
0000
3000
0000
4000
,
3040
0030
0040
0030
0040
0030
0040
0030
,
0040
4030
0000
3004
0000
0003
0000
0400
,
0304
0043
0000
4030
0000
3040
0000
0030
,
0004
0000
4003
3400
0000
0300
0000
0400
,
0304
0000
0403
4300
0000
3040
0030
0040
,
0030
4000
0000
3004
0000
0003
0400
0000
,
0304
0043
4030
3040
,
0034
0000
4003
0000
0000
0000
3400
0000
0000
0000
0300
0000
0000
0000
0040
0030
,
0040
0000
0030
0000
0040
0030
0040
0000
0030
0000
0040
0000
0030
0000
0040
0000
,
0000
0034
0000
4003
0000
3000
0000
0000
,
0001
0100
0001
0000
1000
0100
1000
0000
,
0100
1000
0010
1000
0100
0010
0100
0000
,
1000
0010
1000
0000
0001
0010
0001
0000
,
0100
0001
0010
0001
0100
0000
0100
0010
,
1000
0010
1000
0001
0010
0001
0010
0100
,
1000
1000
0001
0001
1000
1000
0001
0001
,
0100
0010
0100
0010
0100
0010
0100
0010
,
1000
0000
0000
0000
,
1000
0400
0010
0000
0001
0000
1300
0000
,
0001
0040
1000
0000
0031
0000
0001
0100
,
0010
0010
0400
1000
0000
0300
0001
0000
,
1000
0100
0040
0001
0000
0030
0100
0000
,
1000
0000
0040
0001
0000
1000
0000
0030
,
1000
0400
0001
0000
1300
0000
0001
0010
,
1000
0040
0001
0000
1000
0000
0031
0001
,
0001
0000
1000
0000
0100
0000
0100
0000
0100
0000
0000
0000
1000
0001
1000
0001
,
1000
1001
0000
1100
0000
0101
0000
0000
,
1400
0000
0001
0000
0010
0000
1000
0300
,
0104
0000
0010
0000
1000
0000
0100
0003
,
1040
0000
0001
0000
0100
0030
1000
1000
,
4001
0000
0010
0000
0100
0000
0010
3000
,
1010
0000
0110
0000
0000
0000
0101
0000
0000
0000
0000
0000
0001
1000
0001
1000
,
0001
0000
0000
0000
0011
0000
0110
0000
0000
0000
1100
0000
0100
0010
0100
0010
,
0100
2000
0000
0002
0000
0000
3003
0000
,
0100
0000
0000
0000
,
2000
0000
0000
0000
,
3200
0000
0000
0000
,
0320
0000
0000
0000
,
0032
0000
0000
0000
,
4003
0000
0000
0000
,
3400
0000
0000
0000
,
0340
0000
0000
0000
,
0034
0000
0000
0000
,
1003
0101
0001
1100
,
1000
0011
0001
1010
,
0100
1001
0010
1001
,
0001
0110
1000
0110
,
0001
0011
1000
1010
,
0001
1001
0100
0110
,
1000
1100
0001
0101
,
1000
1001
0001
1001
,
1000
0004
0010
0000
0100
0000
1000
0000
,
0100
1000
0100
0103
,
0001
4000
0010
0000
0001
0000
0100
0000
,
0001
0000
0100
0000
3100
0100
0010
0010
,
0001
0010
1000
1000
0010
0010
0001
1000
,
0001
0100
0100
1000
1000
0001
0010
0010
,
1000
0001
1000
0100
1000
0010
1000
0001
,
0010
0000
0000
0000
,
0101
0400
1000
0000
0310
0000
0101
0000
,
1010
0040
0001
0000
1030
0000
1000
0001
,
0011
0010
0400
1000
0000
0001
0000
0300
,
0110
0100
0040
1000
0000
0031
0011
0010
,
0110
0000
0040
1000
0000
0001
0000
0030
,
0101
0400
1000
0000
0301
0000
1000
0040
,
0001
0000
1000
0000
0001
0000
1030
1000
,
1000
0000
0001
0000
0100
0000
0100
0000
0100
0000
0000
0000
0001
1000
0001
1000
,
0001
1001
0000
0101
0000
1100
0000
0000
,
0401
0000
1000
0000
0010
0010
0010
0300
,
4100
0000
0010
0000
0001
0001
0001
3000
,
0041
0000
1000
0000
0100
0000
0001
0031
,
1004
0000
0100
0000
0010
0010
0010
0003
,
0011
0000
0110
0000
0000
0000
1100
0000
0000
0000
1000
0001
1000
0001
1000
0001
,
1000
0000
0000
0000
1010
0000
0110
0000
0000
0000
0101
0000
0100
0010
0100
0010
,
0100
0002
0000
2000
0000
0000
3003
0000
,
0200
0000
0300
0000
;

//--------------- dance-single - Tutorial ----------------
#NOTES:
     dance-single:
     Tutorial:
     Edit:
     14:
     0,0,0,0,0:
0000
0000
0000
0000
,
0000
0000
0000
0000
,
0000
0000
0000
0000
,
0000
0000
0000
0000
,
0000
0000
0000
0000
,
0000
0000
0000
0000
,
0000
0000
0000
0000
,
0000
0000
0000
0000
,
0000
0000
0000
0000
,
4000
3100
1000
0100
1000
0100
1000
0100
,
0040
0130
0010
0100
0010
0100
0010
0100
,
4000
3001
1000
0001
1000
0001
1000
0001
,
0400
0310
0100
0010
0100
0010
0100
0010
,
4000
3100
1000
0100
1000
0100
1000
0100
,
0040
0130
0010
0100
0010
0100
0010
0100
,
4000
3001
1000
0001
1000
0001
1000
0001
,
0400
0310
0100
0010
0100
0010
0100
0010
,
0100
0000
0000
0000
,
0000
0000
0001
0001
,
2000
0000
3020
0032
0000
0003
0020
0000
,
0230
0000
0302
2003
0000
3000
0000
0200
,
0320
0030
0020
0000
0030
0000
0020
0000
0000
0000
0030
0000
0020
0000
0030
0000
,
0020
0032
0000
2003
0000
3000
0200
0000
,
2300
0000
3020
0032
0000
0023
0000
0030
,
0200
0000
0302
2003
0000
3000
0000
2000
,
3020
0030
0020
0030
0020
0030
0020
0030
,
0020
2030
0000
3002
0000
0003
0000
0200
,
0302
0023
0000
2030
0000
3020
0000
0030
,
0002
0000
2003
3200
0000
0300
0000
0200
,
0302
0000
0203
2300
0000
3020
0030
0020
,
0030
2000
0000
3002
0000
0003
0200
0000
,
0302
0023
2030
3020
,
0032
0000
2003
0000
0000
0000
3200
0000
0000
0000
0300
0000
0000
0000
0020
0030
,
0020
0000
0030
0000
0020
0030
0020
0000
0030
0000
0020
0000
0030
0000
0020
0000
,
0000
0032
0000
2003
0000
3000
0000
0000
,
0001
0100
0001
0000
1000
0100
1000
0000
,
0100
1000
0010
1000
0100
0010
0100
0000
,
1000
0010
1000
0000
0001
0010
0001
0000
,
0100
0001
0010
0001
0100
0000
0100
0010
,
1000
0010
1000
0001
0010
0001
0010
0100
,
1000
1000
0001
0001
1000
1000
0001
0001
,
0100
0010
0100
0010
0100
0010
0100
0010
,
1000
0000
0000
0000
,
1000
0400
0310
0100
0001
0100
1000
0000
,
0001
0040
1030
0010
0001
0000
0001
0100
,
0010
0010
0400
1300
0100
0000
0001
0000
,
1000
0100
0040
0031
0010
0000
0100
0000
,
1000
0000
0040
0031
0010
1000
0010
0000
,
1000
0400
0301
0100
1000
0000
0001
0010
,
1000
0040
0031
0010
1000
0010
0001
0001
,
0001
0000
1000
0000
0100
0000
0100
0000
0100
0000
0000
0000
1000
0001
1000
0001
,
1000
1001
0000
1100
0000
0101
0000
0000
,
1400
0300
0101
0000
0110
0000
1100
0000
,
0104
0003
0011
0000
1001
0000
0101
0000
,
1040
0030
0011
0000
0110
0000
1000
1000
,
4001
3000
1010
0000
1100
0000
1010
0000
,
1010
0000
0110
0000
0000
0000
0101
0000
0000
0000
0000
0000
0001
1000
0001
1000
,
0001
0000
0000
0000
0011
0000
0110
0000
0000
0000
1100
0000
0100
0010
0100
0010
,
0100
2000
0000
0002
0000
0000
3003
0000
,
0100
0000
0000
0000
,
2000
0000
0000
0000
,
3200
0000
0000
0000
,
0320
0000
0000
0000
,
0032
0000
0000
0000
,
4003
3000
1000
0000
1000
0000
1000
0000
,
0400
0300
0100
0000
0100
0000
0100
0000
,
0040
0030
0010
0000
0010
0000
0010
0000
,
0004
0003
0001
0000
0001
0000
0001
0000
,
1000
0101
0001
1100
,
1000
0011
0001
1010
,
0100
1001
0010
1001
,
0001
0110
1000
0110
,
0001
0011
1000
1010
,
0001
1001
0100
0110
,
1000
1100
0001
0101
,
1000
1001
0001
1001
,
1000
0004
0013
0001
0100
0001
1000
0001
,
0100
0001
1000
0001
0100
0001
0100
0000
,
0001
4000
3010
1000
0001
1000
0100
1000
,
0001
1000
0100
1000
0100
0100
0010
0010
,
0001
0010
1000
1000
0010
0010
0001
1000
,
0001
0100
0100
1000
1000
0001
0010
0010
,
1000
0001
1000
0100
1000
0010
1000
0001
,
0010
0000
0000
0000
,
0101
0400
1300
0100
0010
0000
0101
0000
,
1010
0040
0031
0010
1000
0000
1000
0001
,
0011
0010
0400
1300
0100
0001
0100
0000
,
0110
0100
0040
1030
0010
0001
0011
0010
,
0110
0000
0040
1030
0010
0001
0010
0000
,
0101
0400
1300
0100
0001
0000
1000
0040
,
0031
0010
1000
0010
0001
0010
1000
1000
,
1000
0000
0001
0000
0100
0000
0100
0000
0100
0000
0000
0000
0001
1000
0001
1000
,
0001
1001
0000
0101
0000
1100
0000
0000
,
0401
0300
1100
0000
0110
0010
0110
0000
,
4100
3000
1010
0000
1001
0001
1001
0000
,
0041
0030
1010
0000
0110
0000
0011
0001
,
1004
0003
0101
0000
0011
0010
0011
0000
,
0011
0000
0110
0000
0000
0000
1100
0000
0000
0000
1000
0001
1000
0001
1000
0001
,
1000
0000
0000
0000
1010
0000
0110
0000
0000
0000
0101
0000
0100
0010
0100
0010
,
0100
0002
0000
2000
0000
0000
3003
0000
,
0200
0000
0300
0000
;
