#VERSION:0.83;
#TITLE:3y3s;
#SUBTITLE:;
#ARTIST:青龍;
#TITLETRANSLIT:;
#SUBTITLETRANSLIT:;
#ARTISTTRANSLIT:SEIRYU;
#GENRE:DANCE SPEED;
#ORIGIN:beatmania IIDX 16 EMPRESS;
#TAGS:;
#CREDIT:;
#BANNER:3y3s.png;
#BACKGROUND:3y3s-bg.png;
#PREVIEWVID:;
#JACKET:3y3s-jacket.png;
#CDIMAGE:;
#DISCIMAGE:;
#LYRICSPATH:;
#CDTITLE:cdtitle.png;
#MUSIC:3y3s.ogg;
#OFFSET:0.000002;
#SAMPLESTART:96.754089;
#SAMPLELENGTH:20.105000;
#SELECTABLE:YES;
#DISPLAYBPM:191.000000;
#BPMS:0.000000=191.000000
,39.500000=63.666603
,41.000000=191.000000
,290.000000=95.500000
,291.000000=191.000000
;
#STOPS:205.000000=2.198959
,290.000000=1.884819
;
#DELAYS:;
#WARPS:;
#TIMESIGNATURES:0.000000=4=4
,40.000000=1=4
,41.000000=4=4
,205.000000=1=4
,206.000000=4=4
,290.000000=1=4
,291.000000=4=4
;
#TICKCOUNTS:0.000000=4
;
#COMBOS:0.000000=1
;
#SPEEDS:0.000000=1.000000=0.000000=0
;
#SCROLLS:0.000000=1.000000
;
#FAKES:;
#LABELS:0.000000=Song Start
;
#BGCHANGES:;
#KEYSOUNDS:;
#ATTACKS:
;

//---------------dance-single - ----------------
#NOTEDATA:;
#CHARTNAME:;
#CHARTHASH:1448748240;
#STEPSTYPE:dance-single;
#BANNER:;
#DESCRIPTION:;
#CHARTSTYLE:;
#DIFFICULTY:Beginner;
#METER:5;
#METERF:5.000000;
#LASTSECONDHINT:116.858643;
#RADARVALUES:0.198185,0.318420,0.151486,0.015946,0.003986,174.000000,155.000000,19.000000,2.000000,0.000000,0.000000,0.000000,0.000000,0.000000,0.198185,0.318420,0.151486,0.015946,0.003986,174.000000,155.000000,19.000000,2.000000,0.000000,0.000000,0.000000,0.000000,0.000000;
#CREDIT:-YOSEFU-;
#DISPLAYBPM:191.000000;
#NOTES:
0000
0000
0000
0000
,
0000
0000
0000
0000
,
0000
0000
0000
0000
,
0000
0000
0000
0000
,
0000
0000
0000
0000
,
0000
0000
0000
0000
,
1000
0000
0000
0000
,
0001
0000
0000
0000
,
0100
0000
0000
0000
,
0010
0000
0000
0000
0000
0000
0000
1000
,
0000
1001
0000
0001
,
0000
0100
0000
0010
,
0000
1000
0000
0001
,
0000
0010
0000
0100
,
0000
1000
0000
0001
,
0000
0100
0000
0010
,
0000
0100
0000
0001
,
0000
1001
0000
0000
,
0000
1001
0000
1000
,
0000
0100
0000
0010
,
0000
0100
0000
1000
,
0000
0001
0000
0100
,
0000
0110
0000
0010
,
0000
1001
0000
1000
,
0000
0110
0000
1001
,
0000
0110
0000
0000
,
0000
1001
0000
0000
,
0001
0001
0000
0000
,
1000
1000
0000
0000
,
0010
0010
0000
0000
,
0100
0100
0100
0000
,
0001
0000
0100
0000
,
0001
0000
0000
1000
0000
1000
0000
1000
,
0000
1000
0000
0000
0000
0000
0010
0000
,
0010
0110
0000
0100
,
0000
0001
0000
1000
,
1000
1000
0000
0100
,
0000
0010
0010
0010
,
0010
0010
0000
0001
,
0000
1000
0000
0010
,
0010
0010
0000
0100
,
0000
0001
0001
0001
,
0001
0001
0000
1000
,
0000
0100
0100
0100
,
0100
0100
0000
0010
,
0000
0001
0001
0001
,
0001
1001
0000
0000
,
0000
0110
0000
0000
,
0000
1001
0000
0110
,
0000
2002
0000
0000
,
0000
0000
0000
0000
,
0000
0000
0000
3003
0000
0000
0000
0000
0000
0000
0000
0000
0000
0000
0000
0000
,
0001
0001
1000
0000
,
0000
0000
0100
0000
,
0000
0000
0010
0000
,
0000
0000
0001
0000
,
0000
0000
1000
0000
,
0000
0000
0010
0000
,
0000
0000
0100
0000
,
0000
0000
0001
0000
,
0000
0000
1001
0000
,
0000
0000
1000
0000
,
0000
0000
0100
0000
,
0000
0000
0010
0000
,
0000
0000
0001
0000
,
0000
0000
0100
0000
,
0000
0000
0010
0000
,
0000
0000
1000
0000
,
0000
0000
0100
0000
,
0000
0000
0010
0000
,
0000
0000
0001
0000
,
0100
0000
0010
0000
,
1000
0000
0001
1001
,
0000
1000
0000
0100
,
0000
0010
0010
0010
,
0000
0001
0000
1000
,
0000
0100
0100
0100
,
0000
0010
0000
0001
,
0000
0100
0100
0100
,
0000
0010
0000
0110
,
0000
0000
0000
1001
,
0000
0001
0000
0100
,
0100
0100
0100
0100
,
0000
0010
0000
1000
,
1000
1000
1000
1000
,
0000
0000
0000
0100
,
0000
0001
0000
0100
,
0000
1000
0000
0001
,
0000
0000
0000
0100
;

//---------------dance-single - ----------------
#NOTEDATA:;
#CHARTNAME:;
#CHARTHASH:1866698216;
#STEPSTYPE:dance-single;
#BANNER:;
#DESCRIPTION:;
#CHARTSTYLE:;
#DIFFICULTY:Easy;
#METER:8;
#METERF:8.000000;
#LASTSECONDHINT:116.858643;
#RADARVALUES:0.361061,0.424560,0.103648,0.000000,0.000000,317.000000,304.000000,13.000000,0.000000,0.000000,0.000000,0.000000,0.000000,0.000000,0.361061,0.424560,0.103648,0.000000,0.000000,317.000000,304.000000,13.000000,0.000000,0.000000,0.000000,0.000000,0.000000,0.000000;
#CREDIT:-YOSEFU-;
#DISPLAYBPM:191.000000;
#NOTES:
0000
0000
0000
0000
,
0000
0000
0000
0000
,
0000
0000
0000
0000
,
0000
0000
0000
0000
,
0000
0000
0000
0000
,
0000
0000
0000
0000
,
1000
0000
0100
1000
,
0001
0000
0100
0010
,
1000
0000
0001
0000
,
0010
0000
0000
0000
0000
0100
0000
1000
,
0000
0101
0100
0001
,
0100
0010
1000
0010
,
1000
0001
0010
0001
,
0010
0100
1000
0100
,
1000
0001
0100
0010
,
0100
0001
1000
0100
,
1000
0001
1000
0100
,
0010
0011
0000
0000
,
0000
1001
0001
0100
,
0010
0100
0001
1000
,
0100
0010
0100
1000
,
0001
0100
0010
1000
,
0001
1001
1000
0100
,
0010
0011
0001
1000
,
0010
0110
0100
0001
,
1000
1100
0000
0000
,
0000
0000
0100
0000
0000
0100
0000
0000
,
0100
0000
1000
0000
0000
1000
0000
0000
,
1000
0000
0001
0000
0000
0001
0000
0000
,
0001
0000
0100
0000
0000
0100
0000
0000
,
0100
0010
1000
0001
,
0010
0100
1000
0001
,
0100
0010
1000
0001
,
0010
0000
1000
0000
0010
0000
0001
0010
,
0001
0011
0010
0100
,
1000
0000
0001
0000
0100
0000
0001
0100
,
0001
1000
0100
0010
,
0001
0000
1000
0000
0010
0000
0100
0010
,
0100
0010
1000
0001
,
0010
0000
0100
0000
1000
0000
0100
1000
,
0100
1000
0001
0100
,
0010
0000
1000
0000
0001
0000
1000
0001
,
1000
0100
0010
0001
,
1000
0000
0010
0000
0100
0000
0010
0100
,
0010
1000
0100
0010
,
0001
0000
1000
0000
0010
0000
1000
0010
,
1000
0000
0001
0000
0000
0001
0000
0000
,
0001
0000
0010
0000
0000
0010
0000
0000
,
0010
0100
1000
0100
,
0001
0100
0010
0001
,
0100
0010
1000
0100
,
0010
0000
0000
0000
,
0001
1000
0001
0000
0100
0000
0000
0000
,
0010
1000
0001
0000
,
0010
0100
1000
0000
,
0001
0100
0010
0000
,
0100
0001
1000
0000
,
0100
0010
0001
0000
,
0100
0010
1000
0000
,
0001
1000
0100
0000
,
0010
0001
1000
0010
,
1000
0010
0100
0001
,
0100
0001
1000
0100
,
1000
0100
0010
0001
,
0010
0001
1000
0100
,
0010
0001
1000
0010
,
0100
0001
1000
0000
,
0001
0000
0100
0000
,
0010
1000
0001
0000
,
0010
0000
0000
0000
0100
0000
0000
1000
,
0000
1000
0000
1000
0000
0000
0001
0000
,
0100
1000
0100
0001
,
0010
0100
0000
1100
,
1000
0001
0100
0010
,
1000
0001
0010
0011
,
0001
1000
0010
0100
,
0001
0000
1000
0000
0100
0010
0100
0000
,
1000
0001
0100
0010
,
1000
0000
0100
0000
0010
0001
0010
0000
,
0100
1000
0001
0101
,
0000
0000
0000
0100
0001
0000
1001
0000
,
1000
0010
0100
0010
,
1000
0100
0010
0011
,
0001
1000
0010
0100
,
0001
0000
1000
0000
0100
1000
0100
0000
,
0000
1000
0001
0100
,
1000
0100
0001
1000
,
0100
0010
0001
1000
,
0000
0000
0000
0001
0010
0000
0100
0000
;

//---------------dance-single - ----------------
#NOTEDATA:;
#CHARTNAME:;
#CHARTHASH:3837752680;
#STEPSTYPE:dance-single;
#BANNER:;
#DESCRIPTION:;
#CHARTSTYLE:;
#DIFFICULTY:Medium;
#METER:13;
#METERF:13.000000;
#LASTSECONDHINT:116.858643;
#RADARVALUES:0.589999,0.601460,0.095675,0.000000,0.047838,518.000000,506.000000,12.000000,0.000000,0.000000,0.000000,0.000000,0.000000,0.000000,0.589999,0.601460,0.095675,0.000000,0.047838,518.000000,506.000000,12.000000,0.000000,0.000000,0.000000,0.000000,0.000000,0.000000;
#CREDIT:-YOSEFU-;
#DISPLAYBPM:191.000000;
#NOTES:
0000
0000
0000
0000
,
0000
0000
0000
0000
,
0000
0000
0000
0000
,
0000
0000
0000
0000
,
0000
0000
0000
0000
,
0000
0000
0000
0000
0000
0000
0000
0001
,
0000
1000
0010
1000
0000
0001
1000
0010
,
1000
0000
0001
0000
0010
0000
0100
0100
,
0000
0000
0000
1000
1000
0000
0000
0001
,
0001
0000
0000
0000
0000
0100
0010
1000
,
0000
0000
0001
0100
0010
0100
0001
1000
,
0100
0010
0001
1000
0010
1000
0001
1000
,
0100
0010
0001
1000
0100
1000
0001
1000
,
0100
0010
0001
1000
0010
0100
0001
1000
,
0100
0010
0001
1000
0001
0100
0001
1000
,
0001
0010
0100
0001
0100
0010
0100
1000
,
0100
0010
0001
1000
0001
0100
0001
1000
,
0001
0010
0100
0000
1000
0000
1000
0000
,
1000
0000
0001
0010
0001
0100
0001
1000
,
0001
0100
0010
0001
0010
1000
0010
0100
,
0010
1000
0001
0010
0001
0100
0001
0010
,
0001
1000
0100
0010
0100
0001
0100
1000
,
0100
0010
0001
0100
0001
1000
0001
0010
,
0001
0100
0010
0001
0010
1000
0010
0100
,
0010
1000
0100
0010
0100
0001
0100
1000
,
0100
0010
0001
0000
1000
0000
1000
0000
,
1000
0000
0000
0000
0010
0000
0000
1000
0000
0000
0010
0000
0000
1000
0000
0000
,
0001
0000
0000
0000
0010
0000
0000
0001
0000
0000
0010
0000
0000
0001
0000
0000
,
1000
0000
0000
0000
0100
0000
0000
1000
0000
0000
0100
0000
0000
1000
0000
0000
,
0001
0000
0000
0000
0100
0000
0000
0001
0000
0000
0100
0000
0000
0001
0000
0000
,
1000
0000
0100
0010
0000
0001
1000
0010
,
0000
0100
0001
1000
0000
0100
0010
0001
,
0000
1000
0010
0100
0010
1000
0001
0010
,
0100
1000
0001
0000
0100
0000
0001
1000
,
0100
0010
0001
1000
0010
0000
0100
0001
,
1000
0001
0100
0001
1000
0000
0100
0010
,
0001
0000
1000
0010
0100
0000
0010
1000
,
0001
1000
0100
0010
0000
0010
0010
0001
,
1000
0000
0010
0100
0001
0000
1000
0100
,
0010
0100
1000
0001
0100
0000
0010
1000
,
0001
0000
0010
0001
0100
0000
0010
1000
,
0100
1000
0001
0000
0100
0000
0010
1000
,
0001
0010
0100
1000
0001
0100
0000
0010
,
1000
0001
0010
0100
1000
0001
0100
0010
,
1000
0000
0001
0010
0100
0010
0001
1000
,
0010
0100
0010
1000
0001
0010
0100
1000
,
0001
0000
0100
0000
0010
0000
0000
1000
0000
0000
0010
0000
0000
1000
0000
0000
,
0001
0000
0000
0000
1000
0000
0000
0100
0000
0000
1000
0000
0000
0100
0000
0000
,
0010
0000
0001
0010
0100
1000
0010
0100
,
0001
1000
0100
0001
0100
0010
0001
1000
,
0010
0001
0010
0100
0001
0010
1000
0001
,
0100
1000
0000
0000
0000
0001
0000
0001
,
0001
1000
0010
0000
0100
0001
1000
0001
,
0000
0100
1000
0001
1000
0000
0100
0000
,
0010
0000
0100
0000
0100
1000
0001
1000
,
0000
0100
1000
0001
1000
0000
0001
0000
,
0100
0000
0001
0010
0000
0100
1000
0100
,
0000
0010
0100
1000
0100
0000
0010
0000
,
0001
0000
1000
1000
0000
0000
0000
0010
,
0010
0000
0000
0100
0100
0000
0000
0000
,
0000
0001
1000
0100
0010
0001
1000
0001
,
0000
0010
0001
1000
0001
0000
0100
0000
,
0010
0000
0100
0000
0100
0010
1000
0010
,
0000
0100
0010
1000
0010
0000
0100
0000
,
0001
0000
1000
0100
0010
0001
1000
0001
,
0000
0100
0001
1000
0001
0000
0010
0000
,
0100
0000
1000
1000
0001
0000
0000
0100
,
0100
0000
0000
0010
0010
0000
0000
0000
,
0000
1000
0001
0010
0000
0000
0000
0100
,
0100
0000
0000
1000
0000
0000
0000
0010
,
0000
0010
0000
0010
1000
0100
0010
0001
,
0100
0010
1000
0001
0010
0100
1000
0010
,
0100
0001
1000
0100
0000
0000
1000
0001
,
0100
0001
0000
1000
0001
0100
0001
0000
,
0101
0000
0110
0000
1010
0000
1000
0100
,
0010
0100
0000
1000
0100
0010
0100
0000
,
1100
0000
1001
0000
0001
0100
0000
0010
,
1000
0010
0000
0100
0010
1000
0010
0000
,
0110
0000
0101
0000
0001
0001
1000
0000
,
0100
0010
0010
0000
0001
1000
1000
0000
,
0000
0000
0000
0100
1000
0001
0010
0001
,
1000
0001
0000
0010
0001
1000
0001
0000
,
0101
0000
0110
0000
1010
0000
1000
0001
,
0010
0001
0000
1000
0001
0010
0001
0000
,
0011
0000
0110
0000
0100
1000
0000
0001
,
0100
0001
0000
1000
0001
0100
0001
0010
,
1000
0001
0100
1000
0010
0001
0010
0100
,
0001
0010
1000
0001
0100
1000
0001
0000
,
0000
0000
0000
0100
0001
0010
0100
0000
;

//---------------dance-single - ----------------
#NOTEDATA:;
#CHARTNAME:;
#CHARTHASH:3555910226;
#STEPSTYPE:dance-single;
#BANNER:;
#DESCRIPTION:;
#CHARTSTYLE:;
#DIFFICULTY:Hard;
#METER:16;
#METERF:16.000000;
#LASTSECONDHINT:116.858643;
#RADARVALUES:0.774516,1.026020,0.071757,0.000000,0.593985,680.000000,671.000000,9.000000,0.000000,0.000000,0.000000,0.000000,0.000000,0.000000,0.774516,1.026020,0.071757,0.000000,0.593985,680.000000,671.000000,9.000000,0.000000,0.000000,0.000000,0.000000,0.000000,0.000000;
#CREDIT:-YOSEFU-;
#DISPLAYBPM:191.000000;
#NOTES:
// measure 0
0000
0000
0000
0000
,  // measure 1
0000
0000
0000
0000
,  // measure 2
0000
0000
0000
0000
,  // measure 3
0000
0000
0000
0000
,  // measure 4
0000
0000
0000
0000
,  // measure 5
0000
0000
0000
0000
0000
0000
0000
0001
,  // measure 6
0000
1000
0100
1000
0000
0001
1000
0100
,  // measure 7
1000
0000
0010
0000
0001
0000
0010
0010
,  // measure 8
0000
0000
0000
1000
1000
0000
0000
0001
,  // measure 9
0001
0000
0000
0000
0000
1000
0100
0010
,  // measure 10
0000
0000
0000
0000
0001
0000
1000
0010
0000
0000
0010
0100
0000
0000
0100
0001
,  // measure 11
0000
0000
0001
1000
0000
0000
1000
0100
0000
0000
0100
0010
0000
0000
0010
0001
,  // measure 12
0000
0000
0001
1000
0000
0000
1000
0001
0000
0000
0001
0100
0000
0000
0100
0010
,  // measure 13
0000
0000
0010
1000
0000
0000
1000
0001
0000
0000
0001
0010
0000
0000
0010
0100
,  // measure 14
0000
0000
0100
1000
0100
0000
1000
0100
0000
0000
0010
0001
0000
0000
1000
0010
,  // measure 15
0000
0000
0100
0001
0100
0000
0001
1000
0000
0000
0010
1000
0000
0000
0001
0100
,  // measure 16
0000
0000
0010
1000
0010
0000
1000
0001
0000
0000
0100
0001
0000
0000
1000
0010
,  // measure 17
0000
0000
1000
0100
0010
0000
0001
0000
0000
0000
1000
0000
0000
0000
0001
0000
,  // measure 18
0000
0000
0100
0000
0001
0000
1000
0010
0000
0000
1000
0001
0000
0000
0010
0100
,  // measure 19
0000
0000
1000
0001
0100
0000
0001
1000
0000
0000
0010
0100
0000
0000
0001
1000
,  // measure 20
0000
0000
0100
0010
0001
0000
1000
0010
0000
0000
0100
0001
0000
0000
1000
0100
,  // measure 21
0000
0000
1000
0010
0100
0000
0001
1000
0000
0000
0001
0100
0000
0000
0010
1000
,  // measure 22
0000
0000
0001
1000
0100
0000
0010
0001
0000
0000
1000
0010
0000
0000
0100
0001
,  // measure 23
0100
0000
0010
1000
0001
0000
0010
0100
0000
0000
1000
0001
0000
0000
1000
0001
,  // measure 24
1000
0000
0010
0100
0001
0000
1000
0100
1000
0000
0100
0010
0001
0000
1000
0010
,  // measure 25
1000
0000
0001
0100
0010
0000
0000
0000
1000
0000
0000
0000
1000
0000
0000
0000
,  // measure 26
1000
0000
0000
0000
0001
0100
0000
0001
0100
0000
0001
0100
0000
0001
0100
0000
,  // measure 27
0001
0000
1000
0000
0100
1000
0000
0100
1000
0000
0100
1000
0000
0100
1000
0000
,  // measure 28
0001
0000
1000
0000
0001
0010
0000
0001
0010
0000
0001
0010
0000
0001
0010
0000
,  // measure 29
0001
0000
1000
0000
0010
1000
0000
0010
1000
0000
0010
1000
0000
0010
1000
0000
,  // measure 30
0001
0000
1000
0000
0001
0100
0000
0001
1000
0000
0010
0000
1000
0100
0000
1000
,  // measure 31
0001
0000
0010
0000
0001
0100
0000
0010
0100
0000
0001
0000
1000
0010
0000
0100
,  // measure 32
0010
0000
1000
0000
0001
0010
0100
0000
1000
0010
0100
0000
0001
1000
0100
0000
,  // measure 33
0010
0001
1000
0000
0001
1000
0001
0000
0100
0010
0100
0000
0001
0000
0010
0000
,  // measure 34
0100
1000
0001
0000
1000
0000
0010
1000
0001
0000
0010
0000
0100
0000
0010
0000
,  // measure 35
0001
0000
0010
0000
0100
0000
1000
0001
0100
0000
0010
0000
1000
0000
0001
0000
,  // measure 36
0010
0000
0001
1000
0010
0000
0100
0001
1000
0000
0100
0000
0010
0000
0001
0000
,  // measure 37
1000
0001
0100
0010
1000
0010
0010
1000
,  // measure 38
0100
0000
0010
0001
1000
0000
0010
0100
0001
0000
1000
0100
0010
0000
0100
0000
,  // measure 39
1000
0000
0100
0010
0001
0000
1000
0010
0100
0000
0001
1000
0100
0000
0010
0000
,  // measure 40
0001
0000
1000
0010
0100
0000
0001
1000
0100
0000
0010
0001
1000
0000
0010
0000
,  // measure 41
0100
0010
1000
0100
0001
0100
0010
0001
,  // measure 42
1000
0010
1000
0000
0001
0000
0010
0000
1000
0000
0010
0000
0001
0000
1000
0000
,  // measure 43
0010
0000
0001
0000
0010
0000
0100
0001
1000
0000
0100
0000
0010
0000
0001
0000
,  // measure 44
1000
0000
0100
0010
0001
0000
0100
0000
1000
0000
0100
0000
0001
0000
1000
0000
,  // measure 45
0100
0000
0001
0000
0100
0000
1000
0001
0100
0000
0010
0000
1000
0000
0001
0000
,  // measure 46
0010
0001
0010
0000
0100
1000
0000
0100
1000
0000
0100
1000
0000
0100
1000
0000
,  // measure 47
0100
0000
0000
0000
0010
0001
0000
0010
0001
0000
0010
0001
0000
0010
0001
0000
,  // measure 48
0010
0000
0010
0000
0001
1000
0010
0000
1000
0001
0010
0000
0100
1000
0001
0000
,  // measure 49
0100
0001
1000
0000
0001
0100
0001
0100
0010
1000
0010
1000
0001
0010
0001
0010
,  // measure 50
0100
0000
0000
0000
1000
0010
1000
0010
0100
0001
0100
0001
1000
0100
1000
0100
,  // measure 51
0010
0001
0010
0100
0000
0000
0000
0000
0000
0000
1000
0000
0000
0000
1000
0000
,  // measure 52
1000
0001
0100
0000
0001
1000
0010
1000
,  // measure 53
0000
0001
1000
0010
1000
0000
0001
0000
,  // measure 54
0010
0000
0001
0000
0001
0010
0100
0010
,  // measure 55
0000
0001
0010
0100
0010
0000
0001
0000
,  // measure 56
1000
0000
0010
0100
0000
0001
1000
0001
,  // measure 57
0000
0100
0001
1000
0001
0000
0100
0000
,  // measure 58
1000
0000
0100
0100
0000
0000
0000
0010
,  // measure 59
0010
0000
0000
1000
1000
0000
0000
0000
,  // measure 60
0000
0100
0010
0001
1000
0010
0100
0010
,  // measure 61
0000
1000
0010
0100
0010
1000
0001
1000
,  // measure 62
0100
1000
0001
1000
0001
0010
0100
0010
,  // measure 63
0000
0001
0010
0100
0010
0001
0100
0001
,  // measure 64
1000
0001
0100
0010
0000
1000
0100
1000
,  // measure 65
0000
0010
1000
0100
1000
0010
0100
0010
,  // measure 66
0001
0010
0100
0100
0001
0000
1000
0100
,  // measure 67
0100
0000
0010
0001
0001
0000
1000
0000
,  // measure 68
0010
0100
0001
0010
0100
0000
1000
0010
,  // measure 69
0010
0100
0001
1000
0001
0000
0010
0100
,  // measure 70
1000
0000
0100
0000
0010
0000
0100
0000
1000
0001
1000
0001
1000
0000
0001
0000
,  // measure 71
0100
0010
0100
0010
0100
0000
0001
0000
1000
0100
1000
0100
1000
0000
0001
0000
,  // measure 72
1000
0010
1000
0010
1000
0000
0001
0000
0000
0000
0000
0000
1000
0000
0010
0000
,  // measure 73
0100
0010
0000
1000
0010
0100
0010
1000
,  // measure 74
0001
1000
0100
1000
0001
0100
0001
0010
,  // measure 75
0100
0010
0000
0001
0010
0100
0010
0001
,  // measure 76
1000
0001
0100
0001
1000
0100
0000
0010
,  // measure 77
0001
0010
0000
0100
0010
0001
0010
0100
,  // measure 78
1000
0100
0001
0100
1000
1000
0001
0000
,  // measure 79
0100
0010
0010
0000
1000
0001
0001
0000
,  // measure 80
0000
0000
0000
0010
0100
1000
1001
0001
,  // measure 81
0010
0100
0000
1001
0001
0010
0100
0000
,  // measure 82
1100
1000
1001
0001
0101
0000
1001
1000
,  // measure 83
0010
0100
0000
1001
1000
0010
0100
0000
,  // measure 84
0101
0001
1001
1000
0100
0010
0000
0001
,  // measure 85
1000
0000
0001
0000
0000
0000
0010
0000
0001
0000
1000
0000
0001
0100
0001
0100
,  // measure 86
0001
0000
1000
0000
0001
0010
0001
0010
0001
0000
1000
0000
0001
0100
0001
0100
,  // measure 87
0001
0000
1000
0000
0001
0010
0001
0010
0100
1000
0100
1000
0001
0000
0000
0000
,  // measure 88
0000
0000
0000
1000
0100
0010
0001
0000
;

//---------------dance-single - ----------------
#NOTEDATA:;
#CHARTNAME:Close Your Eyes...;
#CHARTHASH:2846779420;
#STEPSTYPE:dance-single;
#BANNER:;
#DESCRIPTION:;
#CHARTSTYLE:;
#DIFFICULTY:Challenge;
#METER:18;
#METERF:0.000000;
#LASTSECONDHINT:116.858643;
#RADARVALUES:0.959033,1.167540,0.302972,0.000000,0.745471,842.000000,804.000000,38.000000,0.000000,0.000000,0.000000,0.000000,0.000000,0.000000,0.959033,1.167540,0.302972,0.000000,0.745471,842.000000,804.000000,38.000000,0.000000,0.000000,0.000000,0.000000,0.000000,0.000000;
#CREDIT:y0s3fu [S8];
#DISPLAYBPM:191.000000;
#NOTES:
0000
0000
0000
0000
,
0000
0000
0000
0000
,
0000
0000
0000
0000
,
0000
0000
0000
0000
,
0000
0000
0000
0000
,
0000
0000
0000
0000
0000
0000
0000
0001
,
0000
1000
0100
1000
0000
0010
1000
0100
,
1000
0010
0100
0010
0001
0010
0100
0100
,
0001
1000
0001
0010
0010
0100
1000
0001
,
0001
1000
0100
1000
0010
1000
0001
0010
,
0000
0000
0000
0000
0001
0000
1000
0010
1000
0000
0001
0010
0001
0000
1000
0100
,
1000
0000
0001
0100
0001
0000
1000
0001
1000
0000
0010
0100
0010
0000
1000
0001
,
1000
0000
0100
0010
0100
0000
1000
0001
0100
0000
0001
1000
0100
0000
1000
0001
,
0010
0000
0001
1000
0010
0000
1000
0010
0100
0000
0001
0100
0010
0000
1000
0100
,
0010
0000
0001
0010
0100
0000
1000
0010
0100
0000
0001
0010
0100
0000
0010
0001
,
1000
0000
0010
0100
0001
0000
1000
0100
0010
0000
0001
0100
0010
0000
1000
0010
,
0100
0000
0001
0010
0100
0000
1000
0001
0100
0000
0010
1000
0001
0000
0010
0100
,
1000
0000
0001
0100
0010
0000
1000
0000
0000
0000
0010
0000
0000
0000
1000
0000
,
0000
0000
0001
0000
1000
0000
0001
0100
0010
0000
1000
0001
0010
0000
0100
1000
,
0001
0000
0100
0010
1000
0000
0100
1000
0001
0000
0010
0001
0100
0000
0010
1000
,
0001
0000
0010
0100
1000
0000
0010
0100
0001
0000
0010
0100
1000
0000
0001
1000
,
0100
0000
0010
0001
1000
0000
0010
1000
0001
0000
0010
0001
0100
0000
0010
1000
,
0001
0000
0010
0100
0001
0000
0100
0010
0001
0000
1000
0010
0100
0000
0001
1000
,
0100
0000
0010
0100
0001
0000
0100
0010
0001
0000
1000
0010
0100
0000
0001
0010
,
0100
0000
0010
0100
0001
0000
0100
0010
0001
0000
1000
0010
0100
0000
0001
0010
,
0100
0000
1000
0001
0100
0000
0000
0000
0001
0000
0000
0000
0001
0000
0000
0000
,
0001
0000
0000
0000
1000
0100
0000
1000
0100
0000
0010
0001
0000
0010
0001
0000
,
1000
0000
1000
0000
0001
0100
0000
0001
0100
0000
0010
1000
0000
0010
1000
0000
,
0001
0000
0001
0000
0010
0001
0000
0010
0001
0000
1000
0010
0000
1000
0010
0000
,
1000
0000
1000
0000
0100
1000
0000
0100
1000
0000
0001
0100
0000
0001
0100
0000
,
0001
0000
0001
0000
1000
0010
0000
1000
0001
0000
0010
0001
0010
0001
0000
0010
,
0100
0000
1000
0001
1000
0001
0000
1000
0010
0000
0100
0001
0100
0001
0000
1000
,
0100
0000
1000
0001
1000
0010
0100
0001
0100
0001
1000
0100
1000
0100
0010
0001
,
0010
0001
1000
0010
1000
0010
1000
0000
0001
0010
0001
0000
1000
0000
0001
0000
,
0100
0001
0100
0001
0100
0000
0001
1000
0100
0010
0001
0000
1000
0000
0010
0000
,
0100
0000
0010
0000
1000
0000
0001
0010
0100
1000
0001
0000
1000
0000
0001
0000
,
0100
0000
0010
1000
0001
0000
0010
0100
1000
0001
0100
0000
0010
0000
1000
0000
,
0001
1000
0100
0010
1000
0010
0010
0001
,
1000
0000
0010
0100
0001
0000
1000
0100
0010
0100
1000
0000
0001
0000
0100
0000
,
0010
0000
0100
0001
1000
0000
0100
0010
0001
1000
0010
0000
0100
0000
0001
0000
,
1000
0000
0100
0010
0001
0000
0100
0010
1000
0001
0010
0000
0100
0000
1000
0000
,
0010
0000
1000
0000
0100
0000
0010
0001
1000
0000
0010
0100
0001
0000
1000
0000
,
0010
1000
0010
1000
0001
0000
0010
0000
1000
0000
0010
0000
0001
0000
1000
0000
,
0010
0000
0001
0000
0010
0000
0100
0001
1000
0000
0100
1000
0001
0000
0100
0000
,
0010
0000
0100
0001
1000
0000
0100
0000
0001
0000
0100
0000
1000
0000
0001
0000
,
0100
0000
1000
0000
0100
0000
0010
1000
0001
0000
0010
0100
1000
0000
0001
0000
,
0100
0001
0100
0001
0100
0001
0000
0100
0001
0000
1000
0100
0000
1000
0100
0000
,
1000
0000
0001
0000
0010
0001
0000
0010
0001
0000
1000
0010
0000
1000
0010
0000
,
1000
0000
1000
0000
0001
0100
0001
1000
0100
1000
0010
0100
0001
0010
0001
1000
,
0010
0100
0010
1000
0100
0010
0001
0100
0010
1000
0100
0010
1000
0010
0001
1000
,
0010
0100
1000
0100
0001
1000
0100
0010
0001
0100
0010
0001
0010
1000
0010
0100
,
0001
1000
0100
0010
0000
0000
0000
0000
0000
0000
0001
0000
0000
0000
0001
0000
,
0001
1000
0010
0000
1000
0100
0010
0100
,
0000
1000
0100
0010
0100
1000
0001
1000
,
0010
1000
0001
1000
0001
0100
0010
0100
,
0000
0001
0100
0010
0100
0001
1000
0001
,
0010
0001
1000
0100
0000
1000
0010
1000
,
0000
0100
1000
0010
1000
0100
0010
0100
,
0001
0100
0010
0010
0001
1000
0001
0100
,
0100
0010
1000
0001
0001
1000
0010
1000
,
0100
1000
0001
0100
0001
0010
1000
0010
,
0001
1000
0010
0001
0010
1000
0001
1000
,
0100
1000
0001
1000
0001
0100
1000
0100
,
0001
1000
0100
0001
0100
1000
0001
1000
,
0010
1000
0100
0010
0001
0100
0001
0100
,
0010
1000
0100
0001
0100
0010
0001
0010
,
1000
0010
0100
0100
1000
0010
0100
0001
,
0001
0010
0001
0100
0100
0010
1000
0100
,
0010
0001
1000
0010
0100
0001
1000
0010
,
0010
0100
0001
1000
0001
1000
0100
0010
,
0001
0000
0010
0000
0100
0000
0010
0000
0001
0010
0100
1000
0010
1000
0001
0010
,
0100
0010
0001
1000
0010
0100
0001
1000
0100
0010
0100
1000
0010
1000
0001
0010
,
0100
1000
0010
0100
0001
1000
0001
0010
0000
0000
0000
0000
1001
0000
0001
0000
,
0100
0010
1000
1001
0001
0100
0010
1000
,
1100
0100
0110
0010
0011
0001
1001
1000
,
0010
0100
0001
1001
1000
0010
0100
0001
,
1001
1000
1010
0010
0110
0100
0001
0010
,
0100
0010
0001
1001
1000
0010
0100
0010
,
0110
0100
1100
0100
0101
0001
1000
0100
,
0010
0001
0011
0010
0001
0100
0101
0000
,
0000
0000
0000
0001
1000
0010
1010
0110
,
0101
0110
0010
1010
0110
0101
0110
0010
,
1010
1000
1001
0001
0011
0010
0011
0110
,
1100
0110
0010
0011
0110
1100
0110
0010
,
0011
0001
0101
0100
0110
0010
1000
0001
,
0100
0000
0001
0000
0000
0000
1000
0000
0001
0000
0100
0000
0001
1000
0100
0010
,
0100
0001
0100
1000
0001
0100
0010
1000
0001
0010
0100
0001
0100
0010
0100
1000
,
0001
0100
0010
1000
0001
1000
0100
0010
1000
0010
0100
0010
0001
0000
0000
0000
,
0000
0000
0000
0100
0001
0010
0100
0000
;
