#TITLE:24h Endurance Race;
#SUBTITLE:;
#ARTIST:BEMANI Sound Team "Risk Junk";
#TITLETRANSLIT:;
#SUBTITLETRANSLIT:;
#ARTISTTRANSLIT:;
#GENRE:;
#CREDIT:;
#MUSIC:24h Endurance Race.ogg;
#BANNER:;
#BACKGROUND:;
#CDTITLE:;
#SAMPLESTART:45.978;
#SAMPLELENGTH:13.030;
#SELECTABLE:YES;
#OFFSET:-0.326;
#BPMS:0.000=184.000;
#STOPS:136.000=0.978;
#BGCHANGES:0.000=24h Endurance Race.mp4=1.000=0=0=1,
99999.000=-nosongbg-=1.000=0=0=0=StretchNoLoop====
;
#FGCHANGES:;

//--------------- dance-single - Pandy Le Mans ----------------
#NOTES:
     dance-single:
     Pandy Le Mans:
     Beginner:
     7:
     0.257468,0.503102,0.215316,0.095696,0,226,199,27,12,0,0,0.257468,0.503102,0.215316,0.095696,0,226,199,27,12,0,0:
0000
0000
0000
0000
,
0000
0000
0000
0000
,
0000
0000
0000
0000
,
0000
0000
0000
0000
,
0000
0000
0000
0000
,
0000
0000
0000
0000
,
0000
0000
0000
0000
,
0000
0000
0000
0000
,
0000
0000
0000
0000
,
0000
0000
0000
0000
,
0001
0000
1000
0000
,
0001
1000
0001
0000
,
0100
0000
0010
0000
,
0100
0010
0100
0000
,
1001
0000
0010
0000
,
1001
0000
0100
0000
,
1001
0000
0110
0000
,
1001
0110
1001
0110
,
0001
0000
0000
0001
0000
0000
0001
0000
,
2000
0000
3000
0010
,
0200
0000
0300
0010
,
1000
0000
0000
0100
0000
0000
0010
0000
,
0100
0000
0010
0000
,
0001
0000
1000
0000
,
0010
0000
1000
0000
,
0001
1000
0001
0000
,
1000
0000
0100
0000
,
0010
0000
0001
0000
,
0100
0100
0100
0100
,
0010
0010
0100
0010
,
1000
0000
0001
0000
,
0010
0001
0010
0000
,
0001
0000
1000
0000
,
0010
0000
0100
0001
,
0000
1000
0001
0010
,
0000
0001
1000
0010
,
0100
0001
0100
0010
,
0100
0001
0000
1000
,
0100
0010
0000
0100
,
1000
0001
0000
1000
,
0001
0100
0000
0001
,
0000
0010
0001
1000
,
0100
1000
0000
0001
,
0000
0100
0001
0010
,
0000
0100
0000
0010
,
0000
0001
1000
0100
,
0000
0110
0000
0000
,
0000
1001
0000
0000
,
0000
0110
0000
1001
,
0000
1001
0110
1001
,
0110
0000
0002
0000
0000
0000
0000
0003
,
0000
0000
2000
0000
0000
0000
0000
3000
,
0000
0010
0000
0100
,
0000
0002
0000
1003
,
0001
0110
0000
0000
,
0010
1001
0000
0000
,
0100
1001
0000
0110
,
0000
1001
0110
1001
,
0110
1001
0000
0000
,
0000
0002
0000
0003
,
0000
0020
0000
0030
,
0000
0100
0000
1000
,
0000
0010
0000
0100
,
0000
0001
0000
0010
,
0000
0100
0000
0010
,
0000
0001
0000
1000
,
0000
0002
0000
0000
,
0003
0200
0000
0000
,
0300
0020
0000
0230
,
0000
0302
0000
1003
,
0001
1001
0000
0001
,
0000
1000
1000
1000
,
0000
0001
0000
0100
,
0000
0010
0010
0010
,
0000
0100
0100
0100
,
0100
0010
0010
0010
,
0010
1000
0000
0001
,
0000
0010
0000
0001
,
0000
1000
1000
1000
,
1000
0001
0001
0001
,
0001
1000
0000
0000
,
0000
0001
0000
0100
,
0000
0010
0010
0010
,
0010
0100
0100
0100
,
0100
0010
0000
0100
,
0000
0001
0000
1000
,
0000
0100
0100
0100
,
0000
0010
0010
0010
,
0000
0100
0000
1000
,
0000
0001
0100
0010
,
0000
1001
0000
0000
0000
0000
0000
0000
;

//--------------- dance-single - Pandy Le Mans ----------------
#NOTES:
     dance-single:
     Pandy Le Mans:
     Easy:
     10:
     0.454556,0.574974,0.175443,0.087721,0,399,377,22,11,0,0,0.454556,0.574974,0.175443,0.087721,0,399,377,22,11,0,0:
0000
0000
0000
0000
,
0000
0000
0000
0000
,
1000
0001
0010
0001
,
1000
0000
0000
1000
0000
0000
1000
0000
,
0001
1000
0010
1000
,
0001
0000
0000
0010
0000
0000
0100
0000
,
0110
0010
0001
0001
,
0100
0000
0000
0010
0000
0000
0100
0000
,
0000
0001
0000
0000
0001
0000
0000
0001
,
0000
0001
0000
0000
0001
0000
0000
0000
,
1000
0001
0010
0001
,
1000
0010
1000
0001
,
1000
0100
1000
0001
,
0100
0001
1000
0010
,
1001
1000
0100
0010
,
1001
1000
0100
0010
,
1001
1000
1001
1000
,
1001
0110
1001
0110
,
0001
0000
0000
1000
0000
0000
0010
0000
,
0200
0000
0300
0010
,
2000
0000
3000
0001
,
0010
0100
0010
0001
,
1000
0001
0100
0001
,
0010
0000
0100
0020
0031
0000
1000
0000
,
0001
0100
0001
0010
,
0001
0100
0001
0010
,
0100
0010
0001
1000
,
0100
0010
0100
1000
,
0001
0001
1000
1000
,
0010
0010
0100
0010
,
1000
1000
0001
0010
,
0001
1000
0100
0010
,
0100
1000
0010
0100
,
0001
0000
1000
0000
0010
0100
0001
0000
,
0000
0000
1000
0000
1000
0000
0001
1000
,
0001
0000
1000
0000
1000
0000
0010
0100
,
0020
0130
0002
0013
,
0002
1003
0100
0010
,
0001
0000
0100
0001
0010
0001
0100
0000
,
0001
0000
1000
0010
0100
0010
1000
0000
,
0001
1000
0100
1000
,
0001
0100
0100
0010
,
0010
0000
1000
0000
0010
0100
0010
0000
,
0100
0001
0200
0000
0301
0000
0010
0000
,
0100
0010
0001
1000
,
0010
0100
0010
1000
,
0001
0000
1000
0100
1000
0000
0001
0000
,
0101
0000
0001
0100
0001
0000
1000
0000
,
1100
0110
0010
1001
,
0100
0101
1010
0101
,
1010
0001
1000
0020
,
1030
0100
0010
0002
,
0013
0001
0001
1000
,
1000
0001
0100
0001
,
0100
0010
1000
0001
,
0010
0100
1000
0000
0100
0000
0010
0000
,
0001
0010
0100
0000
0010
0000
0001
0000
,
0100
0010
0010
0100
,
0100
1001
0001
0001
,
0001
2000
0000
3000
,
0010
0200
0000
0300
,
0010
1000
0010
1000
,
0001
0010
0100
0010
,
0001
0100
0001
1000
,
0100
1000
0001
0100
,
0001
1000
0100
1000
,
0001
1000
0100
0010
,
0001
0010
0100
0010
,
0001
0000
0000
1000
0000
0001
0000
0100
,
0000
0001
0000
0010
0000
0001
0000
1000
,
0000
0010
0100
0000
0100
0000
0010
0000
,
0010
1000
0001
0010
,
0001
1000
0100
0010
,
0100
1000
0001
0100
,
0010
0000
1000
0001
1000
0001
1000
0001
,
1000
0000
0010
0100
0010
0100
0010
0100
,
0010
0100
0001
0100
,
0010
1000
0100
0010
,
0001
0000
1000
0010
1000
0010
1000
0010
,
1000
0000
0001
0100
0001
0100
0001
0100
,
0001
1000
0001
0010
,
0001
1000
0010
1000
,
0001
0000
0010
0100
0010
0100
0010
0100
,
0010
0000
0001
1000
0001
1000
0001
1000
,
0001
1000
0010
1000
,
0001
0010
0100
0010
,
0001
0000
1000
0100
1000
0100
1000
0100
,
1000
0000
0001
0010
0001
0010
0001
0010
,
0001
0000
0010
0001
0100
0000
0010
1000
,
0100
0110
1001
0110
,
0000
1001
0000
0000
0000
0000
0000
0000
;

//--------------- dance-single - Pandy Le Mans ----------------
#NOTES:
     dance-single:
     Pandy Le Mans:
     Medium:
     13:
     0.608354,0.646846,0.167468,0.159493,0.111645,534,513,21,20,0,0,0.608354,0.646846,0.167468,0.159493,0.111645,534,513,21,20,0,0:
0000
0000
0000
0000
,
0000
0000
0000
0000
,
1000
0000
0001
0000
0100
0001
0100
0010
,
0100
0000
0010
1000
0000
0010
0100
0000
,
0001
0000
1000
0000
0100
1000
0100
0010
,
0100
0000
0010
0001
0000
1000
0100
0100
,
1000
0000
0001
0000
0100
0001
0010
0001
,
0100
0000
0001
1000
0000
0001
0100
0010
,
0000
1000
0001
0000
1000
0001
0000
1000
,
0001
1000
0001
0000
1000
0001
1000
0000
,
0001
0100
0001
0000
1000
0010
1000
0000
,
0001
0100
0001
0000
0101
0000
1010
0000
,
1000
0100
1000
0000
0001
0010
0001
0000
,
1000
0100
1000
0000
0011
0000
1100
0000
,
0000
0001
0100
0010
0000
0100
0010
1000
,
0000
0010
0100
0001
0000
0100
0010
1000
,
0001
0001
1000
1000
,
0010
0100
0010
0100
0010
0100
0010
0100
,
0010
0000
0000
1000
0000
0000
0001
0000
,
0010
0001
0010
0001
0010
0000
0100
0000
,
1000
0001
1000
0001
1000
0001
0100
0001
,
0010
0000
0000
0100
0000
0000
1000
0000
,
0001
0000
1000
0010
0100
0000
0010
1000
,
0001
0000
0010
0100
1000
0000
0100
1000
,
0001
0100
0001
1000
0000
0001
0000
0010
,
0100
1000
0000
0100
0000
1000
0000
0010
,
0100
0010
1000
0001
,
0010
0001
1000
0010
,
0100
0100
0010
0010
,
1000
1000
0001
0001
,
1001
0000
0101
0000
0001
1000
0010
0000
,
1010
0000
1001
0000
1000
0100
0010
0000
,
0001
0010
0100
0010
0000
0001
0100
0010
,
1000
0000
0001
0000
0010
0000
0100
0000
0000
0000
0010
0100
0010
0000
0000
0000
,
0000
0000
1001
0000
0001
0100
0001
0010
,
0001
0000
1001
0000
1000
0010
0100
0010
,
1000
0100
0010
0000
0100
0010
0001
0000
,
0010
0100
1000
0000
0100
0010
0001
0010
,
0100
0000
0010
0000
0001
1000
0000
0001
1000
0000
0001
0000
0000
0000
1000
0000
,
0010
0000
0000
0000
0100
0010
0000
0100
0010
0000
0100
0000
0000
0000
0010
0000
,
1000
0001
0010
0100
1000
0100
1000
0001
,
0100
0000
0001
0000
0010
0000
0000
0010
0000
0000
0100
0000
0000
0100
0000
0000
,
0010
0001
1000
1000
0001
0100
0001
0000
,
1000
1000
0002
0000
0013
0100
1000
0100
,
0010
0001
1000
0000
0010
0000
0001
0000
,
0010
0000
0100
0010
1000
0001
0100
0010
,
1000
0000
0001
0000
0010
0100
0000
0010
0100
0000
0010
0000
0001
0000
0001
0000
,
1000
0000
0000
0000
0010
0100
0000
0010
0100
0000
0010
0000
1000
0000
1000
0000
,
0001
0000
1000
0100
1000
0000
0001
0100
,
0001
0000
1000
0010
0100
0010
1000
0001
,
0010
0000
0100
0000
1000
0000
0000
1000
0000
0000
2000
0000
0000
0000
3020
0000
,
0000
0000
0000
0000
0130
0000
0000
0100
0000
0000
0200
0000
0000
0000
0302
0000
,
0000
0000
0000
0000
0013
0000
0000
0100
0000
0000
1000
0000
0000
0000
0001
0000
,
1000
0010
0100
0001
0100
0001
0100
0001
,
0100
0000
0001
0000
1000
0000
0000
0000
0100
0000
0000
1000
0000
0000
0010
0000
,
0100
0000
0001
0000
0010
0000
0000
0000
0100
0000
0000
0010
0000
0000
0001
0000
,
0100
0010
1000
0001
0020
0031
1000
0020
,
0130
0001
1000
0100
0010
0001
0010
0100
,
0010
0001
1001
0000
1000
0000
0001
0000
,
0100
0001
1000
0100
,
2000
3001
0200
0301
,
2000
3100
0002
0103
,
2000
3001
0200
0301
,
0020
0031
2000
3010
,
0200
0310
2000
3010
,
0200
0301
0020
0130
,
2000
3001
1000
0001
,
0100
0001
0010
0100
,
0010
0000
0000
0011
0000
1100
0000
0101
,
0000
1010
0000
1001
0000
0110
0000
1001
,
0000
0001
1000
0000
1000
0000
0100
0010
,
0100
1000
0001
0001
0100
0001
0000
1000
,
0001
0100
0001
0000
1000
0001
0000
0100
,
0010
0000
1000
0000
0001
0010
0010
0100
,
1000
0000
0001
0100
1000
0100
0001
0000
,
1001
0000
1000
0100
0001
0100
1000
0000
,
1001
0000
0001
1000
0010
1000
0001
0010
,
0001
0000
0010
0000
0100
0000
0000
0100
0000
0000
1000
0000
0000
1000
0000
0000
,
0001
1000
0010
0100
0010
1000
0010
0010
,
0100
0000
0001
0100
0010
0100
0001
1000
,
0001
0000
1000
0000
0100
0000
0010
0000
0001
0000
0000
0001
0000
0000
0010
0000
,
0000
0010
0000
0000
0100
0000
0000
0100
0000
0000
1000
0000
0100
0000
0010
0000
,
0001
1000
0001
0010
0001
1000
0010
0010
,
1000
0000
0001
1000
0100
1000
0001
0001
,
0100
0000
0000
0000
0010
0000
0000
1000
0000
0000
0100
0000
0000
0010
0000
0000
,
0001
0000
0010
0000
0100
0000
0000
0010
0100
0000
0000
0100
1000
0000
0001
0000
,
0100
0000
0010
0000
0010
0000
0010
0100
,
0001
0000
0001
0000
0001
0000
0001
1000
,
0010
0000
0000
0000
0010
0000
0100
0000
0001
0000
0000
1000
0000
0000
0010
0000
,
0000
0100
0000
0000
0001
0000
0000
0010
0100
0000
0010
0000
0001
0000
1000
0000
,
0010
1001
0000
0000
0000
0000
0000
0000
;

//--------------- dance-single - Pandy Le Mans ----------------
#NOTES:
     dance-single:
     Pandy Le Mans:
     Hard:
     16:
     0.819113,0.934333,0.103671,0.143544,0.518354,719,706,13,18,0,0,0.819113,0.934333,0.103671,0.143544,0.518354,719,706,13,18,0,0:
0000
0000
0000
0000
,
0000
0000
0000
0000
,
1000
0000
1000
0000
1000
0100
0001
0100
,
1000
0000
1000
0010
0000
0100
0001
0010
,
0100
0000
1000
0000
1000
0010
0001
0010
,
0100
1000
0100
0001
1000
0100
0010
0001
,
1000
0000
1000
0000
1000
0100
0001
0100
,
1000
0010
0100
1000
0000
1000
0100
0001
,
1000
0000
0010
0100
0001
0000
0000
0000
1000
0010
0100
0000
0000
0000
0010
0100
,
0001
0000
1000
0010
0100
0000
0000
0000
0010
0100
0001
0100
0010
0000
0000
0000
,
1000
1000
0010
0000
0100
0100
0001
0000
,
0010
1000
0010
0001
0100
0010
1000
0001
,
0010
0010
0001
0000
0100
0100
0001
0000
,
0010
0001
0010
1000
0010
0001
0100
0010
,
1001
1000
0100
0010
0001
0001
0010
0100
,
1001
1000
0100
0010
0001
0001
0010
0100
,
1001
1000
0001
1000
0001
1000
0001
1000
,
0010
0010
0100
0100
0010
0010
0100
0100
,
1001
0000
0001
0100
0000
0001
1000
0000
,
0100
0010
0100
0010
0100
0010
0100
0010
0100
0000
0000
0000
0010
0000
0000
0000
,
0001
1000
0001
1000
0001
1000
0001
1000
0001
0000
0100
0000
0001
0000
0010
0000
,
0001
0000
0001
0000
0100
0000
0010
0000
0000
0000
0100
0000
0010
1000
0010
0000
,
0100
0000
0010
1000
0000
0100
0010
0100
,
1000
0000
1000
0000
0001
0000
0100
0010
0100
0010
0100
0000
0001
0000
1000
0000
,
0100
0100
1000
0010
0000
0100
0000
0010
,
1000
1000
0000
0001
0000
1000
0010
1000
,
0100
0001
0100
1000
0010
0100
0001
1000
,
0001
0010
1000
0010
0001
0010
0100
1000
,
0001
0100
0001
1000
0100
1000
0001
0100
,
0001
1000
0010
1000
0001
0010
0001
1000
,
0010
0000
1000
0000
0100
0100
1000
0100
,
0010
0010
0001
1000
0000
0001
0100
0010
,
1000
0000
0000
0100
0000
0000
0010
0000
0000
0100
0000
0000
0000
0000
0000
0010
0000
0000
0001
0000
0100
0000
0010
0000
,
1000
0000
0010
0000
0100
0000
0001
0010
0001
0010
0001
0010
0100
0000
0000
0000
,
0000
0000
1100
0000
0100
1000
0010
0010
,
0110
0000
0101
0000
0001
0100
0010
0010
,
0100
0000
0001
0010
0100
0000
0000
0000
0010
0000
0001
1000
0010
0000
0000
0000
,
0100
0000
0010
1000
0100
0000
0000
0000
0010
0000
0001
0010
0100
0000
0010
0000
,
0001
0000
1000
0000
0001
0100
0000
0001
0100
0000
0001
0000
0000
0000
1000
0000
,
0010
0000
1000
0000
0100
1000
0000
0100
1000
0000
0100
0000
0000
0000
0100
0000
,
0010
0001
0100
0010
1000
0001
0010
0100
,
0010
0000
0001
0000
0100
0001
0000
0100
0010
0000
0100
0000
0010
0100
0000
0010
,
1000
0000
0001
0000
1000
0000
1000
0000
1000
0100
0010
0001
0010
0000
0000
0000
,
0100
0010
0001
1000
0001
0100
0001
0100
0010
0000
0100
0000
0010
0000
1000
0000
,
0001
0010
0100
0010
0001
0100
0010
1000
,
0001
0010
0100
1000
0100
0010
0100
1000
,
0001
0000
0100
0000
0010
0100
0000
0001
1000
0000
0100
0000
0010
0000
0010
0000
,
0100
0000
1000
0000
0001
1000
0000
0100
0010
0000
0100
0000
0010
0000
0010
0000
,
0001
0010
0100
1000
0100
0001
0100
1000
,
0010
0000
0001
0000
0010
0100
0000
0100
0010
0000
1000
0001
0000
0001
0010
0000
,
0100
0000
1000
0000
0002
0000
0000
0203
0000
0000
0320
0000
0000
0000
2000
0000
,
0000
0000
3030
0000
0020
0000
0000
0230
0000
0000
0302
0000
0000
0000
2000
0000
,
0000
0000
3003
0000
0001
1000
0000
0001
1000
0000
0001
1000
0000
0001
1000
0000
,
0010
0000
1000
0000
0100
0010
0100
0010
0100
0010
0100
0010
0100
0010
0100
0010
,
0100
1000
0001
0000
1000
0000
0000
0000
0001
0000
0000
0100
0000
0000
0010
0000
,
1000
0000
0001
0000
0010
0000
0000
0000
0100
0000
0000
0010
0000
0000
0001
0000
,
0100
0010
1000
0001
0010
0001
1000
0010
,
1000
0001
0010
0010
0100
0100
1000
1000
,
0001
0001
0101
0000
0100
0000
0100
0000
,
0100
0100
0100
0100
,
0100
0010
1000
0100
0000
0000
0100
0000
0000
0100
0000
0100
,
0010
0001
0100
0010
0000
0100
0010
1000
0100
0010
0000
0001
,
0100
0010
0100
0001
0000
1000
0001
0100
0010
1000
0000
1000
,
0100
0010
0001
0010
0000
0010
0001
0100
0010
1000
0000
1000
,
0010
0100
0001
0010
0000
0010
0100
0010
0001
1000
0000
1000
,
0001
0100
0010
1000
0000
1000
0010
0100
0001
0010
0100
0010
,
0001
0000
1000
0000
0001
0000
0100
0000
0000
0001
0000
0000
0100
0000
0000
1000
0000
0000
0100
0000
0000
0001
0000
0000
,
1000
0001
1000
0100
0001
0100
1000
0100
,
0010
0001
1000
0020
1030
0002
0013
0002
,
1003
0020
1030
0002
0103
0002
1003
0200
,
1300
0002
0103
0000
0001
0000
0010
0010
,
0001
0010
0100
0100
1000
0001
0000
1000
,
0010
0100
0001
0010
0100
0010
0000
0100
,
1000
0000
0000
0000
0010
0000
0000
0000
0100
0000
0000
0000
0001
0000
0000
0000
0000
0000
0100
0000
0000
0000
0000
0000
0010
0000
0000
0000
0000
0000
1000
0000
0000
0100
0000
0000
1000
0000
0000
0100
0000
0000
1000
0000
0000
0100
0000
0000
,
0010
0000
0000
0000
0001
0010
0001
0000
0001
0010
0001
0000
0001
0000
0100
0000
,
0110
0000
0000
0000
0010
1000
0010
0000
0010
1000
0010
0000
0010
0000
0100
0000
,
1001
0000
0000
0000
1000
0001
1000
0000
0010
0000
1000
0001
1000
0000
0100
0000
,
1000
0001
1000
0001
1000
0010
0000
0100
0010
0000
1000
0001
0000
0010
0100
0000
,
0010
0001
0100
0010
1000
0010
0100
0100
,
0010
1000
0001
0010
0100
0010
0100
1000
,
0100
0000
0010
0000
0100
0000
1000
0000
0010
0000
0000
0100
0000
0000
0001
0000
,
0000
1000
0000
0000
0100
0000
0000
0010
0000
0000
0100
0000
1000
0000
0010
0000
,
0100
0000
0001
0000
1000
0001
1000
0000
1000
0001
1000
0000
0001
0000
0001
0000
,
1001
0000
0000
0000
0001
1000
0001
0000
0001
1000
0001
0000
1000
0000
1000
0000
,
1001
0000
0001
0100
0020
0130
0001
2000
,
3001
0000
0010
0000
0100
1000
0000
0100
0010
0000
0001
0010
0000
0001
0100
0000
,
0010
1000
0010
0001
0010
1000
0001
0001
,
1000
0001
1000
0100
0001
0100
1000
0100
,
0001
0000
0100
0000
1000
0000
0100
0000
0010
0000
0000
0001
0000
0000
0010
0000
,
0000
0001
0000
0000
1000
0000
0000
0010
0000
0000
0100
0000
0001
0000
0010
0000
,
0100
1001
0000
0000
0000
0000
0000
0000
;

//--------------- dance-single - Pandy Le Mans ----------------
#NOTES:
     dance-single:
     Pandy Le Mans:
     Challenge:
     18:
     1.036707,1.185884,0.111645,0.247215,1.184239,910,896,14,31,0,0,1.036707,1.185884,0.111645,0.247215,1.184239,910,896,14,31,0,0:
0000
0000
0000
0000
,
0000
0000
0000
0000
,
2100
0000
3020
0000
0130
1000
0100
0001
,
1000
0100
0010
0001
0001
0010
0100
1000
,
2100
0000
3020
0000
0130
1000
0100
0001
,
1000
0100
0010
0200
0000
0310
0001
1000
,
1002
0000
0203
0000
0310
0001
0010
1000
,
0001
0010
0100
1000
1000
0100
0010
0001
,
1000
0000
0001
0010
0100
0000
1000
0000
0001
0010
0100
0000
1000
0000
0001
0010
,
0100
0000
0010
0100
1000
0000
0001
0000
0010
0100
1000
0000
0001
0000
1000
0000
,
0010
0100
0002
0000
0013
1000
0020
0000
,
0031
0100
0010
1000
0001
1000
0100
0001
,
0100
1000
0020
0000
0031
0010
2000
0000
,
3100
0000
0010
0000
0010
0000
0001
0000
1000
0000
0001
0010
0100
0000
1000
0000
,
1001
0000
1000
0010
0100
0000
0001
0000
1000
0000
0001
0100
0010
0000
1000
0000
,
0001
0000
0001
0010
0100
0000
0010
0000
1000
0000
1000
0100
0010
0000
0001
0000
,
1001
1000
0001
1000
0001
1000
0001
1000
,
0001
0100
0001
0100
0010
0100
0010
1000
0001
0010
0100
1000
0001
1000
0001
1000
,
0001
0000
1000
0010
0000
0100
0010
0000
,
1000
0100
1000
0100
1000
0100
1000
0100
1000
0000
0000
0000
0010
0000
0000
0000
,
0100
0001
0100
0001
0100
0001
0100
0001
0010
0000
0100
0000
0010
0000
0001
0000
,
1000
0000
1000
0000
0010
0000
1000
0000
0000
0000
0001
0000
1000
0100
1000
0100
,
1000
0000
0000
0000
0000
0000
1000
0000
0001
0000
0010
0000
0001
0000
0000
0000
0000
0000
0100
0000
0000
0001
0000
0000
,
1000
0000
0100
0000
1000
0000
0010
0100
0010
0100
0001
0000
1000
0000
0001
0000
,
0010
0100
0010
0001
0000
0001
0000
1000
,
0100
0010
0000
0100
0000
0100
0010
0001
,
1000
0010
0001
0010
0100
0001
1000
0010
,
1000
0100
0001
0100
0010
0001
1000
0010
,
1000
0010
1000
0000
0010
0100
0010
0000
0100
0001
0100
0000
0001
0010
0001
0000
,
1000
0100
1000
0000
0001
0100
0001
0000
1000
0000
0100
0000
1000
0000
0010
0000
,
0100
0000
0100
0000
0100
1000
0100
0001
,
1000
0000
1000
0000
0100
0000
1000
0100
1000
0100
1000
0000
0100
0000
0010
0000
,
0001
0000
0000
0000
0000
0000
0100
0000
0000
0000
0000
0000
0001
0000
0000
0000
0000
0000
0010
0000
0000
0001
0000
0000
0010
0000
0000
0001
0000
0000
0010
0000
0000
0000
0000
0000
0100
0000
0000
0000
1000
0000
0000
0000
0001
0000
0000
0000
,
0100
0000
0010
0000
1000
0000
0001
1000
0001
1000
0001
0100
0010
0000
0000
0000
,
0000
0000
0000
0000
1001
0000
0000
0000
0001
0100
0001
1000
0001
1000
0001
1000
,
0010
0000
0000
0000
1001
0000
0000
0000
0001
0100
0001
1000
0001
1000
0001
1000
,
0100
0010
0001
0010
0100
0000
0000
0000
0010
0001
0010
0100
1000
0000
0000
0000
,
0100
0010
0001
0010
0100
0000
0000
0000
0010
0001
0010
0100
1000
0010
1000
0010
,
0100
0001
0010
0001
1000
0001
0000
1000
0001
0000
0100
0000
0000
0000
0010
0000
,
1000
0000
0001
0000
1000
0001
0000
1000
0001
0000
0010
0000
0000
0100
1000
0001
,
1000
0010
1000
0010
0100
0010
0100
0010
1000
0001
1000
0001
0010
0001
0010
0001
,
1000
0100
1000
0100
0010
0001
0000
0010
0100
0000
0010
0000
0001
0100
0010
0000
,
1000
0000
0001
0000
0100
0000
0100
0000
0100
0010
1000
0100
0010
0000
0010
0000
,
0010
0100
1000
0001
1000
0010
1000
0010
1000
0010
0100
0010
1000
0010
0100
0001
,
0010
0100
1000
0001
1000
0010
1000
0010
0100
0010
0100
0001
0100
0001
0010
0001
,
0010
0100
0010
0100
1000
0100
1000
0010
1000
0010
0100
0010
0100
0001
0100
0001
,
0010
0001
0010
0100
1000
0100
0000
1000
0100
0000
0011
0000
1001
0000
0011
0000
,
1000
0010
1000
0001
1000
0010
0000
1000
0010
0000
0101
0000
0100
0010
0100
0001
,
1000
0100
0010
0001
1000
0100
1000
0100
0010
0100
0010
0001
0010
0001
0100
0001
,
0100
0010
1000
0001
1000
0010
0000
0100
0001
0000
0100
0000
0010
0000
0010
0000
,
0100
0001
1000
0100
0020
0000
0000
0032
0000
0000
0203
0000
0000
0000
0020
0000
,
0000
0000
0330
0000
0200
0000
0000
0320
0000
0000
2000
0030
0000
0000
0002
0000
,
0000
0000
3003
0000
1000
0100
0000
0100
0010
0000
0010
0001
0000
0001
0010
0000
,
0001
0100
0001
0010
0001
1000
0001
1000
0001
1000
0001
1000
0001
1000
0001
1000
,
0001
0010
0100
1000
0001
1000
0000
0010
0100
0000
0001
1000
0000
0010
0100
0000
,
0001
0000
0001
0000
1000
0010
0000
0100
0001
0000
0010
0100
0000
0010
0001
0000
,
1000
0000
1000
0000
0010
0100
0010
1000
0100
0000
0010
0001
0010
0100
0010
0000
,
0100
1000
0010
0100
0001
0100
0001
0100
0010
0100
0010
1000
0010
1000
0010
0100
,
0001
1000
1010
0000
0010
0000
0010
0000
,
0010
0010
0010
0010
,
0010
0100
0001
0010
0000
0000
0010
0000
0000
0010
0000
0010
,
0001
0100
0010
1000
0000
1000
0100
1000
0001
0100
0000
0100
,
0010
1000
0001
0010
0000
0100
0001
0100
1000
0001
0000
0100
,
1000
0100
0001
1000
0000
0001
0010
1000
0010
0001
0000
1000
,
0100
0001
0100
1000
0000
1000
0001
1000
0010
0100
0000
0100
,
0010
0100
0001
0010
0000
0010
0100
1000
0010
0100
0001
0010
,
0100
0000
1000
0000
0001
0000
1001
0000
0000
1000
0000
0000
0010
0000
0000
1000
0000
0000
0001
0000
0000
0010
0000
0000
,
0001
0100
0010
0100
0001
0010
0100
1000
,
0001
1000
0010
2000
3100
0020
0031
0020
,
0130
2000
3010
0200
0301
0020
0130
2000
,
3010
0000
0000
0200
0000
0000
0301
0000
0000
0000
0000
0000
1000
0000
0100
0000
0010
0000
0100
0000
0000
0100
0000
0000
,
0010
0000
0001
0000
0100
0000
0100
0000
0001
0000
0010
0001
1000
0001
1000
0000
,
0100
0000
0010
0000
0001
0000
0010
0000
0100
0000
1000
0010
1000
0000
0010
0000
,
0100
0000
0000
0000
0010
0000
0000
0000
1000
0000
0000
0000
0001
0000
0000
0000
0000
0000
1000
0000
0000
0000
0000
0000
0100
0000
0000
0000
0000
0000
0010
0000
0000
0001
0000
0000
1000
0000
0000
0010
0000
0000
1000
0000
0000
0010
0000
0000
,
0100
0000
0000
0000
0010
1000
0010
0000
0100
0001
0100
0000
0001
0000
0001
0000
,
0001
0010
0100
0010
0001
0100
0001
0000
1000
0010
1000
0000
0100
0000
0100
0000
,
0100
0010
0001
0100
0001
0100
0001
0010
0200
0000
0310
0100
1000
0010
0200
0000
,
0310
1000
0001
0010
0001
1000
0000
0001
0100
0000
0001
1000
0000
0001
0010
0000
,
0001
1000
0001
1000
0001
0100
0010
1000
0001
0100
0010
1000
0001
0000
0001
0000
,
0001
1000
0100
0000
1000
0100
0010
0001
1000
0100
0010
0001
1000
0100
1000
0100
,
0010
0001
0010
0001
0010
0100
1000
0010
0100
0000
0100
0001
0000
0010
0001
0000
,
0010
0100
0000
1000
0100
0000
1000
0010
0000
0010
0100
0001
0100
0001
1000
0100
,
0010
0000
0001
0000
1000
0001
0010
0001
1000
0001
0010
0001
1000
0000
1000
0000
,
0001
0100
0001
0000
1000
0010
1000
0001
1000
0100
1000
0001
1000
0000
1000
0000
,
1000
0001
0100
0000
0010
1000
0010
0100
0020
0000
0130
0001
0100
0001
0020
0000
,
0130
0010
0001
1000
0010
0100
0000
0001
0010
0000
0010
0100
0000
0100
1000
0000
,
0001
1000
0010
0100
0001
1000
0001
0001
,
1000
0100
0010
0001
1000
0000
0001
0000
0100
0000
0010
0000
1000
0000
0001
0000
,
0100
0000
0010
1000
0001
0100
0010
0100
0001
0000
0100
0001
0000
0010
0100
0000
,
0010
0001
0000
0100
0010
0000
1000
0001
0000
1000
0100
0010
0100
1000
0001
0100
,
0010
1001
0000
0000
0000
0000
0000
0000
;

//--------------- dance-double - Pandy Le Mans ----------------
#NOTES:
     dance-double:
     Pandy Le Mans:
     Easy:
     8:
     0,0,0,0,0:
00000000
00000000
00000000
00000000
,
00000000
00000000
00000000
00000000
,
10000000
10000000
00010000
01000000
,
00001000
00000000
00000000
00010000
00000000
00000000
00000100
00000000
,
00001000
00000010
00000100
00000100
,
00000010
00000000
00000000
00010000
00000000
00000000
00001000
00000000
,
01000000
00100000
10000000
10000000
,
01000000
00000000
00000000
00100000
00000000
00000000
00001000
00000000
,
00000000
00010000
00000000
00000000
00000000
00010000
00000000
00000000
,
00010000
00010000
00000000
00010000
,
00000100
00000000
00001000
00000000
,
00000010
00000100
00000001
00001000
,
00000100
00000000
00010000
00000000
,
00001000
01000000
00100000
10000000
,
10010000
10000000
00010000
00100000
,
01100000
01000000
10000000
00100000
,
01100000
01000000
01010000
00010000
,
00110000
00101000
00011000
00001100
,
00001000
00000000
00000000
00000010
00000000
00000000
00000100
00000000
,
00000002
00000000
00000003
00001000
,
00000200
00000000
00000300
00010000
,
00001000
00000000
00000000
00010000
00000000
00000000
00002000
00000000
,
01003000
00100000
10000000
01000000
,
00100000
00000000
00000000
00020000
00000000
00000000
01030000
00000000
,
00100000
00000000
00000000
10000000
00000000
00010000
00000000
00000000
,
00100000
00000000
00000000
00001000
00000000
00010000
00000000
00000000
,
00000100
00001000
00000010
00000100
,
00000001
00000010
00000100
00001000
,
00000100
00000100
00000100
00000100
,
00000100
00000100
00001000
00000100
,
00010000
00001000
01000000
00100000
,
10000000
01000000
00100000
00001000
,
00010000
00000100
00001000
00000010
,
00000100
00000000
00000001
00000020
00000000
00000000
00000030
00000000
,
00000000
00000100
00001000
00001000
,
00001100
00000100
00010000
00010000
,
00001000
01000000
00001000
00010000
,
00001000
01000000
00100000
10000000
,
10000000
01000000
01000000
00100000
,
00001000
00010000
00010000
00000100
,
00001000
00000010
00000001
00000010
,
00001000
00000100
00000100
00010000
,
00010000
00001000
00001000
01000000
,
01000000
00200000
10300000
01000000
,
00010000
01000000
00100000
00001000
,
00010000
00000100
00000100
00001000
,
00001000
00000010
00000100
00000001
,
00000010
00000100
00001000
00000100
,
00010000
00001000
00001000
01000000
,
01000000
00100000
10000000
00010000
,
01000000
00000000
00020000
00000000
00000000
00000000
00000000
00030000
,
00000000
00000000
00200000
00000000
00000000
00000000
00000000
00300000
,
00000000
00001000
00000000
00010000
,
00000000
00000100
00000100
00000100
,
00000100
00001000
00000010
00001000
,
00000000
00000001
00000100
00000001
,
00000000
00000011
00000000
00000110
,
00000000
00001100
00000100
00010000
,
00001000
01001000
00000000
00100000
,
00000000
10000000
00000000
01000000
,
00000000
00010000
00000000
01000000
,
00000000
10000000
00000000
00010000
,
00000000
00100000
00000000
00001000
,
00000000
00010000
00000000
00000100
,
00000000
00001000
00000000
00000010
,
00000000
00000100
00000000
00000001
,
00001000
00000001
00000000
00000100
,
00000000
00000010
00000000
00010000
,
00000000
00000000
00000000
00001000
00000000
00001000
00000000
00010000
,
00000000
00010000
00000000
00001000
00000000
00001000
00000000
00010000
,
00000000
00010000
00001000
00000000
01000000
00000000
00100000
00000000
,
00000000
10000000
01000000
00100000
,
00000000
01000000
10000000
00010000
,
00000000
01000000
00100000
10000000
,
10000000
00010000
00010000
00100000
,
00110000
00100000
00100000
00001000
,
00011000
00010000
00000100
00001000
,
00000010
00000100
00000100
00000010
,
00000010
00000100
00000100
00000101
,
00000011
00000010
00000010
00000110
,
00001100
00000000
00000100
00000000
00010000
00000000
00000000
00001000
,
00000000
00000000
01000000
00000000
00000000
00100000
00000000
00000000
,
10000000
01000000
01000000
01100000
,
00110000
00100000
00100000
00110000
,
00011000
00010000
00000100
00001000
,
00000010
00000100
00000000
00000000
,
00000000
00000010
00000010
00001000
,
00000000
00000100
00000100
00010000
,
00000000
00001000
01000000
00100000
,
10000000
00010000
00100000
00001000
,
00010000
00011000
00000000
00000000
00000000
00000000
00000000
00000000
;

//--------------- dance-double - Pandy Le Mans ----------------
#NOTES:
     dance-double:
     Pandy Le Mans:
     Medium:
     14:
     0,0,0,0,0:
00000000
00000000
00000000
00000000
,
00000000
00000000
00000000
00000000
,
10010000
01010000
10010000
11000000
,
10000000
00010000
00100000
00001000
,
00011000
00001100
00010100
00001010
,
00000010
00000100
00000001
00000010
00000000
00000010
00000001
00001000
,
00001010
00000110
00000101
00000011
,
00000010
00000000
00000100
00000000
00001000
00000000
00000100
00010000
,
00000100
00010000
00001000
00000000
00010000
00001000
00000000
00010000
,
00001000
00000000
00010000
00000000
00001000
00000000
00000000
00000000
00000000
00010000
00000000
00010000
00001000
00000000
00000000
00000000
,
00010000
00000100
00010000
00000000
00000100
00001000
00000100
00000000
,
00001000
00000010
00000100
00000001
00000010
00000100
00001000
00000000
,
00000100
00010000
00000100
00000000
00010000
00001000
00010000
00000000
,
00001000
01000000
00001000
01000000
00100000
10000000
01000000
00100000
,
00000000
01000000
00100000
00010000
00000000
00100000
00001000
00010000
,
00000000
00001000
00010000
00000010
00000000
00000100
00000001
00000010
,
00000100
00001000
00000100
00001000
00000100
00010000
00000100
00010000
,
00001000
01000000
00100000
10000000
01000000
00010000
01000000
10000000
,
00010000
00000000
10000000
01000000
00000000
00100000
00001000
00000000
,
00202000
00000000
00000000
00000000
00000000
00303000
00010000
00000000
,
00020200
00000000
00000000
00000000
00030000
00001300
00001000
00000001
,
00000100
00000100
00000010
00001000
00000000
00000100
00020000
00000000
,
00031000
00000000
00000000
00000000
00000000
00000000
01000000
00000000
00100000
00000000
01000000
00000000
00100000
00000000
00000000
00000000
00000000
00000000
01000000
00000000
00000000
00010000
00000000
00000000
,
00100000
00000000
01000000
20000000
00000000
30010000
00100000
00001000
,
00010000
00010000
00000100
00001000
00000000
00000010
00000000
00000001
,
00000010
00001000
00000000
00000100
00000000
00010000
00001000
01000000
,
00200000
02300000
03002000
00023000
,
00030200
00002300
00003020
00000230
,
00000301
00000001
00001000
00001000
,
00000010
00000010
00000100
00000100
,
00000201
00000000
00000310
00000000
00000100
00000010
00001000
00000000
,
00000100
00000000
00010100
00000000
00000100
00010000
00001000
00000000
,
00001000
00000000
00000000
00001000
00000000
00000000
00010000
00000000
00000000
00000200
00000000
00000000
00000000
00000000
00000000
00010300
00000000
00000000
00001000
00000000
00010000
00000000
00001000
00000000
,
00001000
00001000
01000000
00100000
10000000
01000000
01100000
00000000
,
00000000
00000000
00110000
00000000
00100000
00001000
00010000
00001000
,
00100000
00000000
00101000
00000000
00001000
00100000
00001000
00010000
,
00000100
00000100
00001000
00000000
00000010
00000010
00000100
00000000
,
00000010
00000010
00001000
00000000
00000010
00000010
00000100
00000001
,
00000010
00000100
00001000
00000000
00000100
00001100
00000000
00000100
,
00010000
00000000
00001000
00000000
00001000
01001000
00000000
01000000
,
00100000
10000000
01000000
00000000
00100000
00000000
00001000
00000000
,
00010000
00000000
00000000
00000000
00000100
00000000
00000000
00001000
00000000
00000000
00000010
00000000
00000000
00000100
00000000
00000000
,
00000001
00000010
00000100
00001000
00000100
00000100
00010000
00000000
,
00001000
00001000
00020000
00000000
00030100
00010000
00001000
01000000
,
00100000
10000000
01000000
00000000
00010000
00000000
01000000
00000000
,
10000000
00000000
00010000
00100000
00001000
00100000
00010000
01000000
,
00100000
00000000
10000000
00000000
00010000
10000000
00000000
00010000
10000000
00000000
01000000
00000000
01000000
00000000
00000000
00000000
,
00000000
00000000
00000000
00000000
10000000
00010000
00000000
10000000
00010000
00000000
00100000
00000000
00010000
00000000
00100000
00000000
,
01000000
10000000
00010000
00000000
00100000
00000000
00001000
00000000
,
00010000
00000000
00000100
00001000
00000010
00000001
00000010
00000100
,
00000001
00000000
00001000
00000000
00000100
00000000
00000000
00010000
00000000
00000000
00001000
00000000
00000000
00000000
01001000
00000000
,
00000000
00000000
00000000
00000000
01000000
00000000
00000000
00100000
00000000
00000000
10000000
00000000
00000000
00000000
00110000
00000000
,
00000000
00000000
00000000
00000000
00100000
00000000
00000000
00000000
00001000
00000000
00000000
00010000
00000000
00000000
00000100
00000000
,
00001000
00000010
00000100
00000001
00000100
00000001
00000100
00000001
,
00001000
00000000
00000001
00000000
00001000
00000000
00000000
00000100
00000000
00000000
00010000
00000000
00000000
00001000
00000000
00000000
,
00010000
00000000
00001000
00000000
01000000
00000000
00000000
00100000
00000000
00000000
10000000
00000000
01000000
00000000
10000000
00000000
,
00010000
01000000
00100000
10000000
02000000
03100000
00010000
02000000
,
03100000
10000000
01000000
00000000
00100000
00000000
00001000
00000000
,
00010000
00010200
00001000
00001000
,
00001000
00010000
00010000
00010300
,
00012000
01003000
00100000
10000000
,
12000000
03100000
00210000
00301000
,
00021000
00030100
00002100
00003010
,
00000102
00000013
00000210
00001300
,
00001200
00010300
00012000
01003000
,
01200000
10300000
01020000
00230000
,
02300000
00000000
13000000
01000000
00000000
01000000
00000000
00100000
,
00000000
00100000
00000000
00001000
00000000
00001000
00000000
00010000
,
00000000
00010000
00000000
00011000
00000000
00011000
00000000
00001100
,
00000000
00001100
00000000
00000110
00000000
00000110
00000010
00000001
,
00000100
00000000
00000110
00000000
00001001
00000000
00000001
00001000
,
00000010
00000000
00001010
00000000
00001100
00000000
00000100
00010000
,
00001000
00010000
00001000
01000000
00100000
10000000
00000000
01000000
,
00100000
00000000
00010000
00000000
00100000
00000000
00010000
00000000
00000000
00010000
00000000
00000000
01000000
00000000
00000000
00200000
00000000
00000000
00000000
00000000
00000000
00000000
00000000
00000000
,
00300000
00000000
10000000
00010000
00100000
00001000
00010000
00010000
,
00011000
00000000
00010000
00000100
00001000
00000010
00000100
00000100
,
00000101
00000000
00000000
00000000
00000001
00000000
00000000
00000010
00000000
00000000
00000001
00000000
00000000
00001000
00000000
00000000
,
00000100
00000000
00010000
00000000
00001000
00000000
00000000
00001000
00000000
00000000
00010000
00000000
00000000
00010000
00000000
00000000
,
00001000
01000000
00100000
00010000
00100000
10000000
00010000
00010000
,
10000000
00000000
10000000
01000000
00010000
01000000
10000000
00100000
,
01000000
00000000
00010000
00000000
10000000
00000000
00000000
00000000
01000000
00000000
00000000
00100000
00000000
00000000
00010000
00000000
,
00000000
00001000
00000000
00000000
00000100
00000000
00000000
00000010
00000001
00000000
00000010
00000000
00000100
00000000
00001000
00000000
,
00000100
00001000
00000010
00000001
00000010
00001000
00000010
00000010
,
00001010
00000000
00000010
00010000
00001000
01000000
00100000
00100000
,
10100000
00000000
10000000
01000000
00200000
00310000
01000000
00002000
,
00013000
00000000
00000100
00000000
00001000
00000000
00000000
00001000
00000000
00000000
00000010
00000000
00000000
00000010
00000000
00000000
,
00000100
00000001
00001000
00000010
00001000
00000010
00001000
00001000
,
00001100
00000000
00000100
00010000
00000100
00010000
00000100
00000100
,
00010100
00000000
00000000
00000000
00010000
00000000
00001000
00000000
01000000
00000000
00000000
00100000
00000000
00000000
10000000
00000000
,
00000000
00010000
00000000
00000000
00100000
00000000
00000000
00001000
00000000
00010000
00000100
00000000
00010000
00000000
00001000
00000000
,
01000000
01100000
00000000
00000000
00000000
00000000
00000000
00000000
;

//--------------- dance-double - Pandy Le Mans ----------------
#NOTES:
     dance-double:
     Pandy Le Mans:
     Hard:
     16:
     0,0,0,0,0:
00000000
00000000
00000000
00000000
,
00000000
00000000
00000000
00000000
,
10000000
00000000
01000000
00000000
00100000
00100000
00001000
00010000
,
00000010
00000000
00000100
00000001
00000000
00000100
00000010
00001000
,
00000001
00000000
00000010
00000000
00000100
00000100
00010000
00001000
,
01000000
01000000
00100000
10000000
00000000
00010000
01000000
10000000
,
00010000
00000000
10000000
00000000
01000000
01000000
00010000
00100000
,
00001000
00001000
00010000
00000010
00000000
00000100
00001000
00000100
,
00000001
00000000
00001000
00000010
00001000
00000000
00000000
00000000
00000010
00000100
00000010
00000000
00000000
00000000
00000010
00001000
,
00000010
00000000
00001000
00000100
00001000
00000000
00000000
00000000
00000000
00000100
00000000
00000100
00010000
00000000
00000000
00000000
,
00001000
01000000
00100000
00000000
01000000
00001000
00010000
00000000
,
00010000
00000100
00001000
00000010
00000001
00000010
00001000
00000100
,
00010000
00000100
00001000
00000000
00000100
00010000
00000010
00000000
,
00000100
00001000
00000100
00000001
00000010
00000100
00001000
00000100
,
00000000
00010000
00001000
00010000
00000000
00001000
01000000
00001000
,
00000000
01000000
00100000
01000000
00000000
00100000
10000000
00100000
,
10000000
10000000
00010000
00010000
00100000
00100000
01000000
01000000
,
10000000
11000000
00110000
01010000
,
10010000
00000000
10000000
01000000
00000000
01000000
10000000
00000000
,
00100000
01000000
00100000
01000000
00100000
01000000
00100000
01000000
00100000
00000000
00000000
00000000
01000000
00000000
00000000
00000000
,
00010000
00100000
00010000
00100000
00010000
00100000
00010000
00100000
00010000
00000000
00100000
00000000
00001000
00000000
00001000
00000000
,
00010000
00000000
00000100
00000000
00010000
00000000
00001000
00000000
00000000
00000000
00010000
00000000
00000010
00001000
00000010
00000000
,
00000100
00000000
00000000
00000000
00000000
00000000
00000010
00000000
00000100
00000000
00000001
00000000
00001000
00000000
00000000
00000000
00000000
00000000
00000100
00000000
00000000
00010000
00000000
00000000
,
00001000
00000000
00001000
00000000
00100000
00000000
01000000
10000000
01000000
00000000
10000000
00000000
01000000
00000000
00010000
00000000
,
01000000
00100000
00001000
00010000
00000000
00000100
00000000
00001000
,
00000010
00000001
00000000
00000010
00000000
00000100
00000000
00000001
,
00001000
00000100
00010000
00001000
01000000
00100000
10000000
01000000
,
00100000
00001000
00010000
00000100
00001000
00000010
00000100
00000001
,
00001000
00001000
00000010
00000010
00010000
00010000
00001000
00001000
,
01000000
01000000
00100000
00100000
10000000
01000000
00010000
01000000
,
10000000
00000000
00110000
00000000
01000000
10000000
01000000
00100000
,
00001000
00000000
00001000
00000000
00010000
00000000
00000010
00000100
00000010
00000000
00000100
00000000
00000001
00000000
00000010
00000000
,
00000100
00000000
00000000
00000000
00000000
00000000
00001000
00000000
00000000
00000000
00000000
00000000
00000001
00000000
00000000
00000000
00000000
00000000
00001000
00000000
00000000
00000010
00000000
00000000
00001000
00000000
00000000
00000000
00000000
00000000
00000100
00000000
00000000
00000000
00000000
00000000
00010000
00000000
00000000
00000000
00001000
00000000
00000000
00000000
00010000
00000000
00000000
00000000
,
00001000
00000000
01000000
00000000
00100000
00000000
10000000
00100000
10000000
00010000
00100000
00010000
10000000
00000000
00000000
00000000
,
00000000
00000000
00110000
00000000
00100000
00001000
00010000
00000100
,
00001000
00000000
00000011
00000000
00000001
00000100
00000010
00000010
,
00000100
00000001
00002000
00000000
00003100
00010000
00000200
00000000
,
00010300
00001000
02000000
00000000
03100000
10000000
01000000
00010000
,
01000000
00000000
10000000
00000000
00100000
10000000
00000000
00100000
10000000
00000000
00010000
00000000
00100000
00000000
00100000
00000000
,
00001000
00000000
00010000
00000000
00000010
00001000
00000000
00000010
00001000
00000000
00000010
00000000
00000100
00000000
00000100
00000000
,
00000001
00001000
00000100
00010000
00001000
01000000
00100000
10000000
,
01000000
00000000
00100000
00000000
00010000
00100000
00000000
00100000
00001000
00000000
00001000
00010000
00000000
00010000
00000100
00000000
,
00001000
00000010
00000100
00000100
00000010
00001000
00000100
00000100
,
00001000
00000000
00000100
00000000
00010000
00000100
00010000
00000100
00001000
00000000
00000010
00000000
00010000
00000000
00001000
00000000
,
01000000
00100000
10000000
01000000
00100000
01000000
10000000
00010000
,
00100000
00001000
00010000
00001000
00010000
00000010
00000100
00000001
,
00000010
00000000
00000100
00000000
00001000
00000100
00000000
00001000
00000010
00000000
00000100
00000000
00000100
00000000
00000100
00000000
,
00000010
00000000
00010000
00000000
00001000
00100000
00000000
00100000
00001000
00000000
00010000
00000000
00001000
00000000
00010000
00000000
,
00000100
00010000
00001000
01000000
00100000
01000000
00100000
10000000
,
00010000
00000000
00100000
00000000
01000000
10000000
00000000
01000000
00100000
00000000
01000000
10000000
00000000
01000000
00100000
00000000
,
01000000
00000000
10000000
00000000
00010000
00000000
00000000
01000000
00000000
00000000
00002000
00000000
00000000
00000000
00013000
00000000
,
00000000
00000000
00000000
00000000
00010000
00000000
00000000
00000100
00000000
00000000
00002000
00000000
00000000
00000000
00003010
00000000
,
00000000
00000000
00000000
00000000
00000100
00000010
00000000
00000100
00000001
00000000
00000010
00000100
00000000
00000100
00001000
00000000
,
00000100
00000000
00010000
00000000
00001000
00010000
00001000
00010000
00001000
00010000
00001000
00010000
00001000
00010000
00001000
00010000
,
00001000
00100000
00001000
00000000
00010000
00100000
00000000
00100000
01000000
00000000
01000000
10000000
00000000
10000000
00010000
00000000
,
00100000
00000000
00001000
00000000
00010000
00000100
00000000
00000100
00001000
00000000
00001000
00000010
00000000
00000010
00000100
00000000
,
00000001
00000000
00000010
00000000
00000100
00000000
00001000
00000100
00001000
00000000
00000100
00000000
00010000
00001000
00010000
00000000
,
00001000
01000000
00100000
00010000
00100000
10000000
01000000
00010000
,
01000000
10000000
10010000
00000000
00010000
00000000
00010000
00000000
,
00010000
00010000
00010000
00010000
,
00010000
10000000
00100000
01000000
00000000
00000000
01000000
00000000
00000000
01000000
00000000
01000000
,
00010000
00100000
00001000
00010000
00000000
00010000
00000100
00001000
00000100
00000010
00000000
00000100
,
00000010
00000001
00000010
00000100
00000000
00000100
00001000
00000100
00010000
00001000
00000000
00010000
,
00001000
00010000
00001000
01000000
00000000
01000000
00100000
01000000
00100000
10000000
00000000
10000000
,
01000000
00000000
00000000
00000000
00100000
00000000
00000000
00000000
01000000
00000000
00000000
00000000
10000000
00000000
00000000
00000000
00000000
00000000
00010000
00000000
00000000
10000000
00000000
00000000
00010000
00000000
00000000
00000000
00000000
00000000
00000000
00000000
00000000
00000000
00000000
00000000
00100000
00000000
00000000
00001000
00000000
00000000
00100000
00000000
00000000
00000000
00000000
00000000
,
00000000
00000000
00001000
00010000
00001000
00000000
00010000
00001000
00010000
00000000
00000000
00000000
00000000
00000100
00000000
00000100
,
00001000
00000000
00000010
00000001
00000010
00001000
00000100
00000001
,
00000100
00001000
00000100
00010000
00001000
01000000
10000000
01000000
,
00100000
10000000
01000000
22000000
33000000
00220000
00330000
00202000
,
00303000
00000000
00022000
00000000
00033000
00000000
00020200
00000000
00030300
00000000
00001100
00000000
00001000
00000010
00000000
00000010
,
00000100
00000000
00000000
00000000
00000000
00000000
00000010
00000000
00000000
00000000
00000000
00000000
00000100
00000000
00000001
00000000
00001000
00000000
00000100
00000000
00000000
00000100
00000000
00000000
,
00010000
00000000
00001000
00000000
01000000
00000000
01000000
00000000
00100000
00000000
10000000
00010000
10000000
00000000
00010000
00000000
,
00100000
00000000
00001000
00000000
00100000
00000000
00010000
00000000
01000000
00000000
00100000
01000000
00100000
01000000
00100000
00000000
,
10000000
00000000
00000000
00000000
01000000
00000000
00000000
00000000
00100000
00000000
00000000
00000000
00010000
00000000
00000000
00000000
00000000
00000000
00001000
00000000
00000000
00000000
00000000
00000000
00010000
00000000
00000000
00000000
00000000
00000000
00000100
00000000
00000000
00001000
00000000
00000000
00000100
00000000
00000000
00001000
00000000
00000000
00000100
00000000
00000000
00000010
00000000
00000000
,
00000001
00000000
00001000
00000010
00000001
00000010
00001000
00001000
,
00000100
00000001
00000100
00001000
00000100
00000001
00000100
00000100
,
00000010
00000001
00001000
00000010
00020000
00031000
01000000
00200000
,
10300000
00000000
01000000
00000000
00100000
00010000
00000000
00100000
00001000
00000000
00010000
00000100
00000000
00001000
00000010
00000000
,
00000100
00000001
00001000
00000100
00000001
00000100
00001000
00001000
,
00000100
00010000
00001000
01000000
00001000
00010000
00001000
00001000
,
00010000
00000000
00000100
00000000
00010000
00000000
00001000
00000000
01000000
00000000
00100000
10000000
00000000
00100000
01000000
00000000
,
00010000
00100000
00000000
01000000
10000000
00000000
00010000
01000000
00000000
00100000
01000000
00000000
00010000
00000000
10000000
00000000
,
01000000
00000000
00100000
00000000
00001000
00010000
00001000
00000000
00010000
00001000
00010000
00000000
00000100
00000000
00000100
00000000
,
00001000
00000010
00000100
00000000
00000010
00001000
00000010
00000000
00001000
00000100
00001000
00000000
00000100
00000000
00000100
00000000
,
00001000
00000100
00010000
00000000
00001000
00000000
01000000
00000000
00200000
00000000
01300000
00000000
00010000
00000000
20000000
00000000
,
31000000
00000000
00100000
00000000
00001000
00010000
00000000
00001000
00100000
00000000
00001000
00010000
00000000
00000100
00001000
00000000
,
00000010
00000010
00000110
00000000
00000010
00000000
00001000
00000100
,
00010000
00001000
01001000
00000000
01000000
00000000
00100000
10000000
,
01000000
00000000
00100000
00000000
00110000
00000000
00100000
00000000
00001000
00000000
00010000
00000100
00000000
00001000
00000010
00000000
,
00000100
00000001
00000000
00000010
00000100
00000000
00001000
00000100
00000000
00010000
00001000
01000000
00001000
00010000
00000100
00010000
,
00001000
00011000
00000000
00000000
00000000
00000000
00000000
00000000
;

//--------------- dance-double - Pandy Le Mans ----------------
#NOTES:
     dance-double:
     Pandy Le Mans:
     Challenge:
     18:
     0,0,0,0,0:
00000000
00000000
00000000
00000000
,
00000000
00000000
00000000
00000000
,
01010000
00000000
00110000
00000000
00100000
00100000
00001000
00010000
,
00000100
00001000
00000010
00000100
00000000
00001000
00000100
00000001
,
00001001
00000000
00001010
00000000
00000100
00000100
00010000
00001000
,
01000000
00100000
00010000
00100000
00000000
01000000
00100000
10000000
,
11000000
00000000
01100000
00000000
01000000
01000000
00100000
00001000
,
00010000
00000100
00001000
00000010
00000000
00000001
00000010
00001000
,
00000100
00000000
00010000
00001000
00010000
00000000
00000100
00000000
00010000
00001000
00010000
00000000
00000100
00000000
00010000
00001000
,
00010000
00000000
00001000
00010000
00001000
00000000
01000000
00000000
00001000
00010000
00000000
00001000
00010000
00000000
00001000
00000000
,
00100000
01000000
10000000
00000000
10000000
01000000
00100000
00000000
,
00010000
00100000
00001000
00010000
00000100
00001000
00000010
00000100
,
00000001
00000100
00000010
00000000
00000100
00000010
00001000
00000000
,
00000010
00010000
00001000
00100000
00010000
01000000
00100000
10000000
,
11000000
10000000
01000000
00100000
00110000
00100000
00010000
00001000
,
00011000
00010000
00001000
00000100
00001100
00000100
00000010
00000001
,
00001000
00000001
00001000
00000001
00001000
00000001
00001000
00000001
,
00000100
00000010
00000100
00000010
00000100
00000010
00000100
00000010
00000100
00000010
00000100
00000010
00000100
00000010
00000100
00000010
,
00000100
00000000
00000010
00010000
00000000
00001000
00100000
00000000
,
00001000
01000000
00001000
01000000
00001000
01000000
00001000
01000000
00001000
00000000
00000000
00000000
00110000
00000000
00000000
00000000
,
00100000
00001000
00100000
00001000
00100000
00001000
00100000
00001000
00100000
00000000
00001000
00000000
00010000
00000000
00010000
00000000
,
00000100
00000000
00000100
00000000
00001000
00000000
00000010
00000000
00000000
00000000
00000100
00000000
00000010
00000100
00000010
00000000
,
00001000
00000000
00000000
00000000
00000000
00000000
00000100
00000000
00010000
00000000
00001000
00000000
00010000
00000000
00000000
00000000
00000000
00000000
00001000
00000000
00000000
00001000
00000000
00000000
,
00100000
00000000
01000000
00000000
10000000
00000000
00100000
01000000
00100000
00000000
01000000
00000000
00010000
00000000
00100000
00000000
,
00001000
00100000
00001000
00010000
00000000
00000100
00000000
00001000
,
00000100
00001000
00000000
00000100
00000000
00000010
00000001
00000100
,
00000010
00001000
00000100
00010000
00001000
01000000
00100000
10000000
,
01000000
00010000
01000000
10000000
00100000
00010000
00100000
10000000
,
00010000
00100000
00010000
00000000
00100000
00001000
00100000
00000000
00001000
00010000
00001000
00000000
00010000
00000100
00010000
00000000
,
00000100
00001000
00000100
00000000
00000010
00000001
00000010
00000000
00000001
00000000
00000100
00000000
00000010
00000000
00001000
00000000
,
00000100
00000000
00000000
00000000
00000000
00000000
00010000
00000000
00001000
00000000
00010000
00000000
00000100
00000000
00000000
00010000
00000000
00000000
00001000
00000000
00000000
00100000
00000000
00000000
,
01000000
00000000
01000000
00000000
10000000
00000000
00100000
01000000
00100000
01000000
00100000
00000000
01000000
00000000
00010000
00000000
,
10000000
00000000
00000000
00000000
00000000
00000000
01000000
00000000
00000000
00000000
00000000
00000000
00100000
00000000
00000000
00000000
00000000
00000000
00010000
00000000
00000000
00100000
00000000
00000000
00010000
00000000
00000000
00100000
00000000
00000000
00010000
00000000
00000000
00000000
00000000
00000000
01000000
00000000
00000000
00000000
00001000
00000000
00000000
00000000
00010000
00000000
00000000
00000000
,
00000100
00000000
00000100
00000000
00010000
00000000
00001000
00010000
00001000
00010000
00001000
01000000
00100000
00000000
00000000
00000000
,
00000000
00000000
00000000
00000000
10010000
00000000
00000000
00000000
10000000
00100000
01000000
00100000
10000000
00100000
01000000
00100000
,
10000000
00000000
00000000
00000000
00110000
00000000
00000000
00000000
00100000
00001000
00010000
00001000
00100000
00001000
00010000
00001000
,
00100000
00001000
00010000
00000100
00001000
00000000
00000000
00000000
00000100
00000010
00000001
00000100
00000010
00000000
00000000
00000000
,
00000100
00000010
00001000
00000100
00010000
00000000
00000000
00000000
00001000
01000000
00100000
10000000
01000000
00010000
01000000
10000000
,
00100000
01000000
00010000
00100000
00001000
00010000
00000000
00001000
00010000
00000000
00000100
00000000
00000000
00000000
00010000
00000000
,
00001000
01000000
00100000
10000000
01000000
00100000
00000000
01000000
00100000
00000000
00001000
00000000
00000000
00010000
00000100
00001000
,
00000010
00000100
00000001
00001000
00000100
00000010
00000100
00000010
00000001
00000010
00000001
00001000
00000010
00001000
00000010
00000100
,
00000010
00001000
00000010
00001000
00000100
00001000
00000000
00000100
00010000
00000000
00001000
01000000
00000000
00100000
10000000
00000000
,
00010000
00000000
00100000
00000000
10010000
00000000
10010000
00000000
10000000
01000000
00100000
00010000
00100000
00000000
00001000
00000000
,
00100000
00001000
00010000
00000100
00010000
00000010
00010000
00000010
00010000
00001000
00100000
00001000
00100000
00010000
00100000
01000000
,
10000000
01000000
00100000
01000000
10000000
01000000
10000000
01000000
00100000
01000000
00100000
01000000
00100000
00010000
00100000
00010000
,
00100000
00001000
00100000
00001000
00010000
00000100
00001000
00000010
00000100
00000001
00000010
00000100
00001000
00000100
00000010
00000100
,
00001000
00000100
00000010
00000001
00001000
00000010
00000000
00000100
00000001
00000000
00001001
00000000
00000011
00000000
00001100
00000000
,
00000100
00010000
00001000
00100000
00001000
01000000
00000000
00100000
10000000
00000000
10010000
00000000
10000000
01000000
10000000
00100000
,
01000000
00010000
00100000
00001000
00010000
00001000
00010000
00001000
00010000
00000100
00010000
00000100
00001000
00000100
00001000
00000100
,
00000010
00000001
00000010
00000001
00001000
00000010
00000000
00000100
00000001
00000000
00001000
00000100
00000000
00010000
00001000
00000000
,
01000000
00000000
00100000
00000000
20000000
00000000
00000000
32000000
00000000
00000000
03020000
00000000
00000000
00000000
00032000
00000000
,
00000000
00000000
00003000
00000000
00020000
00000000
00000000
00030020
00000000
00000000
00002030
00000000
00000000
00000000
00000002
00000000
,
00000000
00000000
00003003
00000000
00000001
00000100
00000000
00000010
00001000
00000000
00000001
00000100
00000000
00000010
00001000
00000000
,
00000100
00000000
00010000
00000000
00001000
00010000
00001000
00010000
00001000
00010000
00001000
00010000
00001000
00010000
00001000
00010000
,
00001000
00010000
00001000
00000000
00010000
00100000
00000000
01000000
10000000
00000000
00010000
00100000
00000000
01000000
10000000
00000000
,
10010000
00000000
00110000
00000000
00100000
00001000
00000000
00010000
00000100
00000000
00010000
00001000
00000000
00010000
00000100
00000000
,
00010100
00000000
00011000
00000000
00010000
00000100
00001000
00000010
00000100
00000000
00000010
00010000
00000100
00010000
00001000
00000000
,
00010000
00001000
01000000
00100000
10000000
01000000
00100000
00010000
00100000
00001000
00010000
00000100
00001000
00000010
00000100
00000001
,
00000010
00000001
00001100
00000000
00001000
00000000
00001000
00000000
,
00001000
00001000
00001000
00001000
,
00001000
00000100
00010000
00001000
00000000
00000000
00001000
00000000
00000000
00001000
00000000
00001000
,
00010000
00001000
01000000
00100000
00000000
00100000
01000000
00010000
00100000
01000000
00000000
00100000
,
00001000
00010000
00000100
00001000
00000000
00000100
00000010
00000001
00000100
00000010
00000000
00000100
,
00000010
00010000
00001000
01000000
00000000
00100000
10000000
01000000
00100000
00010000
00000000
00100000
,
00001000
00010000
00000100
00001000
00000000
00000010
00000100
00000001
00000010
00000100
00000000
00001000
,
00000100
00010000
00001000
01000000
00000000
00100000
10000000
00010000
00100000
00001000
00010000
00000010
,
00000100
00000000
00000001
00000000
00000010
00000000
00000100
00000000
00000000
00010000
00000000
00000000
00001000
00000000
00000000
01000000
00000000
00000000
00100000
00000000
00000000
10000000
00000000
00000000
,
01000000
00010000
01000000
10000000
00100000
01000000
00001000
00010000
,
00000100
00001000
00000010
00000001
00000010
00001000
00000010
00000001
,
00000010
00001000
00000001
00000010
00001000
00000010
00000001
00000010
,
00000100
00000000
00001000
00000000
00001100
00000000
00000000
00000000
00000100
00001000
00000100
00001000
00000100
00000000
00000100
00000000
,
00010000
00000000
00001000
00000000
01000000
00000000
01000000
00000000
00001000
00000000
00010000
00001000
00010000
00000000
00000100
00000000
,
00010000
00000000
00001000
00000000
01000000
00000000
00100000
00000000
10000000
00000000
01000000
00100000
01000000
00100000
01000000
00000000
,
00100000
00000000
00000000
00000000
00001000
00000000
00000000
00000000
00010000
00000000
00000000
00000000
00000100
00000000
00000000
00000000
00000000
00000000
00001000
00000000
00000000
00000000
00000000
00000000
00000010
00000000
00000000
00000000
00000000
00000000
00000100
00000000
00000000
00000001
00000000
00000000
00000100
00000000
00000000
00000001
00000000
00000000
00000100
00000000
00000000
00000010
00000000
00000000
,
00001000
00000000
00000000
00000000
00000100
00001000
00000100
00010000
00000100
00001000
00000100
00010000
00000100
00000000
00000100
00000000
,
00000100
00010000
00000100
00010000
00001000
01000000
00001000
00010000
00001000
01000000
00001000
00010000
00001000
00000000
00001000
00000000
,
00001000
01000000
00001000
00010000
00001000
00010000
00001000
01000000
00200000
00000000
01300000
00100000
10000000
01000000
00200000
00000000
,
01300000
10000000
00100000
01000000
00010000
00100000
00000000
00001000
00010000
00000000
00000100
00001000
00000000
00000100
00000010
00000000
,
00000001
00000010
00000001
00000010
00000001
00001000
00000100
00001000
00000001
00000100
00000001
00001000
00000100
00000000
00000100
00000000
,
00000100
00001000
00000100
00010000
00001000
01000000
00100000
01000000
00010000
01000000
00100000
01000000
00010000
00100000
00010000
10000000
,
00010000
00100000
00010000
10000000
01000000
00100000
01000000
10000000
00010000
00000000
00100000
00010000
00000000
00001000
00100000
00000000
,
00001000
00100000
00000000
00001000
00010000
00000000
00000010
00000100
00000001
00000000
00000000
00000000
00000110
00000000
00000000
00000000
,
00010100
00000000
00000000
00000000
00001000
00010000
00000100
00010000
00001000
00010000
00000100
00010000
00001000
00000000
00001000
00000000
,
00001000
00100000
00010000
01000000
00010000
00100000
00001000
00100000
00010000
00100000
00001000
00100000
00010000
00000000
00010000
00000000
,
00010000
00100000
01000000
10000000
00010000
01000000
00001000
00010000
00000200
00000000
00001300
00000010
00000100
00000001
00000200
00000000
,
00000301
00000010
00000100
00001000
00000100
00010000
00000000
00001000
01000000
00000000
00100000
10000000
00000000
00010000
01000000
00000000
,
00010000
00100000
01000000
00010000
01000000
10000000
01000000
01000000
,
00100000
00001000
00010000
00000100
00001000
00000000
00000010
00000000
00000001
00000000
00000010
00000000
00001000
00000000
00000001
00000000
,
00000010
00000000
00000100
00000000
00001000
00000100
00010000
00001000
01000000
00000000
00100000
10000000
00000000
01000000
00010000
00000000
,
00100000
00001000
00000000
00010000
00000100
00000000
00001000
00000100
00000000
00000010
00000001
00000100
00000010
00001000
00000100
00010000
,
00001000
00011000
00000000
00000000
00000000
00000000
00000000
00000000
;
