#VERSION:0.83;
#TITLE:'Bee' Jam Blues;
#SUBTITLE:;
#ARTIST:COIL;
#TITLETRANSLIT:;
#SUBTITLETRANSLIT:;
#ARTISTTRANSLIT:;
#GENRE:FUNK DISCO BLUES;
#ORIGIN:;
#CREDIT:;
#BANNER:'Bee' Jam Blues.png;
#BACKGROUND:'Bee' Jam Blues-bg.png;
#PREVIEWVID:;
#JACKET:'Bee' Jam Blues-jacket.png;
#CDIMAGE:;
#DISCIMAGE:;
#LYRICSPATH:;
#CDTITLE:;
#MUSIC:'Bee' Jam Blues.ogg;
#OFFSET:-0.016472;
#SAMPLESTART:8.622057;
#SAMPLELENGTH:17.219999;
#SELECTABLE:YES;
#BPMS:0.000=101.400;
#STOPS:;
#DELAYS:;
#WARPS:;
#TIMESIGNATURES:0.000=4=4;
#TICKCOUNTS:0.000=4;
#COMBOS:0.000=1;
#SPEEDS:0.000=1.000=0.000=0;
#SCROLLS:0.000=1.000;
#FAKES:;
#LABELS:0.000=Song Start;
#BGCHANGES:;
#KEYSOUNDS:;
#ATTACKS:
;

//---------------dance-single - ----------------
#NOTEDATA:;
#CHARTNAME:;
#STEPSTYPE:dance-single;
#DESCRIPTION:;
#CHARTSTYLE:;
#DIFFICULTY:Hard;
#METER:14;
#RADARVALUES:0.662483,0.669679,0.296318,0.429661,0.900067,626.000000,586.000000,40.000000,58.000000,9.000000,0.000000,2.000000,0.000000,0.000000,0.662483,0.669679,0.296318,0.429661,0.900067,626.000000,586.000000,40.000000,58.000000,9.000000,0.000000,2.000000,0.000000,0.000000;
#CREDIT:BlindedVanguard573;
#NOTES:
0000
0000
0000
0000
,
0000
0000
0000
0000
,
0000
0000
0000
0000
,
0000
0000
0000
0000
0000
0000
0000
0000
0000
0000
0001
0000
1000
0010
M000
0010
,
0002
0000
1000
0000
0100
0000
0010
0000
0100
0000
1000
0003
0001
0100
000M
0100
,
2000
0000
0001
0000
0010
0000
0100
0000
0010
0000
3001
0000
1000
0010
M000
0010
,
0001
0100
0000
0001
1000
0000
1001
0000
1000
0100
0000
1000
0001
0000
1001
0000
,
0001
0010
0000
0001
1000
0000
0001
0100
0010
1000
0010
0100
0001
0010
000M
0010
,
2000
0000
0001
0000
0100
0000
0010
0000
0001
0000
3100
0000
1000
0100
M000
0100
,
0002
0000
1000
0000
0100
0000
0010
0000
1000
0000
0103
0001
0010
0100
1000
0000
,
0001
0000
0102
0000
1000
1000
0000
0023
0000
0130
1000
0100
0010
0001
1000
0010
,
0100
0000
0100
0001
1000
0001
0100
0001
0010
0000
0110
0000
1100
0000
1000
0002
,
1000
0010
1000
0100
0013
0011
1100
2010
,
3100
0000
0012
0000
0103
0000
2001
0000
3100
0000
1002
0000
0103
0000
0001
0020
,
1000
0000
1000
0000
1030
0000
1000
0010
0000
0010
0001
0100
0010
1000
0100
0000
,
1000
0000
0001
0100
0010
1000
0001
0000
0020
0000
0100
0000
0130
0000
1000
0001
,
1000
0000
1100
0000
1000
0001
0100
0001
0100
0000
0101
0000
0001
1000
0010
1000
,
0010
0000
1010
0000
1000
0001
0010
0001
0010
0000
0011
0000
2001
0000
3001
1000
,
0001
0100
1000
0001
0010
0100
0001
0010
1000
0001
0100
0010
0001
0100
1000
0100
,
0002
0000
0010
0000
0010
0000
0010
0000
0010
0000
0013
0000
0001
1000
0010
0000
,
1000
0000
1100
0000
0000
0011
0000
0001
0100
000M
0100
0010
0000
0001
1000
0002
,
0000
0000
0103
0010
1000
0010
0100
0001
1000
0100
0010
0001
2000
0000
3001
1000
,
0001
0100
0010
1000
0010
0100
0001
0200
0000
0310
1000
0001
1000
0100
0010
0002
,
0000
1003
0001
0100
0010
0000
0010
0100
0001
0000
0010
0100
0000
2000
0000
0000
,
3001
0000
1000
0010
0100
0001
0000
0101
0000
1010
0000
0010
1000
0002
0000
1003
,
0001
0010
0100
0000
0010
0100
1000
0000
0100
1000
0001
2000
0000
0000
3000
0000
,
0001
0000
0100
0000
0000
0000
0000
0000
1001
0000
0000
0000
0000
0000
0000
0000
1000
0100
0000
0000
0000
0000
0000
0000
1001
0000
0000
0000
0000
0000
0101
0000
,
0000
0012
0000
0000
0000
1003
0000
1000
0001
0000
0001
0100
0000
0010
0000
0200
,
0000
0000
0000
0301
0000
0000
1000
0000
0100
0000
0000
0000
0040
0004
0000
0000
0000
0000
0000
0000
0000
0033
0000
0000
,
0001
0100
0010
0000
0010
0000
0100
0001
0000
1000
0000
0100
0010
0001
2000
0000
,
0010
0000
0000
0000
3001
1000
0001
0000
0100
0020
0000
0030
0010
0100
0001
1000
,
0000
1000
0100
0000
0100
0001
0000
0001
0100
0000
0100
2000
0000
0000
3001
0100
,
0010
0100
1000
0100
0001
0010
0100
0010
1000
0010
0001
0100
1000
0100
0010
0100
,
0001
0010
1000
0010
0100
0010
0001
0100
1000
0100
0001
1000
0002
0000
2003
0000
,
0100
0000
0000
0000
3001
0100
000M
0100
0020
0000
0000
0000
0031
0010
000M
0010
,
2000
0000
0010
3010
0000
0100
0000
0002
0000
0010
0010
0000
0100
0100
0103
0000
,
0001
1000
0000
0100
1000
0001
0000
0101
0000
1010
0000
0010
1000
0000
0001
0010
,
0100
0000
0100
0010
0001
1000
0000
1010
0000
0101
0000
0001
2000
0000
3001
0000
,
1000
0000
0000
0000
0000
0000
0000
0000
0000
0000
0000
0000
0000
0000
0000
0000
0100
0000
0000
0000
0000
0000
0000
0000
0000
0000
0000
0000
0000
0000
0000
0000
0010
0000
0000
0000
0000
0000
0000
0000
0000
0000
0000
0000
0000
0000
0000
0000
0000
0000
0000
0000
0000
0000
0000
0000
0000
0000
0000
0000
0001
0000
0000
0000
0000
0000
1000
0000
0000
0000
0000
0000
0001
0000
0000
0000
0000
0000
0000
0000
0000
0000
0000
0000
1000
0000
0000
0000
0000
0000
0000
0000
0000
0000
0000
0000
0001
0000
0000
0000
0000
0000
0000
0000
0000
0000
0000
0000
0010
0000
0000
0000
0000
0000
0000
0000
0000
0000
0000
0000
0100
0000
0000
0000
0000
0000
0000
0000
0000
0000
0000
0000
1000
0000
0000
0000
0000
0000
0000
0000
0000
0000
0000
0000
0100
0000
0000
0000
0000
0000
0000
0000
0000
0000
0000
0000
0010
0000
0000
0000
0000
0000
0000
0000
0000
0000
0000
0000
0001
0000
0000
0000
0000
0000
0000
0000
0000
0000
0000
0000
0000
0000
0000
0000
0000
0000
0000
0000
0000
0000
0000
0000
,
1000
1000
0101
0101
0001
0001
1100
1200
,
2300
0000
3001
0100
0010
0200
0000
0301
1000
0100
0010
0001
2000
0000
3010
0100
,
1000
0100
0001
0000
1000
0100
0001
0100
0010
0000
0001
1000
2002
0000
3003
0000
,
0001
0010
0001
0010
0100
0000
0020
0000
0130
1000
0100
1000
0001
0000
0200
0000
,
0310
1000
0001
1000
0100
1000
0001
1000
0020
0100
0000
0100
0000
0100
0000
0130
,
0001
0010
0100
0010
0001
0010
0100
0010
0001
0010
0100
0010
0002
0000
1003
0000
,
0010
0100
1000
0100
0010
0100
1000
0100
0010
0100
1000
0100
0020
0000
1030
0000
,
0001
0010
1000
0010
0100
0000
2000
0000
3001
0100
1000
0100
0010
0000
2000
0000
,
3001
1000
2100
3010
0102
0013
1002
0103
,
0001
0100
0010
0100
1000
0100
0010
0100
0001
0100
0010
0100
2000
0000
3100
0000
,
0001
0010
0100
0010
1000
0010
0100
0010
0001
0010
0100
0010
2000
0000
3010
0000
,
0001
0100
1000
0001
0010
0000
2000
0000
3001
0010
1000
0001
0100
0000
2000
0000
,
3001
0100
1000
0001
0010
1000
0001
1000
0001
0010
1000
0001
0100
1000
0001
1000
,
0010
0010
0010
0010
0010
0000
0100
0100
0000
0001
0002
0000
1003
0100
M000
0100
,
0001
0001
0001
0001
0001
0000
0010
0010
0000
0100
0200
0000
1300
0001
1000
0001
,
1000
1000
1000
1000
1000
0000
0010
0010
0000
0100
0200
0000
0301
1000
0001
1000
,
0001
0001
0001
0001
0001
0000
1010
1010
0000
1100
2200
0000
0000
0000
0000
0000
,
0000
0000
3300
0000
;

//---------------dance-single - ----------------
#NOTEDATA:;
#CHARTNAME:;
#STEPSTYPE:dance-single;
#DESCRIPTION:;
#CHARTSTYLE:;
#DIFFICULTY:Medium;
#METER:12;
#RADARVALUES:0.491042,0.523187,0.222239,0.444477,0.462997,464.000000,434.000000,30.000000,60.000000,0.000000,0.000000,0.000000,0.000000,0.000000,0.491042,0.523187,0.222239,0.444477,0.462997,464.000000,434.000000,30.000000,60.000000,0.000000,0.000000,0.000000,0.000000,0.000000;
#CREDIT:;
#NOTES:
0000
0000
0000
0000
,
0000
0000
0000
0000
,
0000
0000
0000
0000
,
0000
0000
0000
0000
0000
0000
0000
0000
0000
0000
1000
0000
0010
0100
0000
0002
,
1000
0000
0000
0000
0010
0000
0000
0000
0100
0000
0000
0000
0013
0001
0000
0001
,
2000
0000
0010
0000
0010
0000
0000
0000
0100
0000
0000
0000
3010
1000
0000
1000
,
0001
0010
0000
0000
0001
0000
1001
0000
1000
0010
0000
0000
1000
0000
1001
0000
,
0001
0100
0000
0000
0001
0000
1000
0000
0100
0000
0010
0000
0001
1000
0000
2000
,
0001
0000
0000
0000
0100
0000
0000
0000
0010
0000
0000
0000
3100
1000
0000
1000
,
0002
0000
0100
0000
0100
0000
0000
0000
0010
0000
0003
0010
0001
0000
1000
0000
,
0001
0000
0100
0000
0010
0100
0000
0001
0000
0010
0100
0000
0010
0000
0001
0000
,
1000
0010
0100
0001
1000
0100
0010
0002
,
0010
0000
1000
0000
0103
0001
0010
0100
,
0000
1100
0000
1000
0000
1001
0000
2000
,
0001
0000
0001
0000
3001
0000
1000
0001
0000
0001
0100
0000
0100
0010
0000
0000
,
1000
0000
0100
0000
0010
0002
0000
0000
2000
0000
0000
0000
3003
0000
0000
0000
,
0001
0000
0100
0000
0010
0000
0100
0002
0000
0000
1003
0000
0100
0000
0010
0200
,
0000
0000
1300
0000
0010
0000
0100
0002
0000
0000
1003
0000
2001
0000
3100
0000
,
1000
0000
1000
0010
0000
0010
0100
0000
0100
0001
0000
0001
0100
0000
0100
0020
,
0000
2030
0000
0000
0001
0000
0000
0000
0100
0000
0100
0000
3001
0000
0010
0000
,
0100
0000
1100
0000
0000
1100
0000
0100
1000
0000
1000
0001
0000
0100
0000
0020
,
0000
0130
0001
1000
0100
0010
2002
3003
,
0001
0000
0010
0000
0100
0000
0010
0001
0000
0001
0100
0000
0010
0000
1000
0100
,
0000
0100
0010
0000
0100
0000
1000
0000
0001
0000
0100
0010
0000
0200
0000
0000
,
0301
0000
0010
0000
0100
1000
0000
0001
0000
1000
0000
0010
0100
0010
0000
1000
,
0002
0000
0010
0000
2003
0000
0010
0000
3001
0010
0100
2000
0000
0000
3000
0000
,
0102
0000
0000
0000
0013
0000
0000
0000
2100
0000
0000
0000
3010
0000
0000
2000
,
0000
3002
0000
0000
0003
1000
0000
1000
0010
0000
0010
0100
0000
0001
0000
2000
,
0000
0000
0000
3001
0000
0000
0010
0000
0100
0000
0000
0000
2002
0000
0000
0000
0000
0000
0000
0000
0000
3003
0000
0000
,
1000
0010
1000
0000
0001
0000
0010
0001
0000
0100
0000
0100
0010
0000
0200
0000
,
0001
0000
0300
0000
0100
0000
0010
0000
1000
0002
0000
0000
1003
0000
1000
0100
,
0000
0100
0010
0000
0010
0001
0000
0001
1000
0000
1000
0002
0000
0000
1003
0000
,
0001
0101
0001
1000
1100
1000
0001
0011
,
0001
0000
1000
0000
1010
0000
1000
0000
0001
0000
1001
0000
1000
0010
0000
0100
,
0002
0000
0000
0000
0103
0001
0000
0000
2000
0000
0000
0000
3100
1000
0000
0000
,
0001
0000
0001
0100
0000
0010
0000
1000
0000
1000
0001
0000
1000
0000
1001
0000
,
1000
0100
0000
0010
0100
0010
0000
0001
0000
0001
0000
0001
1000
0000
0002
0000
,
1003
0000
0001
0000
0100
0010
0000
1000
0000
1000
0000
1000
0002
0000
1003
0000
,
0001
0000
0000
0000
0100
0000
0000
0000
0010
0000
0000
0000
0000
0000
0000
1000
0000
0000
0001
0000
0000
0000
0000
0000
1000
0000
0000
0000
0000
0000
0100
0000
0000
0000
0000
0000
0010
0000
0000
0001
0000
0000
1000
0000
0000
0000
0000
0000
,
0010
0010
1001
1001
0100
0100
1001
1002
,
1003
0000
0010
0000
0100
0001
0000
0001
1000
0000
0100
0000
0002
0000
0103
0000
,
1000
0000
0010
0000
0100
0001
0000
0001
1000
0000
0001
0000
2002
0000
3003
0000
,
1000
0010
1000
0000
0010
0000
0200
0000
0301
0100
0001
0000
0100
0000
0020
0000
,
1030
0001
1000
0000
0100
0010
0100
0000
2000
0001
0000
0001
0000
0001
0000
3001
,
2000
0010
0001
0100
0001
3010
2010
3001
,
0012
1000
0010
1000
0100
1003
2001
3100
,
1000
0010
0100
0000
0001
0000
2000
0000
3001
0010
0100
0000
1000
0000
0002
0000
,
1003
0001
0021
0000
1000
0000
0200
0330
,
2100
0100
0001
0010
0001
3100
2100
3001
,
0102
1000
0100
1000
0010
1003
2001
3010
,
1000
0100
0010
0000
0001
0000
2000
0000
3001
0100
0010
0000
1000
0000
0002
0000
,
1003
0100
0010
0000
0100
0010
0001
0000
0010
0001
1000
0000
0001
1000
0100
0000
,
1000
0010
1000
0010
1000
0000
0001
1000
0000
0100
2000
0000
0010
0000
0100
0000
,
3001
0010
0001
0010
0001
0000
0100
0001
0000
1000
0002
0000
0010
0000
0103
0000
,
0001
0010
0100
1000
0001
0000
0100
0010
0000
0100
0020
0000
1000
0000
0031
0000
,
0010
1000
0100
1000
0001
0000
0010
0100
0000
1000
0002
0000
0000
0000
0000
0000
,
0000
0000
0003
0000
;

//---------------dance-single - ----------------
#NOTEDATA:;
#CHARTNAME:;
#STEPSTYPE:dance-single;
#DESCRIPTION:;
#CHARTSTYLE:;
#DIFFICULTY:Easy;
#METER:8;
#RADARVALUES:0.327008,0.355767,0.170383,0.266686,0.118527,309.000000,286.000000,23.000000,36.000000,0.000000,0.000000,0.000000,0.000000,0.000000,0.327008,0.355767,0.170383,0.266686,0.118527,309.000000,286.000000,23.000000,36.000000,0.000000,0.000000,0.000000,0.000000,0.000000;
#CREDIT:;
#NOTES:
0000
0000
0000
0000
,
0000
0000
0000
0000
,
0000
0000
0000
0000
,
0000
0000
0000
0000
0000
0000
1000
0001
,
2000
0000
0010
0000
0100
0000
3001
1000
,
0002
0000
0010
0000
0100
0000
1003
0001
,
1000
0000
0010
0100
0000
0000
0001
1000
,
0000
0000
0100
0010
0001
0000
1000
0001
,
2000
0000
0100
0000
0001
0000
3100
1000
,
0002
0000
0100
0000
1000
0000
0103
0001
,
2000
0010
0000
0010
0000
3010
1000
0001
,
0010
0000
0100
0000
1000
0001
1000
0002
,
0010
0000
0100
0000
1003
0001
0010
0100
,
0000
1000
0000
0001
0000
0100
0000
0020
,
0100
0000
0100
0030
0010
1000
0001
0000
,
0010
0100
0010
0000
0002
0000
1003
0000
,
0001
0100
0010
0000
0100
0010
1000
0000
,
0010
1000
0001
0000
0010
0100
2002
3003
,
1000
0000
0000
1000
0000
0000
1000
0000
0000
1000
0000
0000
1000
0000
0000
1000
,
0000
0002
0000
0000
0010
0000
0000
0000
0010
0000
0003
0000
0001
0000
1000
0000
,
0001
0000
0100
0000
0000
0100
0000
0000
0010
0000
0000
0010
0000
1000
0000
0001
,
0000
0000
0101
0000
1010
0000
2002
3003
,
1000
0100
0010
0000
0001
0010
0100
0000
,
1000
0000
0010
0000
0100
0000
0000
0000
0001
0000
0000
0100
0000
0010
0000
0000
,
1000
0000
0001
0000
1000
0000
0000
0010
0000
0010
0000
0000
0100
0000
0000
0000
,
0001
0001
0010
0010
0100
0100
1000
0000
,
0001
0000
0000
0000
0101
0000
0000
0000
1000
0000
0000
0000
1100
0000
0000
1000
,
0000
0002
0000
0000
0000
0103
0000
0000
0001
0000
0000
0010
0000
0100
0000
2000
,
0000
0001
3001
0000
2002
0000
3003
0000
,
1000
0010
0100
0000
0001
0001
0001
0000
,
0020
0000
0000
0000
0130
0000
0000
0000
2000
0000
0000
0000
3001
0000
0000
0010
,
0000
0000
0010
0000
0000
0010
0000
0000
0010
0000
0000
0020
0000
0000
0130
0000
,
0100
0100
1000
1000
1000
0001
0001
0001
,
0100
0100
0100
0010
0010
0010
1000
0002
,
1000
0103
0020
0130
,
0001
0000
0000
0010
0000
0100
0000
1000
0000
0000
0001
0000
0100
0000
0100
0000
,
0010
0000
1001
0000
1000
0100
0001
0100
,
1000
0000
0010
0000
0100
0100
0200
0300
,
0001
0000
0100
0000
0010
1000
0001
0000
,
0010
0010
0010
0000
0100
0100
0100
0000
,
2100
0000
3001
0000
1000
0010
0100
0000
,
0001
0010
0100
0000
1000
0001
2002
3003
,
0001
0001
0001
0000
1000
1000
1000
0000
,
0010
0010
0010
0010
0000
0000
0000
0000
,
2100
0001
3100
1100
,
1002
1000
0103
1001
,
0102
0010
1000
0100
,
0013
0011
1100
0101
,
2010
0010
3001
1010
,
0012
1000
0013
0011
,
2001
0010
0100
3010
,
1000
0010
0100
0001
1000
0100
0010
0001
,
1000
0000
1000
0000
1000
0000
0010
1000
0000
0001
2000
0000
0000
0000
3000
0000
,
0001
0000
0001
0000
0001
0000
0010
0001
0000
1000
0002
0000
0000
0000
0003
0000
,
1000
0000
1000
0000
1000
0000
0100
1000
0000
0001
2000
0000
0000
0000
3000
0000
,
0001
0000
0001
0000
0001
0000
0100
0010
0000
1000
0002
0000
0000
0000
0000
0000
,
0000
0000
0003
0000
;

//---------------dance-single - ----------------
#NOTEDATA:;
#CHARTNAME:;
#STEPSTYPE:dance-single;
#DESCRIPTION:;
#CHARTSTYLE:;
#DIFFICULTY:Beginner;
#METER:2;
#RADARVALUES:0.125935,0.188347,0.007408,0.059264,0.000000,119.000000,118.000000,1.000000,8.000000,0.000000,0.000000,0.000000,0.000000,0.000000,0.125935,0.188347,0.007408,0.059264,0.000000,119.000000,118.000000,1.000000,8.000000,0.000000,0.000000,0.000000,0.000000,0.000000;
#CREDIT:;
#NOTES:
0000
0000
0000
0000
,
0000
0000
0000
0000
,
0000
0000
0000
0000
,
0000
0000
0000
1000
,
1000
0000
0000
0001
,
0001
0000
0000
0100
,
0100
0100
0000
0010
,
0000
1000
1000
1000
,
1000
0000
0000
0001
,
0001
0000
0000
0010
,
0010
0000
0100
0000
,
1000
0000
0001
0001
,
0001
0000
0000
0100
,
0100
0000
0010
0000
,
1000
1000
1000
0000
,
0001
0001
0001
0000
,
0010
0000
0100
0000
,
1000
0000
0000
1001
,
0000
0000
0001
0000
,
0002
0000
0003
0000
,
0010
0000
0100
0000
,
1000
1000
1000
0000
,
0001
0000
0100
0000
,
0010
0000
1000
0000
,
0001
0000
0010
0000
,
0100
0100
0100
0000
,
0010
0010
0010
0000
,
0001
0000
1000
0000
,
0100
0100
0100
0000
,
1000
1000
1000
0000
,
0010
0000
0100
0000
,
0001
0000
1000
0000
,
0010
0010
0010
0010
,
0010
0010
0010
0010
,
0010
0000
0100
0000
,
0001
0000
1000
0000
,
0100
0000
0010
0010
,
0010
0000
0100
0100
,
0100
0000
1000
0000
,
0001
0000
0100
0000
,
0010
0010
0010
0000
,
0100
0100
0100
0000
,
0001
0000
1000
0000
,
0100
0000
0010
0000
,
0002
0000
0003
0000
,
2000
0000
3000
0000
,
0020
0000
0030
0000
,
0000
0100
0100
0100
,
0200
0000
0300
0000
,
0020
0000
0030
0000
,
2000
0000
0000
0000
,
3000
0000
0000
0000
,
0001
0001
0001
0000
,
1000
1000
1000
0000
,
0010
0010
0010
0000
,
0100
0100
0200
0000
,
0000
0000
0300
0000
;
