#VERSION:0.83;
#TITLE:\#OurMemories;
#SUBTITLE:;
#ARTIST:DDR ALL FANS;
#TITLETRANSLIT:OurMemories;
#SUBTITLETRANSLIT:;
#ARTISTTRANSLIT:;
#GENRE:;
#CREDIT:;
#MUSIC:OurMemories.ogg;
#BANNER:OurMemories.png;
#BACKGROUND:OurMemories-bg.png;
#CDTITLE:./CDTitles/DDR A.png;
#SAMPLESTART:15.424;
#SAMPLELENGTH:15.000;
#SELECTABLE:YES;
#OFFSET:0.000;
#BPMS:0.000=140.000;
#STOPS:66.000=0.429
,159.000=1.286
;
#BGCHANGES:;
#FGCHANGES:;

//--------------- dance-single - eataninja ----------------
#NOTEDATA:;
#STEPSTYPE:dance-single;
#DESCRIPTION:eataninja;
#DIFFICULTY:Beginner;
#METER:3;
#RADARVALUES:0,0,0,0,0;
#CREDIT:eataninja;
#NOTES:
0000
0000
0000
0000
,
0000
0000
0000
0000
,
0000
0000
0000
0000
,
0000
0000
0000
0000
,
0000
0000
0000
0000
,
0000
0001
0000
0000
0000
0001
0000
0000
,
0000
1000
0000
0000
0000
1000
0000
0000
,
0000
0001
0000
0000
0000
0001
0000
0000
,
0000
1000
0000
0000
0000
1000
0000
0000
,
0100
0000
0010
0000
,
0001
0000
0001
0000
,
0100
0000
0010
0000
,
1000
0000
0001
0000
,
0010
0000
0100
0000
,
1000
0000
1000
0000
,
0010
0000
0100
0000
,
0001
0001
0000
2002
,
0000
0000
3003
1000
,
0000
0100
0000
0010
,
0000
0001
0000
0100
,
0100
0000
0000
2002
,
0000
0000
3003
0001
,
0000
0010
0000
0100
,
0000
1000
0000
0010
,
0000
0000
0000
0100
,
0100
0100
0000
0100
,
0000
0001
0000
1000
,
1000
1000
0000
1000
,
0000
0001
0000
0010
,
0010
0010
0000
0010
,
0000
0100
0000
1000
,
0001
1000
0000
0010
,
0000
0100
0000
0002
,
0000
0000
0003
2000
,
0000
0000
3000
0002
,
0000
0000
0003
2000
,
0000
0000
3000
0100
,
0000
0001
0000
0100
,
0000
1000
0000
0010
,
0000
0100
0100
0000
,
1001
0000
0001
0000
,
1000
0000
0100
0000
,
1001
0000
1000
0000
,
0001
0000
0100
0000
,
1001
0000
0001
0000
,
1000
0000
0010
0000
,
0100
0100
0100
0000
,
0100
0000
0000
0000
,
0001
0000
0010
0000
,
1000
0000
0000
0000
,
1000
0000
0010
0000
,
0001
0000
0000
0000
,
0001
0000
0100
0000
,
1000
0000
0000
0000
,
1000
0000
0100
0000
,
0001
0000
0000
0000
,
0010
0010
0001
0000
,
1000
0000
0001
0000
,
0100
0100
0001
0000
,
1000
0000
1000
0000
,
0100
0100
0100
0000
,
0010
0000
0001
0000
,
1000
1000
1000
0000
,
0010
0100
0010
0000
,
1000
1000
0001
0000
,
0010
0000
1001
0000
;

//--------------- dance-single - eataninja ----------------
#NOTEDATA:;
#STEPSTYPE:dance-single;
#DESCRIPTION:eataninja;
#DIFFICULTY:Easy;
#METER:7;
#RADARVALUES:0,0,0,0,0;
#CREDIT:eataninja;
#NOTES:
0000
0000
0000
0000
,
0000
0000
0000
0000
,
0000
0000
0000
0000
,
0000
0000
0000
0000
,
0000
0000
0000
0000
,
0000
1000
0000
1000
0000
0100
0010
0100
,
0000
0001
0000
0001
0000
0100
0010
0100
,
0000
1000
0000
1000
0000
0100
0010
0100
,
0000
0001
0000
0100
0000
1000
0000
0000
,
0010
0100
0001
0000
1000
0000
1000
0000
,
0100
0010
0001
0000
0100
0000
0100
0000
,
0010
1000
0001
0000
0010
0000
0010
0000
,
0100
0010
0001
0000
1000
0000
1000
0000
,
0010
1000
0100
0000
0010
0001
0100
0000
,
0010
1000
0001
0000
0010
0001
1000
0000
,
0100
0010
0001
0000
1000
0010
0100
0000
,
1000
0100
0001
0000
0001
0000
2001
0000
,
0000
0100
3020
0000
,
0230
0302
1003
1002
,
0000
0013
0000
0000
0001
1000
0010
0000
,
0100
0010
0000
1000
,
0002
0203
0302
2003
,
0000
0001
3100
1100
,
0000
1001
0000
0000
0011
0000
1000
0001
,
1000
0010
0000
0100
,
0100
0000
0001
0000
0001
0000
1000
0100
,
0001
0000
0100
1000
0010
0000
0100
0000
,
0100
0000
0001
0000
0001
0000
1000
0010
,
0001
0000
0010
0100
0001
0000
1000
0000
,
1000
0001
0001
0010
,
0100
0000
1000
0001
1000
0000
0010
0100
,
0001
0000
0010
0100
0010
0000
1000
0000
,
0010
0001
0000
2000
,
0000
0010
0000
0001
,
0000
3010
0000
0002
,
0000
0010
0000
1000
,
0000
0000
0013
0000
0000
0000
0001
1000
,
0001
0000
0100
0000
0000
0000
0001
0010
,
0100
0000
1000
0001
1000
0000
0010
0000
,
0000
0000
0010
0010
0100
0000
0000
0000
,
0102
0000
1003
0000
1000
0100
1000
0000
,
2100
0000
3001
0000
0001
0100
0001
0000
,
0012
0000
1003
0000
1000
0010
1000
0000
,
2010
0000
3001
0000
0001
0010
0001
0000
,
0201
0000
0310
0000
0100
0001
1000
0000
,
1200
0000
0310
0000
0100
1000
0001
0000
,
0100
0000
1000
0000
1000
0100
0001
0000
,
0010
0100
1000
0000
,
0001
0000
0000
1000
0000
0000
0010
0000
,
0100
0010
0100
0000
0002
0000
2003
0000
,
3100
0000
0000
0010
0000
0000
0001
0000
,
1000
0010
0001
0010
,
0100
0010
0100
0000
0001
1000
0001
0000
,
0010
0100
0010
0000
0100
1000
0001
0000
,
1000
0010
1000
0000
0001
0100
0001
0000
,
0010
0001
0010
0000
0100
1000
0001
0000
,
1000
0000
1010
0000
0010
0100
0001
0000
,
1000
0100
0001
0000
0001
0100
1000
0000
,
0001
0000
0010
0000
0001
1000
0001
0000
,
0100
0000
0010
0000
0100
0001
1000
0000
,
0100
0010
0001
0000
1000
0010
0100
0000
,
1000
0100
0001
0000
0001
0010
0100
0000
,
0010
0010
0010
0000
0001
0001
1000
0000
,
0020
0000
0230
0000
0301
1000
0001
0000
,
0010
0010
0010
0000
0100
0100
0100
0000
,
1000
0001
1000
0000
0110
0000
0000
0000
;

//--------------- dance-single - eataninja ----------------
#NOTEDATA:;
#STEPSTYPE:dance-single;
#DESCRIPTION:eataninja;
#DIFFICULTY:Medium;
#METER:12;
#RADARVALUES:0,0,0,0,0;
#CREDIT:eataninja;
#NOTES:
0000
0000
0000
0000
,
0000
0000
0000
0000
,
0000
0000
0000
0000
,
0000
0000
0000
0000
,
0000
0000
0000
0000
,
1000
0000
0010
0000
0000
0010
0000
0000
0100
0000
0000
0100
0000
0000
0001
0000
,
0000
0000
0001
0000
0000
0001
0000
0000
0010
0000
0000
0010
0000
0000
0100
0000
,
0000
0000
1000
0000
0000
1000
0000
0000
0001
0000
0000
0001
0000
0000
0100
0000
,
0000
0000
0100
0000
0000
0100
0000
0000
0001
0000
0000
0001
0000
0000
1000
0000
,
0100
0000
0001
0000
0100
0000
0000
0000
0010
0000
0000
0001
0000
0000
0001
0000
,
1000
0000
0010
0000
0001
0000
0000
0000
0010
0000
0000
0100
0000
0000
0001
0000
,
0010
0000
1000
0000
0010
0000
0000
0000
0100
0000
0000
1000
0000
0000
1000
0000
,
0001
0000
0100
0000
1000
0000
0000
0000
0100
0000
0000
0010
0000
0000
1000
0000
,
0001
0000
0010
0000
0001
0000
1000
0000
0100
0000
0000
0100
0000
0000
0010
0000
,
0001
0000
1000
0000
0010
0000
0001
0000
0010
0000
0000
0010
0000
0000
0100
0000
,
0001
0000
1000
0000
0100
0000
0010
0000
0001
0000
0000
0001
0000
0000
1000
0000
,
0010
0001
0010
1000
0100
0000
2200
0000
,
3300
0000
0000
0000
1000
0010
0000
0000
0010
0100
0000
0000
0001
0000
1000
0000
,
0100
0110
1001
0002
,
0000
0103
0000
0000
0010
1000
0100
0001
,
0100
0010
0001
0000
0000
0000
0001
1000
,
0010
1000
0100
0000
0000
0000
0120
0000
,
0031
0000
1000
0010
0001
0010
0110
0000
,
0000
0101
0000
0000
1010
0000
1000
0001
,
1000
1000
0100
0010
0001
0000
1000
0010
,
1000
0010
0001
0010
0001
0010
0100
0001
,
1000
0100
0010
0001
1000
0000
0001
0010
,
0001
0010
1000
0010
1000
0010
0100
1000
,
0001
0100
0010
0100
0001
0000
1000
0100
,
1000
0100
0001
0100
0001
0100
0010
0001
,
1000
0010
0100
0001
0010
0000
0100
1000
,
0001
0100
1000
0100
1000
0100
0001
1000
,
0100
0000
0010
0001
0100
0000
0102
0000
,
0000
1000
0000
0010
,
0010
1003
0000
2100
,
0000
0001
0000
0010
,
0010
0000
3001
0000
0000
0000
1000
0010
,
0001
0000
0010
0100
0001
0000
1000
0100
,
0010
0001
0100
0010
1000
0000
0001
0100
,
0001
0001
0010
0100
1000
0000
0000
0000
,
1100
0000
0100
0000
0010
0000
0000
0000
0001
1000
0001
0000
0100
0000
0000
0000
,
0101
0000
0000
0000
1100
0000
0000
0000
1000
0010
1000
0000
0001
0000
0000
0000
,
0011
0000
0010
0000
0100
0000
0000
0000
1000
0100
1000
0000
0010
0000
0000
0000
,
1010
0000
0000
0000
0011
0000
0000
0000
0001
1000
0001
0000
0010
0000
0000
0000
,
0110
0000
0100
0000
1000
0000
0000
0000
0001
0100
0001
0100
0001
0000
0000
0000
,
0101
0000
0000
0000
1010
0000
0000
0000
1000
0001
1000
0001
1000
0000
0000
0000
,
0100
0010
0001
0000
1000
0010
0100
0000
,
1000
0100
0001
0100
0010
1000
0100
0000
,
0010
0000
0000
0010
0000
0000
0001
0000
0000
1000
0010
0000
1000
0000
0000
1000
,
0100
0000
0000
0010
0000
0000
0001
0000
0000
1000
0010
0000
0100
0000
0000
0000
,
0010
0000
0000
0010
0000
0000
1000
0000
0000
0001
0010
0000
0001
0000
0000
0001
,
0100
0000
0000
0010
0000
0000
1000
0000
0000
0001
0010
0000
0100
0000
0000
0000
,
1000
0000
0100
0000
0001
0000
0100
0000
0000
0010
0001
0000
1000
0000
0000
1000
,
0010
0000
0100
0000
1000
0000
0100
0000
0000
0100
0010
0000
1000
0000
0000
0000
,
0001
0000
0010
0000
1000
0000
0010
0000
0000
0100
1000
0000
0001
0000
0000
0001
,
0100
0010
1000
0001
0010
0100
1001
0000
,
1000
0010
0100
1000
0001
0010
0100
0000
,
0001
0101
1000
0000
0100
0010
0001
0000
,
1000
0100
0001
0100
0010
0001
0100
0000
,
1000
0100
0001
0100
0010
1000
0001
0000
,
1000
0100
1000
0100
0010
0001
0010
0001
,
1000
0010
1000
0010
0100
0001
0100
0001
,
1000
1000
0100
0100
0010
0010
0001
0001
,
1000
0010
1000
0000
0001
0100
0001
0000
1000
0000
0100
0000
0001
0000
0100
0000
,
0010
0000
0001
0000
1000
0000
0010
0000
0100
0001
0100
0001
0100
0000
0010
0000
,
1000
1000
0001
0001
1001
0000
0000
0000
;

//--------------- dance-single - eataninja ----------------
#NOTEDATA:;
#STEPSTYPE:dance-single;
#DESCRIPTION:eataninja;
#DIFFICULTY:Hard;
#METER:15;
#RADARVALUES:0,0,0,0,0;
#CREDIT:eataninja;
#NOTES:
0000
0000
0000
0000
,
0000
0000
0000
0000
,
0000
0000
0000
0000
,
0000
0000
0000
0000
,
0000
0000
0000
0000
,
1000
0000
0010
0000
0100
0010
0000
0100
0001
0000
0100
0010
0000
0100
0001
0000
,
1000
0000
0100
0000
0010
0100
0000
0010
0001
0000
0010
0100
0000
0010
0001
0000
,
0100
0000
0010
0000
1000
0001
0000
0100
0001
0000
1000
0001
0000
0100
0001
0000
,
0010
0000
0100
0000
1000
0001
0000
1000
0010
0000
1000
0001
0000
0100
0010
0000
,
1000
0000
0001
0000
0010
0001
1000
0000
0100
0000
0000
0100
0000
0000
0010
0000
,
0001
0000
1000
0000
0010
0100
0001
0000
1000
0000
0000
1000
0000
0000
0010
0000
,
0100
0000
0010
0000
1000
0001
0010
0000
0100
0000
0000
0100
0000
0000
0010
0000
,
0100
0000
1000
0000
0001
0100
0010
0000
1000
0000
0000
1000
0000
0000
0010
0000
,
1000
0001
0010
0000
0100
0010
0001
1000
0010
0000
0000
0010
0000
0000
0100
0000
,
0001
1000
0010
0000
1000
0100
0010
0001
1000
0000
0000
0100
0000
0000
0100
0000
,
0010
0001
1000
0000
0010
0100
0010
1000
0001
0000
0000
0001
0000
0000
0100
0000
,
0010
1000
0001
0000
0010
0100
1000
0001
0010
0000
0000
0000
0100
0000
0020
0000
,
0000
0000
0000
0000
0130
1000
0000
0000
1000
0001
0000
0000
0100
0000
0000
0000
,
1100
0101
0012
1003
,
0000
0000
1200
0000
0000
0000
0000
0000
0310
0001
1000
0010
0100
0010
1000
0001
,
0010
0000
0100
0001
0100
0000
1000
0010
,
0100
0001
1000
0100
0020
0000
0000
0000
0032
0000
0000
0000
1003
0000
0010
0000
,
0100
0010
0100
0001
1000
0100
0010
0000
0100
1000
0001
0100
0010
0000
0000
0000
,
0100
0000
1000
0000
0100
0000
0001
0000
0010
0000
0000
0000
0100
0010
0100
0000
,
0010
0001
0010
0000
0001
0000
1000
0000
0010
0100
0000
0100
0001
0000
1000
0000
,
0010
1000
0001
1000
0010
1000
0100
0010
,
0001
0000
0100
0000
1000
0100
1000
0000
0100
0010
1000
0001
0010
0000
0100
0000
,
0001
0100
0010
0001
1000
0001
0100
0010
,
1000
0000
0100
0010
0001
0000
1000
0010
0100
0000
1000
0000
0100
0000
0001
0000
,
1000
0001
0100
0010
1000
0001
0010
0100
,
0001
0000
0100
0000
1000
0000
0001
0000
0010
1000
0010
0000
0001
1000
0100
0010
,
0001
1000
0010
0100
0010
0000
0001
0000
0010
0000
1000
0000
0001
0010
0000
0001
,
0000
0000
1000
0000
0010
0100
0001
0000
1000
0000
1000
0000
0200
0000
0000
0000
,
0000
0302
0000
0023
,
0000
2030
0000
3020
,
0000
0032
0000
0203
,
0000
0000
0000
0000
2300
0000
0000
0000
0000
0000
0000
0000
3001
0100
0001
0100
,
0010
0000
1000
0000
0001
0010
0100
1000
0010
0000
0100
0000
1000
0000
0100
0000
,
0010
0100
0010
0000
1000
0000
0001
0010
0100
0000
0000
0000
1000
0100
1000
0000
,
0100
0001
1000
0010
0100
1000
0000
0000
,
0001
0000
0100
0000
1000
0000
0100
0000
0010
0100
0010
1000
0001
0010
0100
1000
,
0001
0000
0010
0000
1000
0000
0010
0000
0100
0010
0100
1000
0001
0100
0010
1000
,
0100
0000
0001
0000
0100
0000
1000
0000
0001
0100
0001
1000
0100
0010
0001
0100
,
0010
0000
0001
0000
0010
0000
1000
0000
0001
0100
0001
0100
0010
1000
0001
0010
,
0100
0000
1000
0000
0010
0000
0001
0000
0010
0100
0010
1000
0001
0010
0100
1000
,
0010
0000
1000
0000
0100
0000
0001
0000
0100
0010
0100
1000
0001
0100
0010
1000
,
0001
0010
0001
0010
0100
0010
0001
0000
1000
0010
0100
0001
1000
0000
0000
0000
,
0100
0001
0100
0001
0100
1000
0100
1000
0010
0100
0001
0000
1000
0100
1000
0000
,
0010
0000
0000
1010
0000
0000
0001
0000
0000
1000
0010
0000
0100
0000
0000
0100
,
0001
0000
1000
0100
0010
0000
0100
0000
0001
0000
0100
0010
0000
0100
1000
0000
,
0001
0000
0000
0101
0000
0000
1000
0000
0000
0010
1000
0000
0001
0000
0000
0001
,
1000
0000
0100
0000
0001
0100
0001
0000
0100
0000
0010
0001
1000
0000
0000
0000
,
0010
0100
0001
1000
0010
0100
0010
1000
0001
0010
0100
1000
0001
0010
0001
0000
,
0010
0100
1000
0001
0100
0010
0100
0001
1000
0010
0100
0001
1000
0100
0000
0010
,
0001
0010
0001
1000
0100
1000
0001
0100
0010
1000
0001
1000
0100
0010
0001
0000
,
1000
0010
1000
0001
0100
0010
1000
0001
0010
0100
0010
0001
1000
0000
1000
0000
,
0010
0000
1000
0001
0010
0000
1000
0000
0010
0000
0100
0000
0010
0000
0001
0000
,
1000
0110
0001
1000
0100
0001
0100
0010
,
0001
0000
1000
0000
0010
0000
1000
0100
0010
0000
0001
0000
1000
0000
0010
0100
,
0001
0100
0010
0100
1000
0001
0010
0100
,
0001
0000
1000
0000
0100
0000
0010
0001
1000
0000
0010
0000
0001
0000
0010
0100
,
0001
0100
1000
0001
0010
1000
0100
0010
,
0001
0000
0001
0000
1000
0000
1000
0000
0010
0000
0010
0000
0100
0010
0100
0000
,
0001
1000
0010
0000
1000
0001
0010
0000
0100
0000
1000
0000
0001
0100
0001
0000
,
1000
0010
1000
0000
0010
0001
0010
0000
0100
0010
1000
0001
0010
0000
0010
0000
,
0100
0100
1000
1000
1001
0000
0000
0000
;

//--------------- dance-single - if the A CSP was good ----------------
#NOTEDATA:;
#STEPSTYPE:dance-single;
#DESCRIPTION:if the A CSP was good;
#DIFFICULTY:Edit;
#METER:13;
#RADARVALUES:0,0,0,0,0;
#CREDIT:eataninja;
#NOTES:
0000
0000
0000
0000
,
0000
0000
0000
0000
,
0000
0000
0000
0000
,
0000
0000
0000
0000
,
0000
0000
0000
0000
,
0000
0001
0000
1010
0000
0100
0001
0010
,
0000
1001
0000
0100
1000
0010
1000
0100
,
0000
0100
0000
0011
0000
1000
0100
0001
,
0000
0110
0000
1000
0010
0001
0010
1000
,
0010
0000
0100
0000
0010
1000
0001
0000
0100
0000
0000
0000
0001
0000
0000
0000
,
0010
0000
0100
0000
0010
1000
0001
0000
0100
0000
0000
0000
0010
0000
0000
0000
,
0001
0000
1000
0000
0001
1000
0100
0000
0001
0000
0000
0000
0100
0000
0000
0000
,
1000
0000
0001
0000
1000
0001
0100
0000
1000
0000
0000
0000
0100
0000
0000
0000
,
1000
0100
1000
0100
0001
0100
0001
0100
,
1000
0010
1000
0010
0001
0010
0001
0010
,
1000
0010
0001
1000
0100
0001
1000
0010
,
0001
1000
0100
0001
1000
0000
1000
0000
,
0010
0000
0100
0001
1000
0010
0100
0000
,
0010
0000
0000
0010
1000
0000
0000
1000
0001
0000
0100
0000
0010
0000
0000
0000
,
0010
0000
0010
0000
0100
0001
0001
0000
,
0000
0000
0000
0000
0010
0000
0000
0100
1000
0000
0001
0000
1000
0000
0010
0000
,
0001
0000
1000
0100
0001
0000
0100
1000
,
0001
0000
1000
0001
0010
0000
0100
0100
,
0100
0010
0001
0000
0011
0000
1000
0000
,
1100
0000
0110
0000
0011
0000
0001
0100
,
0010
1000
0000
0010
1000
0000
0100
0000
0010
0001
0000
0010
0001
0000
1000
0000
,
0001
0100
0000
0010
1000
0000
0001
0000
0001
0000
0000
0000
1000
0000
0100
0000
,
0010
0001
0000
0010
0001
0000
0100
0000
0010
1000
0000
0010
1000
0000
0001
0000
,
1000
0100
0000
0010
0001
0000
1000
0000
1000
0000
0000
0000
0100
0000
0010
0001
,
0010
0000
0100
0000
1000
0000
0000
0000
1000
0000
0000
0001
0100
0000
0010
1000
,
0010
0000
0100
0000
0001
0000
0000
0000
0001
0000
0000
0100
0010
0000
1000
0001
,
1000
0000
0100
0000
0010
0000
0000
0000
0010
0000
0001
0100
0001
0000
1000
0000
,
1000
0010
0200
0000
0020
0000
0000
0000
0330
0000
0000
0000
0001
1000
0000
0000
,
0100
0000
0000
0000
0001
0000
0000
0000
0100
0000
0000
0000
1000
0001
0000
0000
,
0100
0000
0000
0000
1000
0000
0000
0000
0100
0000
0000
0000
0001
1000
0000
0000
,
0100
0000
0000
0000
0001
0000
0000
0000
0100
0000
0000
0000
1000
0001
0000
0000
,
0100
1000
0100
0110
,
1000
0000
0010
0000
0100
0000
0000
0000
0001
0000
0010
0000
0100
0000
0000
1000
,
0010
1000
0100
0000
0010
0100
1000
0000
,
0010
0100
1000
0000
0010
0001
0100
0000
,
0100
0001
0100
1000
0100
0010
0001
0100
,
0010
1000
0001
0010
0100
1000
0001
0010
,
0100
0001
0100
1000
0010
0100
0001
0010
,
1000
0010
0001
1000
0010
0100
0001
1000
,
0001
0000
1000
0000
0100
0010
0000
0100
1000
0000
0010
0000
0100
0000
0000
0000
,
1000
0000
0001
0000
0010
0100
0000
0010
0001
0000
0100
0000
0010
0000
0000
0000
,
1000
0000
0100
0000
0001
0100
0000
0010
0001
0000
1000
0000
0010
0000
0100
0000
,
0001
0000
1000
0000
0001
0010
0000
0100
1000
0000
0010
0000
0100
0000
0000
0000
,
0100
1000
0100
0010
0100
0001
0100
0010
,
0110
0000
0000
1100
0000
0000
0011
0000
0100
0000
1000
0000
1001
0000
0000
0000
,
0100
1000
0100
0010
0100
0001
0100
0010
,
0100
1000
0000
0000
1010
0000
1000
0000
0010
0000
0100
0001
0100
0000
0000
0000
,
0011
0000
0000
1001
0000
0000
1010
0000
0000
1001
0000
0000
0110
0000
1001
0000
,
0010
0000
0100
0000
0001
0100
0001
0000
1000
0000
0000
0100
0000
0000
1000
0000
,
1010
0000
0000
1001
0000
0000
0011
0000
0000
1001
0000
0000
0110
0000
1001
0000
,
0010
0000
0001
0000
0100
0001
0100
0000
0001
1000
0000
0100
0000
0000
0010
0000
,
0010
0000
1000
0000
0010
0100
0000
0000
0001
0000
0100
0000
1000
0000
0100
0000
,
0010
0000
1000
0000
0010
0100
0000
0000
1000
0000
0100
0000
0001
0000
0100
0000
,
0010
0000
1000
0000
0010
0100
0000
0000
1000
0000
0100
0000
0001
0000
0100
0000
,
0010
0000
0001
0000
0010
0100
0000
0000
0001
0000
0001
0000
1000
0000
1000
0000
,
1000
0000
0001
0100
0001
0000
1000
0100
1000
0000
0100
0000
0010
0000
0000
0000
,
0001
0010
0100
0010
0001
0010
0011
0000
,
0100
0000
1000
0010
1000
0000
0001
0010
0001
0000
0010
0000
0100
0000
0000
0000
,
0100
0000
0010
0000
0100
0000
0010
0000
0001
1000
0001
1000
0001
0000
1000
0001
,
1000
0000
0100
0000
0001
0000
0100
0000
1000
0000
0100
0010
0001
0000
0010
0000
,
0001
0100
1000
0100
0001
0000
0000
0000
;
