#TITLE:undertale temmie get money for colege;
#SUBTITLE:(Whales x Tem Shop mashup);
#ARTIST:Archdiggle;
#TITLETRANSLIT:;
#SUBTITLETRANSLIT:;
#ARTISTTRANSLIT:;
#GENRE:;
#CREDIT:;
#MUSIC:undertale temmie get money for colege.ogg;
#BANNER:undertale temmie get money for colege.png;
#BACKGROUND:undertale temmie get money for colege-bg.png;
#LYRICSPATH:undertale temmie get money for colege.lrc;
#CDTITLE:;
#SAMPLESTART:0.000;
#SAMPLELENGTH:0.000;
#SELECTABLE:YES;
#OFFSET:-2.636;
#BPMS:0.000=200.000;
#STOPS:;
#BGCHANGES:-8.787=undertale temmie get money for colege.avi=1.000=1=0=0=StretchNoLoop==CrossFade==;
#FGCHANGES:;

//--------------- dance-single - ----------------
#NOTES:
     dance-single:
     :
     Beginner:
     2:
     0,0,0,0,0:
0000
0000
0000
0000
,
0000
0000
0000
0000
,
0000
0000
0000
0000
,
0000
0000
0000
0000
,
0000
0000
0000
0000
,
0000
0000
0000
0000
,
0000
0000
0000
0000
,
0000
0000
0000
0000
,
0001
0000
0000
0000
,
0000
0000
0000
0000
,
0001
0000
0000
0000
,
0000
0000
0000
0000
,
1000
0000
0000
0000
,
0000
0000
0000
0000
,
1000
0000
0000
0000
,
0000
0000
0000
0000
,
0001
0000
0000
0000
,
0000
0000
0000
0000
,
0100
0000
0000
0000
,
0000
0000
0000
0000
,
0010
0000
0000
0000
,
0000
0000
0000
0000
,
1000
0000
0000
0000
,
0000
0000
0000
0000
,
1001
0000
0000
0000
,
0000
0000
0000
0000
,
1000
0000
0000
0000
,
0000
0000
0000
0000
,
0100
0000
0000
0000
,
0000
0000
0000
0000
,
0010
0000
0000
0000
,
0000
0000
0000
0000
,
0001
0000
0000
0000
,
0000
0000
0000
0000
,
0001
0000
0000
0000
,
0000
0000
0000
0000
,
0010
0000
0000
0000
,
0000
0000
0000
0000
,
0100
0000
0000
0000
,
0000
0000
0000
0000
,
1001
0000
0000
0000
,
0000
0000
0000
0000
,
0000
0000
0000
0000
,
0000
0000
0000
0000
,
0000
0000
0000
0000
,
0000
0000
0000
0000
,
0000
0000
0000
0000
,
0000
0000
0000
0000
,
1000
0000
0000
0000
,
0000
0000
0000
0000
,
1000
0000
0000
0000
,
0000
0000
0000
0000
,
0001
0000
0000
0000
,
0000
0000
0000
0000
,
0001
0000
0000
0000
,
0000
0000
0000
0000
,
1001
0000
0000
0000
,
0000
0000
0000
0000
,
0100
0000
0000
0000
,
0000
0000
0000
0000
,
0010
0000
0000
0000
,
0000
0000
0000
0000
,
0100
0000
0000
0000
,
0000
0000
0000
0000
,
1001
0000
0000
0000
,
0000
0000
0000
0000
,
0010
0000
0000
0000
,
0000
0000
0000
0000
,
0000
0000
0000
0000
,
0000
0000
0000
0000
,
0000
0000
0000
0000
,
0000
0000
0000
0000
,
0110
0000
0000
0000
,
0000
0000
0000
0000
,
1001
0000
0000
0000
,
0000
0000
0000
0000
,
0001
0000
0000
0000
,
0000
0000
0000
0000
,
0100
0000
0000
0000
,
0010
0000
0010
0000
;

//--------------- dance-single - ----------------
#NOTES:
     dance-single:
     :
     Easy:
     4:
     0,0,0,0,0:
0000
0000
0000
0000
,
0000
0000
0000
0000
,
0000
0000
0000
0000
,
0000
0000
0000
0000
,
0000
0000
0000
0000
,
0000
0000
0000
0000
,
0000
0000
0000
0000
,
0000
0000
0000
0000
,
1000
0000
0000
0000
,
1000
0000
0000
0000
,
0100
0000
0000
0000
,
0100
0000
0000
0000
,
0010
0000
0000
0000
,
0010
0000
0000
0000
,
0001
0000
0000
0000
,
1001
0000
0000
0000
,
0001
0000
0000
0000
,
0001
0000
0000
0000
,
0100
0000
0000
0000
,
0100
0000
0000
0000
,
0010
0000
0000
0000
,
0010
0000
0000
0000
,
1000
0000
0000
0000
,
1000
0000
0000
0000
,
1001
0000
0000
0000
,
0000
0000
1000
0000
,
0100
0000
0000
0000
,
0000
0000
0000
1000
,
0001
0000
0000
0000
,
0000
0000
0001
0000
,
0100
0000
0000
0000
,
0000
0000
0001
0000
,
1000
0000
0000
0000
,
0000
0000
1000
0000
,
0010
0000
0000
0000
,
0000
0000
0010
0000
,
1000
0000
0000
0000
,
0000
0000
1000
0000
,
0001
0000
0000
0000
,
0000
0000
0001
0000
,
2002
0000
3003
0000
,
1000
0000
1000
0000
,
0100
0000
0000
0000
,
0100
0000
0100
0000
,
0010
0000
0000
0000
,
0010
0000
0010
0000
,
0100
0000
0100
0000
,
1000
0000
0001
0000
,
1001
0000
0000
0000
,
0000
0000
0000
0000
,
0001
0000
0000
0000
,
0100
0000
0000
0000
,
0001
0000
0000
0000
,
0010
0000
0000
0000
,
0100
0000
0100
0000
,
0100
0000
0000
0000
,
1001
0000
0000
0000
,
0001
0000
0000
0000
,
0100
0000
0000
0000
,
0100
0000
0000
0000
,
0010
0000
0000
0000
,
0010
0000
0000
0000
,
1000
0000
0000
0000
,
0001
0000
0110
0000
,
1001
0000
0000
0000
,
1000
0000
0000
0000
,
0100
0000
0100
0000
,
1000
0000
1000
0000
,
0001
0000
0000
0000
,
0000
0000
0000
0000
,
0000
0000
0000
0000
,
0000
0000
0000
0000
,
2002
0000
3003
0000
,
0001
0000
0001
0000
,
0100
0000
0000
0000
,
0100
0000
0100
0000
,
0010
0000
0000
0000
,
0010
0000
0010
0000
,
0100
0000
0001
0000
,
1000
0000
2002
0000
,
3003
0000
0000
0000
;

//--------------- dance-single - ----------------
#NOTES:
     dance-single:
     :
     Medium:
     9:
     0,0,0,0,0:
0000
0000
0000
0000
,
0000
0000
0000
0000
,
0000
0000
0000
0000
,
0000
0000
0000
0000
,
0000
0000
0000
0000
,
0000
0000
0000
0000
,
0000
0000
0000
0000
,
0000
0000
0000
0000
,
1000
0000
0002
0000
0000
0203
0000
0000
,
0301
0000
1000
0010
0000
0010
1000
0000
,
0200
0000
0010
0000
0000
0010
0000
0000
,
1300
0000
1000
0002
0000
0000
0103
0000
,
0010
0000
2000
0000
0000
3200
0000
0000
,
1300
0000
0001
0010
0000
0010
0100
0000
,
1000
0100
1000
0000
0001
0000
0100
0000
,
0010
1000
0002
0003
,
1001
0000
2000
0000
0000
3200
0000
0000
,
1300
0000
0001
0010
0000
0010
0001
0000
,
0200
0000
0010
0000
0000
0010
0000
0000
,
0301
0000
1000
0020
0000
0000
1030
0000
,
0100
0000
2000
0000
0000
3020
0000
0000
,
0130
0000
0001
0010
0000
0010
0100
0000
,
1000
0010
1000
0000
0100
0000
0010
0000
,
0001
0001
2000
3000
,
1001
0000
0001
0000
0000
0100
0000
0000
,
1000
0000
0100
0001
0000
0001
1000
0000
,
1010
0000
1000
0000
0000
0100
0000
0000
,
0001
0000
0100
1000
0000
1000
0001
0000
,
0011
0000
1000
0000
0000
0100
0000
0000
,
0010
0000
0001
1000
0000
0001
1000
0000
,
0001
0000
0100
0000
0000
0010
0000
0000
,
1000
0000
0001
0010
0000
0001
0010
0000
,
1001
0000
0001
0000
0000
0010
0000
0000
,
1000
0000
0010
0001
0000
0001
1000
0000
,
1001
0000
1000
0000
0000
0010
0000
0000
,
0001
0000
0010
1000
0000
1000
0001
0000
,
1001
0000
1000
0000
0000
0010
0000
0000
,
0100
0000
0001
0010
0000
0100
1000
0000
,
0001
0000
1000
0000
0000
0010
0000
0000
,
0100
0000
0001
1000
0000
0010
0100
0000
,
0002
1000
1000
1000
,
0100
0100
0100
0100
,
0013
0100
2000
0001
,
0100
0100
0100
0100
,
0010
0010
0010
3010
,
0100
0001
0020
0100
,
0001
0001
0001
0031
,
0001
0000
1000
0001
2002
0000
3003
0000
,
0001
0100
0001
0100
,
0010
1000
0010
1000
,
0100
1000
0100
1000
,
0100
0010
0001
1000
,
0010
1000
0010
1000
,
0001
0100
0001
0100
,
0002
0013
0020
0130
,
0200
2300
0002
3003
,
0001
0000
2000
0000
0000
3200
0000
0000
,
1300
0000
0001
0010
0000
0010
0001
0000
,
0200
0000
0010
0000
0000
0010
0000
0000
,
0301
0000
0001
2000
0000
0000
3100
0000
,
0010
0000
0002
0000
0000
0203
0000
0000
,
0301
0000
1000
0010
0000
0010
0100
0000
,
0001
0100
0001
0000
1000
0000
0100
0000
,
0010
0001
2000
3000
,
1001
0000
0002
0000
0000
0203
0000
0000
,
0301
0000
1000
0010
0000
0010
1000
0000
,
0200
0000
0010
0000
0000
0010
0000
0000
,
1300
0000
0001
0020
0000
0000
0031
0000
,
0100
0000
0002
0000
0000
0023
0000
0000
,
0130
0000
1000
0010
0000
0010
0100
0000
,
0001
0010
0001
0000
0100
0000
0010
0000
,
1000
1000
0002
0003
,
2000
0001
0001
0001
,
0100
0100
0100
0100
,
3010
0100
0002
1000
,
0100
0100
0100
0100
,
0010
0010
0010
0013
,
0100
1000
0020
0100
,
1000
1000
1000
1030
,
1000
0000
0001
1000
2002
0000
3003
0000
;

//--------------- dance-single - ----------------
#NOTES:
     dance-single:
     :
     Hard:
     12:
     0,0,0,0,0:
0000
0000
0000
0000
,
0000
0000
0000
0000
,
0000
0000
0000
0000
,
0000
0000
0000
0000
,
0000
0000
0000
0000
,
0000
0000
0000
0000
,
0000
0000
0000
0000
,
0000
0000
0000
0000
,
2001
0000
3020
0000
0130
0001
0100
0001
,
1000
0100
0010
0001
0200
0000
0320
0000
,
1030
0000
0001
0000
0010
0100
0000
0010
,
0000
0001
2000
0000
3020
0000
1030
0000
,
0011
0010
0100
1000
,
0002
0000
1003
0100
0020
0000
0031
0000
,
1010
0000
0010
0000
0100
0000
0001
0010
,
0000
0001
0100
0000
1001
0000
0002
0000
,
0200
0000
0303
0000
0001
0100
0001
0100
,
0010
1000
0010
1000
0002
0000
0000
1003
,
0100
0000
1000
0001
0200
0000
0310
1000
,
0100
0000
0100
1000
0020
0000
0230
0000
,
0301
1000
0001
1000
0020
0000
0130
0001
,
2000
0000
3100
0010
0001
0000
2000
0000
,
3010
0100
0010
0100
0002
0000
0013
0100
,
1000
1100
1001
0102
,
2003
0000
3100
0000
1000
0100
1000
0100
,
0001
0100
0001
0100
2000
0000
3001
0000
,
0101
0100
0010
0100
,
0001
0010
0200
0000
1300
0000
0010
0000
,
1000
0100
1000
0100
1000
0001
1000
0001
,
0010
0001
0010
0001
2000
0000
3020
0000
,
0130
0001
0100
0001
1000
0010
1000
0010
,
1000
0001
0010
0100
1000
0000
1100
0000
,
2002
0000
3003
0000
1000
0100
1000
0001
,
0100
0001
1000
0100
0020
0000
0031
1000
,
0010
0000
0010
0100
0001
0000
0001
0100
,
2000
0000
3100
0001
0020
0000
0130
1000
,
0001
1000
0010
1000
0200
0000
0310
0001
,
0100
0000
0100
0001
0020
0000
0230
0000
,
2300
0000
3002
0000
0203
0000
0301
1000
,
0010
0000
1000
0001
0010
0000
0110
0000
,
1002
0000
0023
0000
0000
0230
0000
0000
,
1300
0000
1000
0020
0000
0130
0001
1000
,
0100
0000
2200
0000
3300
0202
0000
0303
,
1100
0000
0100
0020
0000
0000
0031
0000
,
1000
0000
0020
0000
0000
0230
0000
0000
,
0301
0000
1000
0001
0000
0001
0100
0010
,
1000
0001
0010
0000
0010
0001
1000
0000
,
1100
1010
2002
3003
,
1000
0001
0100
0001
,
1000
0100
0000
0100
0010
0000
0001
0000
,
1000
0000
0100
0000
1000
0001
0000
0000
,
0001
0100
0010
2000
0000
3001
0010
0001
,
1000
0100
0001
0100
0010
0001
1000
0010
,
0100
1000
0100
0010
2000
0000
3001
1000
,
0001
0100
0010
0000
0010
0100
0001
0000
,
0101
1100
2001
0010
,
0200
0000
3300
0000
0001
1000
0001
0100
,
0001
0010
0100
1000
0002
0000
0013
0000
,
0011
0110
2100
0010
,
3001
0000
0100
0010
2000
0000
3002
0000
,
0013
0100
0010
0100
1000
0000
0001
0000
,
1000
0010
0200
0000
0302
0000
0023
0000
,
0031
1000
0020
0000
0230
0000
0301
0100
,
2000
3000
0220
0330
0202
0303
0012
0000
,
0200
0000
0303
0000
1000
0001
1000
0001
,
1000
0100
0010
0001
0200
0000
0310
1000
,
0001
1000
0100
0010
0200
0000
0301
0100
,
0010
0001
1000
0001
0200
0000
0320
0000
,
1030
0100
1000
0001
0020
0000
0130
1000
,
0020
0000
0130
0001
0020
0000
0130
1000
,
0002
0000
1003
0010
0200
0000
0301
1000
,
0002
0103
0010
0110
,
2001
0000
3020
0000
0000
0230
0000
0000
,
0301
0000
0001
0020
0000
0130
1000
0001
,
0100
0000
0202
0000
0303
2200
0000
3300
,
0101
0000
0100
0010
0000
0010
2000
0000
,
3001
0000
2000
0000
0000
3200
0000
0000
,
1300
0000
0001
0010
0000
0010
0100
1000
,
0020
0000
0230
0000
0000
0302
0000
0000
,
2003
0000
3010
1000
0002
0000
0000
0000
,
0003
0000
0000
0000
;
