#TITLE:ultimer;
#SUBTITLE:;
#ARTIST:ikaruga_nex;
#TITLETRANSLIT:;
#SUBTITLETRANSLIT:;
#ARTISTTRANSLIT:;
#GENRE:;
#CREDIT:;
#BANNER:ultimer-bn.png;
#BACKGROUND:ultimer-bg.png;
#LYRICSPATH:;
#CDTITLE:;
#MUSIC:ultimer.ogg;
#OFFSET:1.043000;
#SAMPLESTART:42.264000;
#SAMPLELENGTH:20.000000;
#LASTBEATHINT:0.067083;
#SELECTABLE:YES;
#DISPLAYBPM:115.000000:260.000000;
#BPMS:0.000000=115.000000
,20.000000=230.000000
,116.000000=235.000000
,124.000000=240.000000
,132.000000=245.000015
,136.000000=249.999985
,140.000000=260.000000
,148.000000=130.000000
,212.000000=260.000000
;
#STOPS:
;
#BGCHANGES:;
#KEYSOUNDS:;
#ATTACKS:;

//---------------dance-single - ----------------
#NOTES:
     dance-single:
     :
     Challenge:
     19:
     1.427427,1.861896,0.300306,0.291206,1.765434,1098.000000,1065.000000,33.000000,32.000000,0.000000,0.000000,1.427427,1.861896,0.300306,0.291206,1.765434,1098.000000,1065.000000,33.000000,32.000000,0.000000,0.000000:
0000
0000
0000
0000
,
0000
0000
0000
0000
,
0000
0000
0000
0000
,
0110
0000
0100
0000
0001
0000
1000
0000
0010
0000
0100
0000
0001
0000
0000
0000
1000
0100
1000
0100
1000
0000
0010
0000
0100
0000
0001
0000
1000
0000
0001
0000
,
0010
0000
0100
0000
1000
0001
1000
0001
1000
0000
0010
0000
0100
0000
0000
0000
0001
0010
0001
0010
0100
1000
0100
1000
0010
0100
0010
0100
0001
1000
0001
1000
,
0100
0000
0010
0001
0010
0000
0001
0100
0001
0000
1000
0010
1000
0000
0000
0000
,
1100
0000
0001
0010
0001
1000
0010
0100
0001
0000
1000
0100
1000
0000
0010
0000
,
0100
0000
0001
1000
0010
0100
0010
1000
0100
0000
0010
0001
0010
0000
0001
0000
,
1000
0100
1000
0010
1000
0100
1000
0010
0100
0000
0001
1000
0001
0000
0010
0000
,
0100
0000
1000
0010
1000
0000
0001
0100
0001
0000
0010
0100
1000
0000
0000
0000
,
0011
0000
0001
0100
0010
0000
1000
0100
0010
0000
0001
1000
0100
0000
0000
0000
,
1000
0010
0100
0010
0001
0010
0100
1000
0001
0010
0100
0010
1000
0001
1000
0001
,
0010
0010
0010
1001
,
0010
0000
0010
0000
1000
0100
0001
0100
1000
0000
0010
0000
0100
0001
0100
0010
,
1000
0000
0001
0010
0100
1000
0100
0010
0001
0000
0100
0010
1000
0000
0000
0000
,
1100
0000
1100
0000
0001
0100
0010
0100
1000
0100
0001
0000
0010
1000
0010
0001
,
0200
0000
0000
0000
0301
1000
0010
1000
0001
0000
0010
0100
2000
0000
0000
0000
,
3010
0000
1010
0000
1010
0000
0100
0001
1000
0000
0010
0000
0001
0000
0010
0000
,
1000
0000
1000
0000
0100
0001
0100
0010
0100
0000
1000
0001
0010
0001
0100
0000
,
0010
0000
1000
0100
0001
0000
0010
0100
0001
0100
1000
0010
0100
0000
0001
0000
,
1000
0100
1000
0100
1000
0010
1000
0010
1000
0001
1000
0001
2000
0000
0000
0000
,
3020
0000
0130
0102
0000
0103
2010
0000
,
3100
0000
0010
0000
1000
0000
0010
0000
0001
0000
0100
0000
0010
1000
0001
1000
,
0100
0000
0010
0001
0100
0000
1000
0010
0100
0000
0001
0010
0100
1000
0001
0100
,
0010
1000
0100
1000
0010
0000
0100
0001
0010
0000
0100
1000
0001
1000
0010
0100
,
0001
0000
0010
1000
0010
0100
0010
0001
0100
1000
0100
0010
1000
0001
0010
0100
,
1000
0000
0120
0000
0130
0010
2001
0000
,
3100
0000
0010
0000
0001
0100
1000
0100
0001
0000
0001
0000
0010
0100
1000
0010
,
0100
0000
0001
0010
0001
0000
1000
0100
0010
0001
0010
0100
1000
0000
0000
0000
,
1001
0000
0011
0000
1000
0100
0010
0001
,
0100
1000
0100
0010
1000
0001
0100
0000
,
0110
0000
1010
0000
0001
0010
0100
1000
,
0100
0000
0001
0000
0100
0000
0010
0000
0001
0000
0100
0000
0010
1000
0001
1000
,
0010
0001
0100
1000
0001
1000
0100
0010
,
0001
0000
0100
0000
0010
1000
0001
1000
0100
0000
0010
0001
1000
0010
0100
0000
,
0001
0000
1000
0000
0010
0100
0010
0100
0001
0000
1000
0000
0010
0100
0010
0100
,
0001
0000
1000
0100
1000
0000
0001
0100
0001
0000
1000
0010
1000
0000
0001
0010
,
0001
0100
0000
0100
0010
0000
1010
0000
1100
0000
0001
0100
1000
0000
0020
0000
,
1030
0100
1000
0100
0001
0100
0001
0100
0010
0001
0100
0010
1000
0001
1000
0000
,
0010
1000
0001
1000
0010
0100
0001
0010
1000
0010
0100
0010
0002
0000
2003
0000
,
3020
0000
0000
0000
1030
0100
1000
0100
1000
0000
0010
0000
0100
0000
0001
0000
0010
0000
0001
0000
1000
0000
0001
0000
0100
0000
0010
0000
1000
0000
0001
0000
,
0100
0001
0010
1000
0010
0001
0010
0100
1000
0000
0010
0100
0010
1000
0001
0100
,
0001
0000
1000
0100
0001
1000
0010
0100
0001
0000
0011
0000
1100
0000
0101
0000
,
1010
0010
1000
0001
1000
0100
0010
0100
1000
0000
0001
0010
1000
0001
0100
1000
,
0010
0000
0000
0000
0100
0001
0100
0001
0100
0000
0010
0000
1000
0000
0000
0000
0002
0000
1003
0000
0020
0000
1030
0000
0200
0000
0310
0000
0002
0000
0000
0000
,
0013
0000
0001
0100
1000
0010
0100
0000
0001
1000
0100
0010
0002
0000
0000
1003
,
0100
0001
0100
0010
0100
1000
0001
0000
0110
0000
1000
0001
0200
0000
0010
0000
,
0301
0000
1001
0000
1100
0000
0010
0100
0001
0000
1000
0100
0000
0100
0010
0000
,
0011
0000
0001
1000
0000
1000
0010
0000
1000
0100
0001
0100
0010
0001
0100
0000
,
0010
0010
1000
0001
1000
0100
0020
0000
0031
0001
0100
0010
1000
0001
0200
0000
,
1300
1000
0100
0010
1000
0001
0010
0001
0100
0100
0001
1000
0100
0010
0001
1000
,
0010
0000
0010
0000
0100
0000
0100
0000
0001
0000
0001
0000
1000
0000
1000
0000
0001
0100
1000
0010
1000
0010
0001
0100
0010
0001
0100
1000
0100
1000
0010
0001
,
0200
0000
0000
0000
0000
0000
0000
0000
0320
0000
0000
0000
0000
0000
0000
0000
1030
0010
0100
0010
0001
0010
0001
1000
0100
0001
0100
0010
1000
0100
0001
1000
,
0010
0000
0100
0001
1000
0000
0100
0010
0001
0000
0100
0010
1000
0000
0001
0100
,
0010
0000
0100
1000
0100
0010
1000
0001
0100
0000
0110
0000
0110
0000
0000
0000
,
1000
0000
0100
0010
0001
0000
0100
0010
1000
0000
0001
1000
0100
0000
0010
0001
,
1000
0100
0001
0100
1000
0000
0010
0000
0100
1000
0100
0001
0020
0000
0000
0000
,
0031
0000
0100
0010
1000
0000
0100
0010
0001
0000
1000
0010
0001
0000
0100
1000
,
0010
0000
0100
0000
0001
0010
1000
0010
0001
0100
1000
0100
0001
0010
0100
1000
,
0010
0000
0100
0001
0010
0000
1000
0100
0001
0000
0010
0001
1000
0000
0100
0010
,
0001
1000
0001
1000
0010
0100
0010
0100
0001
0010
0100
1000
0001
0100
0010
1000
,
0200
0000
0000
0000
1300
0010
0001
0100
2000
0000
0000
0000
3010
0001
0100
1000
,
0010
0000
1000
0100
0001
0100
1000
0010
0100
1000
0100
0001
0020
0000
0000
0000
,
0130
0000
0100
0000
0010
0001
1000
0001
0010
0001
1000
0100
1000
0010
0100
0001
,
1000
0000
1000
0000
1000
0001
0010
0001
0100
0000
0010
0100
0001
0000
0001
0000
,
1000
0000
0100
0000
0001
0010
0100
1000
0010
0000
0100
0000
1000
0010
0001
0100
,
0010
0000
1000
0100
1000
0000
0001
0010
1000
0010
0100
0010
0001
0100
1000
0000
,
0010
0000
0010
0000
0010
0000
1000
0100
0001
0000
0001
0000
0001
0000
1000
0000
,
0020
0000
0000
0000
0130
0001
0100
0001
0100
0000
0010
1000
0002
0000
0000
0000
,
1003
0100
0001
0100
1000
0010
0001
0010
,
1000
0000
0001
0000
0010
0100
1000
0010
0100
0000
0001
0000
1000
0000
0010
0000
,
0100
0000
0001
0010
0001
0000
1000
0100
1000
0000
0010
0001
0010
0100
0010
1000
,
0010
0000
1000
0001
1000
0100
0010
0001
0100
0000
0101
0000
1100
0000
0000
0000
,
0010
1000
0010
1000
0010
0000
0100
0000
0001
0010
0001
0010
0001
0000
1000
0000
,
0100
0001
0100
0001
0100
0010
0100
0010
0100
1000
0100
1000
0100
0000
0000
0000
,
1000
0100
0010
0100
1000
0010
0100
0010
1000
0100
0010
0100
2000
0000
0000
0000
,
3001
0100
0010
0100
0001
0010
0100
0010
0001
0100
0010
0100
0002
0000
0000
0000
,
0013
0001
0010
1000
0100
0001
0100
1000
,
0010
0000
0001
0000
0100
0010
1000
0001
0010
0000
0100
0000
1001
0000
0000
0000
,
0010
0000
1000
0100
1000
0000
0001
0100
0001
0000
1000
0010
1000
0000
0001
0010
,
0001
0000
0100
0000
0010
1000
0001
1000
0100
0000
0010
0000
0011
0000
0000
0000
,
1000
0000
0010
0100
0010
0000
1000
0001
1000
0000
0100
0010
0001
0000
0100
0010
,
1000
0000
0001
0000
1000
0100
0001
0100
1000
0000
0010
0100
0002
0000
0000
0000
,
0013
0000
0001
0100
0010
1000
0100
0010
0001
0000
1000
0001
1000
0010
0100
0001
,
0010
0000
0100
0000
0010
0000
0100
0000
1000
0010
0001
0010
2000
0000
0000
0000
,
3100
0010
0001
0010
0100
1000
0001
1000
,
0010
0100
0001
1000
0100
0010
0001
1000
,
0001
0000
0100
0010
1000
0010
0100
0001
0010
0000
0100
0000
1000
0000
0001
0000
,
0100
0000
0010
1000
0001
1000
0100
0010
0001
0000
0100
0010
1000
0001
0010
0000
,
0100
0000
0001
0010
1000
0000
0001
0100
1000
0000
0010
0100
0001
0000
1000
0100
,
1000
0000
0001
0100
0001
0000
1000
0010
1000
0000
0001
0010
0001
0000
0100
0010
,
1000
0000
0100
0001
0100
0010
0100
1000
0010
0000
0100
1000
0100
0001
0010
0100
,
1000
0001
0010
0100
0010
0100
1000
0010
0001
0100
0001
1000
0010
0000
0100
0000
,
0110
0000
0000
0000
;

//---------------dance-single - ----------------
#NOTES:
     dance-single:
     :
     Hard:
     18:
     1.209023,1.565685,0.282105,0.218404,1.028320,930.000000,899.000000,31.000000,24.000000,0.000000,0.000000,1.209023,1.565685,0.282105,0.218404,1.028320,930.000000,899.000000,31.000000,24.000000,0.000000,0.000000:
0000
0000
0000
0000
,
0000
0000
0000
0000
,
0000
0000
0000
0000
,
0110
0010
0001
0100
0001
0010
1000
0000
1001
0001
0010
0100
1000
0010
0001
0000
,
0100
0000
0010
0000
1000
0000
0001
0000
1000
0000
0100
0000
0010
0000
0001
0000
0100
0000
0001
0010
0001
0000
1000
0010
1000
0000
0001
0100
0001
0000
1000
0010
,
1000
0100
0001
0100
0010
0100
1000
0000
,
0010
0001
0010
0100
0010
1000
0100
0000
,
0010
0001
1000
0001
0100
0010
1000
0000
,
0100
0000
1000
0001
1000
0000
0001
1000
0001
0000
0100
0000
0010
0000
1000
0000
,
0100
0010
1000
0010
0001
0100
0010
1000
,
0010
0001
0010
0100
0001
0010
1000
0010
,
0001
0000
0100
0000
0010
1000
0010
1000
0010
0000
0100
0000
0001
1000
0001
0000
,
0010
0010
0010
1001
,
0110
0000
0010
0000
1000
0001
1000
0001
1000
0000
0100
0000
0010
0001
0010
0001
,
0010
0000
0100
0000
1000
0001
1000
0001
1000
0000
0010
0000
0200
0000
0000
0000
,
0301
0000
0001
0000
1000
0100
1000
0100
1000
0000
0010
0000
0100
0000
0001
0000
,
0020
0000
0000
0000
0031
0000
0100
0000
1000
0001
1000
0001
1000
0000
0000
0000
,
0010
0000
0010
0000
0010
0000
1000
0100
1000
0000
0001
0000
0100
0000
0010
0000
,
1000
0000
0001
0000
0011
0000
0011
0000
0100
0010
0100
0010
0100
0000
0001
0000
,
0010
0000
0100
0000
1000
0000
0010
0000
0100
0001
0100
0001
0100
0000
1000
0000
,
0100
0010
0100
0010
0100
0010
0100
0010
1000
0001
1000
0001
0100
0000
0000
0000
,
1001
0000
0010
1001
0000
0100
1001
0000
,
1000
0000
0010
0000
0100
0000
1000
0000
0100
0000
0001
0000
0010
0100
0010
0100
,
1000
0000
0010
0100
0001
0000
0010
0100
1000
0000
0001
0000
1010
0000
0001
1000
,
0001
0000
0010
0000
0100
0000
1000
0000
0010
0000
0100
0001
1000
0010
0100
0001
,
2000
0000
0000
0000
3010
0100
0010
1000
0001
0000
0010
0000
0100
0000
0001
0000
,
0200
0000
1300
0001
1000
0010
0201
0000
,
0310
0000
0010
0000
0010
0000
1000
0100
0010
0000
0010
0000
0010
0000
0001
0100
,
0002
0000
0000
0000
1003
0010
1000
0010
1000
0100
1000
0100
0010
0000
0000
0000
,
0011
0000
1100
0000
0010
0100
0001
1000
,
0100
0001
0100
0010
0100
1000
0100
0000
,
1010
0000
0101
0000
1000
0001
0010
0100
,
0001
0100
1000
0010
1000
0001
0100
0000
,
0010
0100
0001
0010
1000
0010
0001
0100
,
1000
0100
0010
1000
0001
0100
0010
1000
,
0100
0000
0010
0000
0001
1000
0001
1000
0001
0000
0100
0000
0010
1000
0010
1000
,
0010
0100
0001
1000
0010
0100
0001
1000
,
0110
0000
1000
0100
0001
0100
1000
0000
0010
0100
0001
0010
0100
0000
1100
0000
,
0101
0000
1000
0100
0001
0100
1000
0000
0010
0100
1000
0100
0001
0010
0100
1000
,
0001
0000
0100
0010
1000
0001
0020
0000
0230
0000
1300
0001
0200
0000
0320
0000
,
1030
0000
0010
0100
0010
1000
0100
0001
0100
0010
0001
1000
0002
0000
0203
0000
,
0310
0000
1000
0100
0001
1000
0010
0001
0100
0000
0001
0010
1000
0001
0100
1000
,
0010
0000
1000
0100
0001
1000
0010
0001
0100
0000
0100
0000
1001
0000
0110
0000
,
0010
1000
0001
1000
0010
0100
0001
1000
0100
0000
0010
1000
0010
0100
0010
0001
,
0100
0000
0000
0000
0001
1000
0001
1000
0001
0000
0010
0000
0100
0000
1000
0000
0010
0000
0001
0000
0010
0000
0100
0000
1000
0000
0100
0000
0001
0000
0010
0000
,
0100
0000
1000
0001
1000
0100
0000
0010
0001
0100
0010
1000
0200
0000
0000
0000
,
1300
0001
0010
0001
0100
0000
0100
1000
0100
0010
1000
0001
0020
0000
1000
0000
,
0031
0000
1100
0000
0011
0000
0100
0010
1000
0000
0001
0100
0000
0010
1000
0100
,
0020
0000
0031
1000
0000
1000
0010
0100
0001
0001
1000
0001
0100
0100
0010
1000
,
0100
0000
0100
0000
1000
0001
0010
0001
1000
0000
1000
0000
0001
0010
0100
0010
,
0001
0000
0001
0000
0010
1000
0010
0100
0010
0000
0010
0000
0001
1000
0001
0100
,
0010
0100
1000
0100
0001
0100
1000
0010
1000
0010
0001
1000
0001
0010
0100
0001
,
2000
0000
0000
0000
0000
0000
0000
0000
3002
0000
0000
0000
0000
0000
0000
0000
1003
0100
1000
0100
0010
0001
0010
0001
1000
0010
1000
0010
0100
0001
0100
0001
,
1000
0010
0100
1000
0100
0010
1000
0001
,
0010
0000
0100
0000
1000
0010
1000
0010
0100
0000
0001
0000
1000
0000
0000
0000
,
0001
0010
1000
0010
0100
0001
0100
1000
,
0010
0100
0010
0100
0001
1000
0001
1000
0100
0000
0000
0000
1020
0000
0000
0000
,
0130
0000
0010
0000
0110
0000
0000
0000
0101
0000
0000
0000
1100
0000
0001
1000
,
0001
0000
0010
0000
0100
0000
1000
0001
1000
0000
0001
0100
0001
0000
0010
0000
,
0100
1000
0001
0010
0001
1000
0010
0100
,
0010
0000
1000
0100
0010
0001
0010
0100
1000
0000
0001
0000
0010
0000
0100
0000
,
1000
0000
0100
0000
0010
0100
0010
0100
0010
0000
0001
0000
1000
0001
1000
0001
,
0010
0000
0100
0000
0001
0000
0100
0000
1000
0001
0010
0001
1000
0000
0000
0000
,
0010
0000
0100
0000
0001
1000
0010
1000
0100
0000
0010
0001
1000
0000
0100
0000
,
0010
0000
0010
0000
0001
1000
0100
1000
0010
0000
0100
0001
1000
0000
0100
0000
,
0010
0000
0010
0000
0001
1000
0001
1000
0100
0000
0100
0000
1000
0001
1000
0001
,
0100
0000
0010
0000
1000
0000
0001
0000
0010
0000
0100
0000
1000
0010
0100
0001
,
1000
0000
0100
0000
0001
0000
0100
0010
1000
0000
0010
0000
0001
0000
0100
0000
,
0020
0000
1030
0001
0010
0100
2000
0000
,
3001
0100
1000
0100
0010
1000
0001
0010
,
1000
0100
0010
1000
0010
0001
0100
0010
,
1000
0000
0100
0010
0100
0000
1000
0010
1000
0000
0001
0100
0001
0010
0100
1000
,
0010
0000
0100
0010
1000
0001
1000
0100
0010
0000
0001
0000
0101
0000
0000
0000
,
1100
0001
1000
0010
0100
1000
0100
0001
,
0010
0000
0100
0000
0010
0000
1000
0000
0010
0000
0001
0000
0100
1000
0100
0001
,
0100
0010
0100
1000
0100
0001
0020
0000
,
0031
0100
1000
0010
0100
1000
0002
0000
,
1003
0000
0101
0000
0011
0010
0001
0100
,
1000
0000
0010
0000
0100
0010
1000
0001
0010
0000
0100
0000
1000
0000
0000
0000
,
0010
0100
0001
0010
1000
0010
0100
1000
,
0010
0000
0100
0000
0001
1000
0010
1000
0001
0000
0100
0000
0020
0000
0000
0000
,
1030
0100
0010
0001
1000
0010
0100
0001
,
0010
0000
0100
0000
1000
0010
0001
0010
1000
0000
0100
0000
0010
0100
1000
0001
,
0100
0000
0010
0000
1000
0100
1000
0001
0010
0000
0001
0000
0100
0010
1000
0001
,
0010
0000
0100
1000
0001
0000
0100
0001
1000
0010
0100
0001
0200
0000
0000
0000
,
0301
0010
1000
0010
0100
1000
0001
0100
,
0010
0000
0001
0000
0010
0000
1000
0000
0100
0000
0010
0000
0001
1000
0001
1000
,
0001
0000
0100
0000
0010
1000
0010
1000
0010
0000
0100
0000
0001
0000
0010
0000
,
1000
0000
0010
0100
0010
0000
0001
1000
0001
0000
0100
0010
1000
0000
0000
0000
,
0001
0000
0010
0000
1000
0000
0100
0000
0010
0000
0001
0000
1000
0010
0100
0010
,
1000
0000
0001
0000
0010
0000
0100
0000
1000
0001
1000
0001
0010
0100
0010
0100
,
0010
0001
1000
0010
0100
1000
0100
0001
,
0010
1000
0010
0100
1000
0001
0100
0001
,
0110
0000
0000
0000
;

//---------------dance-single - ----------------
#NOTES:
     dance-single:
     :
     Medium:
     16:
     0.977619,1.269474,0.409508,0.145603,0.354907,752.000000,707.000000,45.000000,16.000000,0.000000,0.000000,0.977619,1.269474,0.409508,0.145603,0.354907,752.000000,707.000000,45.000000,16.000000,0.000000,0.000000:
0000
0000
0000
0000
,
0000
0000
0000
0000
,
0000
0000
0000
0000
,
0110
0000
0100
0001
0010
0000
0100
0000
1000
0010
1000
0001
0010
0100
1000
0000
,
1001
0000
0100
0010
1000
0001
0010
0000
0100
1000
0010
1000
0001
0010
0100
1000
,
0010
0000
0000
0100
0001
0000
0000
0100
0001
0000
0000
0000
0010
0000
0100
0000
,
1000
0001
1000
0010
0100
0001
0010
0000
,
0100
0001
0100
0010
1000
0001
0100
0000
,
0010
1000
0010
1000
0001
0100
1000
0000
,
0010
0001
0010
1000
0100
0010
0001
0000
,
1000
0010
0001
0010
1000
0100
0010
0000
,
0001
0100
0010
1000
0010
0100
0001
1000
,
0010
0010
0010
1001
,
0110
0010
1000
0001
0010
0100
1000
0001
,
0100
1000
0100
0010
1000
0001
0100
0000
,
0010
0010
1000
0001
1000
0010
0100
0001
,
0010
1000
0010
0100
0010
0001
0010
0000
,
0001
0100
0001
0100
0001
1000
0100
0010
,
0100
0000
1000
1000
1000
0010
0100
0001
,
0001
0010
0100
1000
0010
0100
1000
0100
,
0001
0010
0100
1000
0010
0100
0110
0000
,
0002
0000
1003
0002
0000
1003
0002
0000
,
0013
0000
0001
0000
0100
0000
0010
0000
2000
0000
0000
0000
3100
0010
0100
0010
,
0100
0000
0000
1000
0001
0000
0000
1000
0001
0000
0010
0000
0100
0000
1000
0000
,
0010
0100
1000
0100
0010
1000
0001
0010
,
0110
0000
1000
0010
1000
0001
0100
0010
,
1000
0000
1000
0100
0001
0100
0020
0000
,
0031
0100
1000
0100
0010
1000
0001
0010
,
1000
0010
0100
0010
0001
0100
2000
0000
,
3010
0000
1010
0000
0001
0100
0000
0100
,
1000
0000
1000
0010
0000
0010
0001
0000
,
0100
0000
0101
0000
1000
0010
0000
0010
,
0001
0000
0001
0100
0000
0100
1000
0000
,
1001
0000
1000
0010
0100
0001
0010
0100
,
1000
0000
0010
0100
0001
1000
0100
0000
,
0010
0100
0010
0100
1000
0001
1000
0001
,
0100
0100
0100
0110
,
1001
0000
1000
0010
0100
0010
1000
0000
0001
0000
0010
0100
1000
0000
1010
0000
,
0011
0000
0100
0010
0100
0000
1001
0000
1000
0001
0100
0001
1000
0000
0010
0100
,
0010
0000
1000
0100
1000
0000
1100
0000
0001
0000
0100
0010
0100
0000
0001
0000
,
0011
0000
0000
1000
0100
1000
0010
0100
0000
0100
0001
1000
0002
0000
0023
0000
,
0130
0000
1000
0010
1000
0010
0000
0100
0001
0000
0010
0001
0010
0001
0000
1000
,
0100
0000
0010
1000
0010
0100
0010
0001
0010
0000
0010
0000
0110
0000
0110
0000
,
1001
0000
0100
1000
0100
0010
1000
0001
0010
0000
0100
0001
0100
1000
0010
0100
,
0001
0000
0010
0100
1000
0001
1000
0010
0100
0000
0010
0000
1001
0000
1010
0000
,
1100
0000
1000
0001
1000
0000
0000
0000
0010
0100
0010
0100
0020
0000
0000
0000
,
1030
0100
1000
0100
1000
0000
0001
0000
0100
0000
0010
1000
0010
0000
0100
0000
,
0001
0000
0101
0000
1100
0000
0010
0100
0010
0000
1000
0001
1000
0000
0100
0000
,
0010
0000
0001
1000
0000
1000
0010
0000
0100
1000
0100
0001
0100
1000
0100
0010
,
1000
0000
1010
0000
0001
0100
0001
0010
0100
0000
0110
0000
0010
0001
1000
0001
,
0100
0000
0101
0000
0001
0010
0100
1000
0010
0000
1001
0000
0100
0010
1000
0001
,
0200
0000
0320
0000
0230
0000
0320
0000
1030
0001
1000
0001
0100
0010
1000
0001
,
0200
0000
0000
0000
0320
0000
0000
0000
1030
0001
1000
0001
0010
0100
0010
0100
,
1000
0011
0101
1001
,
0010
1000
0100
0010
0001
0100
1000
0000
,
0001
1100
0110
0011
,
1000
0001
1000
0010
0100
0000
1020
0000
,
0130
0001
0010
0100
1000
0000
0011
0000
,
1000
0001
0100
1000
0100
0010
1000
0001
,
0010
0001
1000
0001
0010
0100
1000
0010
,
0100
1000
0100
0010
1000
0001
0100
0010
,
1000
1000
0100
0010
0001
0001
0010
0100
,
1000
0001
1000
0001
0100
0010
0110
0000
,
1000
0010
1000
0010
1000
0100
0010
0001
,
0100
1000
0100
0001
0010
0100
1000
0000
,
0001
0010
0100
0001
0100
0010
0100
0000
,
1000
0010
1000
0001
1000
0100
0010
0000
,
0001
1000
0001
1000
0100
0010
0100
0010
,
0001
1001
0110
1001
,
0010
1000
0010
1000
0100
0001
0100
0001
,
0100
1000
0010
0100
0010
1000
0001
0000
,
0010
0001
1000
0001
0010
0100
1000
0010
,
1000
0001
1000
0100
1000
0010
0100
0000
,
0001
0000
0011
0000
0001
0010
0100
1000
,
0010
1000
0001
1000
0010
0100
0001
0000
,
0010
0010
0100
0100
1000
0001
1000
0001
,
1000
0010
0001
0010
1000
0100
0010
0000
,
0110
0000
1100
0000
0010
1000
0001
0100
,
1000
0100
0001
0010
0100
1000
0001
0000
,
0010
0001
0010
0001
1000
0010
1000
0001
,
0010
1000
0010
0100
1000
0001
0100
0000
,
0001
0010
0100
1000
0001
0010
0100
1000
,
0001
0010
0100
1000
0100
0010
0001
0000
,
0100
0001
0010
1000
0010
0100
0010
0001
,
0100
1000
0100
0001
1000
0100
0010
0000
,
0001
0010
1000
0100
0010
0001
0100
0010
,
1000
0001
1000
0100
0010
1000
0001
0000
,
0100
0000
1001
0001
1000
0001
0100
0000
,
0010
0001
0010
0001
1000
0100
1000
0100
,
0001
0010
1000
0010
0001
0100
0010
0000
,
1000
0001
1000
0100
0001
0100
0010
0000
,
0001
1000
0100
0010
1000
0100
0001
0010
,
0100
0001
0010
1000
0010
1000
0100
0001
,
0110
0000
0000
0000
;

//---------------dance-single - ----------------
#NOTES:
     dance-single:
     :
     Easy:
     13:
     0.737114,0.930948,0.655213,0.200204,0.018200,567.000000,495.000000,72.000000,22.000000,0.000000,0.000000,0.737114,0.930948,0.655213,0.200204,0.018200,567.000000,495.000000,72.000000,22.000000,0.000000,0.000000:
0000
0000
0000
0000
,
0000
0000
0000
0000
,
0000
0000
0000
0000
,
0110
0010
0100
0001
0010
0100
1000
0001
,
1000
0010
0100
0001
0010
0100
1000
0001
,
0100
0010
1000
0001
,
0010
0100
1000
0010
,
1000
0001
0100
0010
,
1000
0100
0010
0001
,
0100
0010
0100
0010
0100
0000
0001
0000
,
1000
0100
1000
0100
1000
0000
0001
0000
,
0010
0001
0100
1000
,
0010
0010
0010
1001
,
0001
0100
0010
1000
,
0100
0010
0001
0100
,
1000
0010
1000
0001
,
0100
0000
0001
1000
0001
0000
0110
0000
,
1000
0010
1000
0000
0001
0000
0100
0000
,
1000
0000
0010
0100
0010
0000
1000
0001
,
0100
0010
1000
0001
,
0100
0100
0100
1001
,
1100
0000
0000
0110
0000
0000
0011
0000
,
1000
0010
1000
0001
,
0010
0100
0010
0001
,
0100
1000
0010
0001
,
0100
0001
0010
0100
,
1000
0000
0011
0000
1000
0001
1000
0000
,
0010
0000
0100
0001
1000
0000
0100
0010
,
0001
0000
0100
0010
1000
0000
0001
0000
,
1100
0000
0011
0000
1000
0001
0000
1000
,
0001
0000
1000
0001
0000
1000
0001
0000
,
1010
0000
0101
0000
0100
0010
0000
0100
,
0010
0000
0100
0010
0000
0100
0010
0000
,
0110
0000
0001
0010
1000
0010
0001
0000
,
1001
0000
1000
0100
0001
0100
1000
0000
,
0010
0000
0100
0010
0100
0000
0001
1000
,
0001
0011
1100
0101
,
1010
0010
1000
0001
1000
0100
0010
0001
,
0100
1000
0100
0010
1000
0001
0200
0000
,
0310
1000
0001
1000
0100
0001
0200
0320
,
0031
0100
0010
1000
0100
0010
0001
1000
,
1001
0010
0100
0001
0110
0100
0010
1000
,
1001
0010
0100
0001
0010
0100
1000
0110
,
0001
0100
1000
0010
1000
0001
0100
0010
,
1000
0100
0010
0001
0100
0010
2000
0000
,
3010
1000
1100
0000
0001
0100
0020
0000
,
1030
0001
1001
0110
1001
0100
0020
0000
,
1030
1010
0101
0001
0010
0100
1000
0000
,
0110
0001
0100
0010
0110
1000
0100
0010
,
0011
0011
0100
0000
1010
1010
0100
0000
,
1100
1100
0010
0000
0101
0101
0010
0000
,
0200
2300
3002
0023
0230
2300
3002
0023
,
0230
0000
0000
0000
0320
0000
0000
0000
0031
1000
0001
1000
0001
1000
0001
1000
,
0001
1001
1001
1000
,
0010
0100
0010
0100
0000
0001
1000
0000
,
0110
0110
0110
0110
,
0001
0100
0010
0100
0001
0000
2000
0000
,
3010
0100
0010
0000
1010
0000
1010
0000
,
0001
1000
0001
0000
0001
0000
0001
1000
,
0001
0000
0010
0100
0010
0000
0001
1000
,
0100
0000
1000
0010
0100
0000
0002
0000
,
0013
1100
0010
0101
,
0010
0000
1000
0001
0100
0000
0100
0000
,
0001
0010
0001
0010
0001
0000
1000
0000
,
0100
0001
0100
0001
0100
0000
0010
0000
,
0001
1000
0001
0000
1000
0100
1000
0000
,
0110
0000
0110
0000
1000
0001
1000
0000
,
0001
0010
0001
0010
0001
0010
0001
0010
,
0100
0100
0100
1100
,
1001
0010
1000
0001
,
0010
0000
0100
0000
1000
0001
1000
0000
,
0010
0000
0100
0000
0001
0010
0001
1000
,
0010
0000
0100
0010
1000
0010
0100
0000
,
0011
0011
0011
0011
,
1100
0000
1100
0000
1000
0001
0100
0000
,
0010
1000
0010
1000
0010
0000
0200
0000
,
0301
0010
0001
0010
0001
0000
0200
0000
,
0310
0000
0010
0000
1000
0001
1000
0001
,
1000
0000
0101
0000
0001
0100
0001
0100
,
0001
1001
1010
1100
,
1000
0001
1000
0001
1000
0010
0100
0000
,
0001
0100
0010
1000
,
0001
0000
0010
0100
1000
0001
0100
0000
,
0010
1000
0020
0000
0130
0001
0200
0000
,
0301
0100
1000
0100
0001
0000
0010
0000
,
1100
0101
1100
0010
,
0011
1010
0011
0100
,
1001
0000
0001
1000
0001
0000
0100
0000
,
0110
0010
1000
0001
,
1000
0100
0010
0001
,
0100
0010
1000
0001
,
0010
0001
0010
0001
0010
0001
0010
0000
,
0100
0100
0100
1001
,
0110
0000
0000
0000
;

//---------------dance-single - ----------------
#NOTES:
     dance-single:
     :
     Beginner:
     9:
     0.504410,0.719369,0.373107,0.036401,0.000000,388.000000,347.000000,41.000000,4.000000,0.000000,0.000000,0.504410,0.719369,0.373107,0.036401,0.000000,388.000000,347.000000,41.000000,4.000000,0.000000,0.000000:
// measure 0
0000
0000
0000
0000
,  // measure 1
0000
0000
0000
0000
,  // measure 2
0000
0000
0000
0000
,  // measure 3
0110
0001
0100
1000
,  // measure 4
0010
0000
0100
0000
1000
0001
0100
0010
,  // measure 5
1000
0100
1000
0000
,  // measure 6
0001
0100
0001
0000
,  // measure 7
1000
0010
1000
0000
,  // measure 8
0001
0010
0001
0000
,  // measure 9
1100
0000
0101
0000
,  // measure 10
1010
0000
0011
0000
,  // measure 11
1001
0000
0110
0000
,  // measure 12
0010
0010
0010
1001
,  // measure 13
1000
0010
0100
0000
,  // measure 14
0001
0010
0001
1000
,  // measure 15
0010
0100
0001
1000
,  // measure 16
0100
0010
0100
0110
,  // measure 17
1001
0000
0001
1000
,  // measure 18
0010
1000
0100
0010
,  // measure 19
0001
0001
1000
0001
,  // measure 20
0100
0010
0100
0010
,  // measure 21
1000
0000
0000
1000
0000
0000
1000
0000
,  // measure 22
0001
0001
1000
0100
,  // measure 23
0010
0001
0010
0100
,  // measure 24
1000
0010
1000
0001
,  // measure 25
0100
0000
0010
1000
,  // measure 26
0100
0010
0001
1000
,  // measure 27
0001
0100
0010
1000
,  // measure 28
0100
0010
0100
1000
,  // measure 29
1001
0000
0100
0000
,  // measure 30
0010
0000
1000
0000
,  // measure 31
1001
0000
0010
0000
,  // measure 32
0100
0000
0001
0000
,  // measure 33
1000
0100
1000
0100
,  // measure 34
0010
0001
0010
0001
,  // measure 35
0100
0110
0100
0110
,  // measure 36
1000
0001
1000
0100
,  // measure 37
1001
0000
0010
0100
0000
1000
0001
0100
,  // measure 38
0010
0000
1000
0001
0000
1000
0100
0000
,  // measure 39
0110
0000
0001
1000
0001
0000
0100
0100
,  // measure 40
0100
0000
0001
1000
0001
0100
0010
0010
,  // measure 41
0010
0000
1000
0001
1000
0000
0100
0010
,  // measure 42
0001
0000
0100
0010
1000
0001
0100
0000
,  // measure 43
0101
0001
1100
1000
,  // measure 44
0010
1000
0010
0100
0001
0010
1000
0000
,  // measure 45
1001
0001
0100
1000
,  // measure 46
0010
0100
0001
1000
,  // measure 47
1100
0001
0010
0001
,  // measure 48
0110
0100
0110
0010
,  // measure 49
2000
3001
0002
0103
,  // measure 50
0200
0310
0020
1030
,  // measure 51
1100
0101
0011
1010
,  // measure 52
1001
0000
0110
0000
1000
0100
0010
0001
,  // measure 53
0100
0100
0100
0000
,  // measure 54
0010
0010
1000
0001
,  // measure 55
0100
0010
1000
0001
,  // measure 56
0010
0010
0010
0100
,  // measure 57
1000
0001
1000
0000
,  // measure 58
0010
0100
0001
1000
,  // measure 59
0100
0010
0100
0010
,  // measure 60
0001
0011
1000
1010
,  // measure 61
0100
0010
0100
0010
,  // measure 62
1000
0001
1000
0000
,  // measure 63
0001
0010
0100
1000
,  // measure 64
0010
0100
0010
1000
,  // measure 65
0100
0010
0001
0100
,  // measure 66
0001
1000
0001
0100
,  // measure 67
0010
0010
1000
0001
,  // measure 68
1001
0100
0100
0110
,  // measure 69
1001
0010
1000
0001
,  // measure 70
1000
0100
0010
0001
,  // measure 71
0100
0010
0100
0001
,  // measure 72
0010
0100
1000
1100
,  // measure 73
0001
0100
0001
1000
,  // measure 74
0001
0010
0001
0100
,  // measure 75
1000
0010
1000
1010
,  // measure 76
0001
0010
0001
0011
,  // measure 77
0110
0000
0100
0010
,  // measure 78
0001
0100
0001
1000
,  // measure 79
0010
0010
0010
0000
,  // measure 80
1000
0001
1000
0100
,  // measure 81
0010
0010
0010
0010
,  // measure 82
0001
0001
0001
0001
,  // measure 83
0100
0010
1000
0001
,  // measure 84
0100
0100
0100
0010
,  // measure 85
0101
1000
0001
0000
,  // measure 86
1010
0001
1000
0000
,  // measure 87
1001
0000
0010
1000
,  // measure 88
0001
0100
1000
0000
,  // measure 89
0010
0010
0010
0000
,  // measure 90
1000
1000
1000
0000
,  // measure 91
0001
0100
0001
0100
,  // measure 92
0010
1000
0100
0100
,  // measure 93
0110
0000
0000
0000
;
