#VERSION:0.83;
#TITLE:splitstream;
#SUBTITLE:;
#ARTIST:Karl with a K;
#TITLETRANSLIT:;
#SUBTITLETRANSLIT:;
#ARTISTTRANSLIT:;
#GENRE:;
#CREDIT:;
#MUSIC:splitstream ~Type_T~.ogg;
#BANNER:splitstream-bn.png;
#BACKGROUND:splitstream-bg.png;
#CDTITLE:;
#SAMPLESTART:99.199;
#SAMPLELENGTH:15.000;
#SELECTABLE:YES;
#OFFSET:1.389;
#BPMS:0.000=170.000;
#STOPS:;
#SPEEDS:0.000=1.000=0.000=0;
#SCROLLS:0.000=1.000;
#TIMESIGNATURES:0.000=4=4,
188.000=7=4,
286.000=4=4
;
#BGCHANGES:;
#FGCHANGES:;

//--------------- dance-single - [Type_T] ----------------
#NOTEDATA:;
#STEPSTYPE:dance-single;
#DESCRIPTION:[Type_T];
#DIFFICULTY:Beginner;
#METER:10;
#RADARVALUES:0,0,0,0,0;
#CREDIT:Talkion;
#NOTES:
0000
0000
0000
0000
,
0000
0000
0000
0000
,
0000
0000
0000
0000
,
0000
0000
0000
0000
,
0000
0000
0000
0000
,
2001
0000
3100
0010
,
0002
0000
0103
0010
,
2000
0000
0000
0000
,
3200
0000
0320
0000
,
0032
0000
0000
0103
,
0020
0000
0000
0000
0000
1030
0000
0010
,
0200
0000
0000
0000
,
0302
0000
2003
0000
,
3000
0000
0000
0000
,
0000
0000
0000
0000
,
0001
0001
0010
0010
,
0100
0100
1000
1000
,
0001
0001
0100
0100
,
0010
0010
1000
1000
,
0001
0010
0001
1000
,
0001
0100
0010
1000
,
0001
1000
0100
1000
,
0001
0100
0010
1000
,
0001
0010
0100
0010
,
0001
2000
0000
3001
0100
0000
0010
0000
,
1000
1000
0000
0001
0010
0000
0100
0000
,
1000
0001
0010
0001
,
1000
0010
1000
0010
0100
0000
0001
0000
,
0010
0010
0010
0001
,
0100
0000
0010
0100
0000
0100
0010
0000
,
1000
0000
1000
0000
0001
0000
0001
0010
,
0200
0000
1000
0000
0000
0000
1300
0002
,
0000
0100
0000
0203
,
0000
0000
0010
0000
0000
0000
0310
2000
,
0000
0001
0000
3002
,
0023
0000
0100
0000
0000
0000
0130
2000
,
0000
0001
0000
3002
,
0000
0000
0100
0000
0000
0203
0010
0000
,
0301
0001
1000
1000
,
0200
0000
0302
0000
0103
0010
0001
0000
,
1000
0010
0200
0000
2300
0000
3100
0000
,
0001
0000
0001
0000
0001
0010
0100
0000
,
1000
1000
0020
0032
,
0013
0010
0100
0000
0010
0010
0100
0000
,
2001
0000
3100
0000
0010
0100
0010
0100
,
1000
0001
0100
0100
,
0001
1000
0100
1000
0001
0100
0001
0000
,
1001
0000
1100
0000
0011
0000
0000
1001
,
0000
1100
0000
0011
0000
0000
1001
0000
,
0101
0000
1010
0000
0000
1001
0000
0101
,
0000
1010
0000
0000
1001
0000
0011
0000
,
1100
0000
0000
1001
0000
0011
0000
1100
,
0000
1001
1010
0101
,
0000
1001
0000
1010
0000
0101
0000
0000
,
1001
0000
0110
0000
1001
0000
1000
0100
,
0000
0110
0000
1001
0000
0000
1001
0000
,
0110
0000
1001
0000
0001
0100
0000
0110
,
0000
1001
0000
0000
1010
0000
0011
0000
,
1010
0000
1000
0010
0000
0011
0000
1010
,
0000
0101
1100
0101
,
0001
0100
0000
1100
0000
0101
0000
0000
,
0002
0000
0000
0000
0000
0000
0000
2003
,
0000
0000
0000
0000
0000
0000
0000
3200
,
0000
0000
0000
0320
,
0000
0000
0032
0000
,
0000
0000
0000
2003
0000
0000
0000
0000
,
0000
0000
0000
3020
0000
0000
0000
0000
,
0000
0230
0000
0000
0000
0000
0000
0000
,
0301
1000
0100
0010
,
0001
0000
0010
0000
0100
0000
1000
0001
,
1000
0001
1000
0001
1000
0010
0000
0010
,
0000
0010
0000
0100
0002
0000
1003
0000
,
0001
0010
0100
0002
0000
0000
0003
0101
,
0000
0110
0000
2100
0000
0000
3000
0001
,
0000
0100
0010
2000
0000
0000
3000
1001
,
0000
0011
0000
0000
2100
0000
3001
0000
,
1000
0010
0100
2000
0000
0000
3000
1100
,
0000
0100
0010
2000
0000
0000
3000
0002
,
0000
0003
0020
0000
0030
0200
0000
0300
,
1100
1001
0201
0310
,
1000
0010
0100
0000
0001
0100
0010
0000
,
1000
0001
1000
0000
1200
0000
0310
0000
,
0001
0010
0100
0000
1000
0001
0000
1000
,
0001
0100
0010
0010
,
1000
1000
0001
0001
,
0010
0000
0010
0000
0100
1000
0100
1000
,
0100
1000
0100
1000
0002
0000
0203
0000
,
0320
2030
3002
0000
,
0013
0100
2100
0000
,
3010
0100
0102
0000
,
1000
0000
0023
0000
,
0230
0000
0000
0000
1300
0000
0001
0010
,
0000
0010
1000
0000
1010
0000
1000
0010
,
0000
0010
0001
0000
1000
0010
1000
0010
,
1000
0010
1000
0010
0002
0000
0000
0000
,
2003
0000
3000
0000
,
0000
0000
0200
0000
,
0000
0000
0000
0000
,
0000
0000
0000
0300
1001
0000
0000
0000
;

//--------------- dance-single - [Type_T] ----------------
#NOTEDATA:;
#STEPSTYPE:dance-single;
#DESCRIPTION:[Type_T];
#DIFFICULTY:Easy;
#METER:14;
#RADARVALUES:0,0,0,0,0;
#CREDIT:Talkion;
#NOTES:
0000
0000
0000
0000
,
0000
0000
0000
0000
,
0000
0000
0000
0000
,
0000
0000
0000
0000
,
0000
0000
0000
0000
,
2001
0000
3100
0010
,
0012
0000
1003
0010
,
0120
0000
1030
0000
,
2001
0000
3200
0000
,
0320
0000
0000
0000
0000
0000
0031
0000
1000
0000
1000
0000
,
0201
0000
0000
0000
0310
2000
0000
3001
,
0020
0000
0130
0000
,
1200
0000
0310
0001
0200
0000
0320
0000
,
0030
0000
0000
0000
,
0000
0000
0000
0000
,
1000
0001
0100
0010
,
1000
0001
0010
0100
,
1000
0001
0100
0010
,
1000
0001
0010
0100
,
1000
0010
0100
0010
,
1000
0100
0010
0001
,
0100
0010
0100
0001
,
0010
0100
1000
0001
,
0100
0010
1000
0010
0100
0001
1000
0001
,
0010
1000
0000
1000
0010
0001
1000
0010
,
0001
0000
0002
0000
0000
0000
0013
0100
0010
0000
1000
0000
0001
0000
0010
0000
,
0100
0001
1000
0010
0100
1000
0001
0000
,
0100
0000
0000
0100
0010
0000
0000
0010
1000
0000
0001
0000
0020
0000
0000
0100
,
0000
0001
0000
0031
0000
0000
1000
0000
0010
0000
0100
0000
0010
0000
1000
0000
,
0100
0010
0100
0001
0000
0001
0100
0010
,
0001
0001
0000
1001
1000
0010
0200
0000
,
0302
0100
1000
0000
1003
0001
0010
0200
,
0000
0010
1000
0000
1300
0001
0200
0010
,
0000
0010
0301
0000
1000
0001
0020
0100
,
0000
0100
0031
0000
1000
0010
0200
0000
,
0320
0001
0100
0000
0130
0001
0010
0200
,
0000
0010
0001
0000
0301
0100
2000
0001
,
0000
0001
3010
0000
1000
0020
0100
0000
,
2030
0010
0001
0000
3002
0010
1000
0000
,
0203
0000
0000
0000
0320
0000
0000
0000
1030
0001
1000
0000
0100
0000
0010
0000
,
0001
1000
0001
0000
0100
0000
0020
0000
0001
0000
0000
0000
0130
0000
0000
0000
,
0001
0100
0000
0000
0100
0010
0000
0000
0001
0000
0010
0000
1000
0000
0000
0000
,
0001
0010
0000
0000
0010
0100
0000
0000
0201
0000
0000
0000
2300
0000
0000
0000
,
3001
0000
0001
0000
0100
0000
0010
0000
1000
0000
1000
0001
0010
0000
0001
0000
,
1000
0010
1000
0010
0100
0000
0000
0000
0001
0010
0000
0010
0000
0000
0100
0000
,
0002
0000
0003
0100
0010
0000
0001
0000
1000
0100
1000
0000
0001
0100
0001
0000
,
1000
0100
0010
0000
0001
0000
0010
0100
1000
0000
0001
0000
0100
0010
1000
0000
,
2001
0000
0010
0000
3001
0010
0010
0100
,
0000
0000
1100
0000
0000
0000
0011
0000
0000
0000
0001
1000
0002
0000
0000
0000
,
0010
0000
1003
0010
0010
0100
0000
0101
,
0000
0000
1010
0000
0000
0000
1000
0001
2000
0000
0000
0000
0100
0000
0000
0000
,
3001
0100
0100
0010
0000
1010
0000
0101
,
0000
0000
0001
1000
0002
0000
0000
0000
0100
0000
0000
0000
1003
0000
0100
0000
,
0100
0000
0010
0000
0000
0000
0011
0000
0000
0000
1100
0000
0000
0000
0100
0010
,
0200
0000
0000
0000
0001
0000
0000
0000
1300
0000
0000
0000
0001
0100
0010
0000
,
0000
0011
0000
1010
0000
0000
0201
0000
,
1000
0000
0000
0000
0301
0000
0000
0000
1000
0100
0010
0000
0000
0000
1010
0000
,
0000
0011
0000
0000
1200
0310
1000
0010
,
0100
0000
1000
0000
0001
0100
0010
0000
0001
0000
0010
0000
0100
0000
0001
0000
,
0000
0000
0201
0310
0001
0010
0100
0001
,
1000
0100
0010
0000
1000
0000
0010
0000
0200
0000
1000
0000
0000
0000
0000
0000
,
0320
0000
0032
0000
1003
0010
0100
0002
,
0000
0000
0000
0203
0000
0320
0000
2030
,
0000
0000
3002
0000
0013
0100
2000
0000
,
3002
0000
0103
0010
0200
0000
0302
0000
,
1003
0100
0010
0002
0000
0000
0000
2003
,
0000
3020
0000
0230
0000
0320
0000
2030
,
0000
3002
0000
0000
0000
0013
0100
1000
,
0001
0100
0010
1000
0001
1000
0100
0010
,
1000
0010
0100
1000
0001
0100
0010
0010
,
1000
1000
0001
0001
0010
1001
0000
0110
,
0000
0000
1001
0000
1000
0100
0010
0100
2000
0000
0000
0000
3001
0000
0100
0000
,
0010
0100
1000
0002
0000
0013
0000
2010
,
0000
3001
0000
0012
0000
1003
0010
0200
,
0000
1300
0100
0020
0000
1030
0100
0020
,
0000
0000
0031
1000
0001
0000
0100
0000
0020
0000
0000
0000
1030
0000
0001
0000
,
0010
0100
0001
2000
0000
3010
0000
0012
,
0000
1003
0010
0200
1000
0300
0200
0010
,
0300
0200
0001
0300
2000
0100
3000
1000
,
0001
0010
0000
0000
0001
0010
0000
0000
2100
0000
0000
0000
3001
0000
1000
0000
,
0010
0100
0010
0001
0010
0100
0010
1000
,
0001
1000
0100
0010
2000
0000
3010
0100
,
1000
0000
0001
0100
0010
0001
0010
0100
,
0001
0010
0100
0010
0001
0000
1001
0001
,
0100
0010
0100
1000
0100
0010
0100
0001
,
1000
0001
0010
0100
1000
1000
0001
0001
,
0100
0100
0010
0010
1000
0001
0010
0100
,
1000
0000
0000
0001
0000
0000
1000
0000
0000
0001
0000
0000
0100
0000
0000
0000
0000
0000
0000
0000
0000
0000
0000
0000
2001
0000
0000
0000
0000
0000
0000
0000
0000
0000
0000
0000
0000
0000
0000
0000
3100
0000
0000
0000
0010
0000
0000
0000
,
0001
0000
1000
0000
1000
0000
0201
0000
0000
0320
0000
0000
,
1030
0000
0000
0001
0000
0000
0010
0000
0100
0000
1000
0000
0001
0000
1000
0000
0010
0000
0100
0000
0010
0000
1000
0000
,
0001
0000
1000
0000
0100
0000
0010
0000
0100
0000
1000
0000
0002
0000
0000
0000
0000
0000
0103
0000
0000
2000
0000
0000
,
0000
0000
3100
0000
0001
1000
0001
1000
0200
0000
0000
0000
0310
0000
2001
0000
,
0000
0000
3010
0000
1000
0001
1000
0001
0200
0000
0000
0000
0310
0000
1002
0000
,
0000
0000
0013
0000
0001
1000
0001
1000
0100
0000
0010
0000
0010
0000
0010
0000
,
0010
0000
0010
0000
0001
1000
0001
1000
0020
0000
0032
0000
2003
0000
3200
0000
,
0302
0023
2030
3001
0000
0000
0000
0000
,
0000
0000
0200
0000
,
0000
0000
0000
0000
,
0000
0000
0000
0300
1001
0000
0000
0000
;

//--------------- dance-single - [Type_M] XO+ RH- SJ- ----------------
#NOTEDATA:;
#STEPSTYPE:dance-single;
#DESCRIPTION:[Type_M] XO+ RH- SJ-;
#DIFFICULTY:Medium;
#METER:17;
#RADARVALUES:0,0,0,0,0;
#CREDIT:Talkion;
#MUSIC:splitstream ~Type_M~.ogg;
#NOTES:
0000
0000
0000
0000
,
0000
0000
0000
0000
,
0000
0000
0000
0000
,
0000
0000
0000
0000
,
0000
0000
0000
0000
,
2001
0000
3100
0010
,
0012
0000
1003
0010
,
0120
0000
1030
0000
,
2001
0000
0000
0000
0000
0000
3100
0010
0001
1000
0001
0100
,
0020
0000
0000
0000
1030
0001
0010
0000
0100
0000
0100
0000
,
2001
0000
0000
0000
0000
0000
0010
0000
0000
0000
0000
0000
3001
0000
0000
0100
0000
0000
0010
0000
1000
0000
0010
0000
,
0100
0001
1000
0001
0010
0100
2000
0000
0000
3001
0000
0000
,
1020
0000
0000
0000
0130
0000
0001
0000
0020
0000
0000
0000
0031
1000
0001
1000
,
0200
0000
0000
0000
,
0310
0000
0000
0000
0010
0000
0000
0000
0001
1000
0100
1000
0020
0030
0100
0000
,
0001
1000
0010
1000
0001
1000
0010
1000
0002
0003
0000
0000
0010
0100
1000
0100
,
0010
0100
1000
0100
0010
0100
1000
0000
0020
0030
0100
0001
1000
0001
0100
0001
,
1000
0001
0100
0001
1000
0000
0000
0000
0200
0300
0010
0001
1000
0001
0010
0001
,
1000
0001
0010
0000
0000
0000
0010
0001
0200
0300
0001
1000
0010
1000
0001
1000
,
0010
0000
0000
0000
1000
0001
0100
0001
0020
0030
0100
0010
0001
0010
0100
0000
,
0000
0000
0100
1000
0001
1000
0100
1000
0002
0003
0100
0010
1000
0000
0000
0000
,
1000
0001
0010
0001
1000
0001
0010
0001
2000
3000
0100
0000
0000
0000
0100
0010
,
0001
0010
0100
0010
0001
0010
0100
0010
0002
0003
0000
0000
2002
0000
3003
0000
,
0201
0000
0310
0000
0201
0000
0310
0000
1000
0001
1000
0100
0020
0000
1000
0000
,
0000
0100
0000
0032
0000
1003
1020
0130
,
1020
0000
0130
0000
0001
1000
0001
0010
0200
0000
0001
0000
0000
0000
0010
0000
,
0000
2300
0000
3001
1002
0013
1002
0013
,
0001
1000
0010
0100
0020
0000
0001
0000
0000
0000
0100
0000
0000
0000
2030
0000
,
0000
0000
3001
0000
2001
0000
3100
0000
2001
0000
3100
0000
1000
0001
0100
0010
,
0200
1000
0000
0010
0000
0302
0000
1003
,
0200
0000
0310
0000
0200
0000
0310
0000
0001
0010
0100
1000
0001
1000
0010
0100
,
2000
0000
3100
0000
0100
0010
1000
0002
,
0000
0013
0100
0000
0100
0010
0001
0000
,
1000
0001
0010
0001
1000
0010
0100
1000
0100
0010
1000
0001
0010
0100
1000
0001
,
1000
0010
0100
0010
1000
0001
1000
0100
0010
2000
0000
0000
3010
0100
1000
0100
,
0020
0000
0000
0000
0031
0000
1000
0010
0200
0000
0000
0000
0310
1000
0200
0000
,
0000
0000
1300
0010
0200
0000
0000
0000
0310
0000
0001
0000
2000
0000
0000
0000
,
3001
0010
0100
0000
0100
0010
1000
0002
,
0000
0000
0013
0000
0100
0000
0000
0000
1000
0001
0000
0000
0100
0010
0000
0000
,
1002
0000
0000
0000
0013
0000
0000
0010
0100
0000
0000
0100
1000
0000
0002
0000
,
0000
0000
0103
0010
0100
0000
0002
0000
0000
0000
0013
0100
2000
0000
0000
0000
,
3100
0000
0000
0100
0010
0000
0000
0010
0001
0000
2000
0000
0000
0000
3020
0000
,
0000
0000
0032
0000
0000
0000
0013
0100
0020
0000
0000
0000
1030
0001
0020
0000
,
0000
0000
0031
1000
0020
0000
0000
0000
0130
0000
0000
0100
0001
0000
0000
0001
,
1000
0000
0100
0010
0002
0000
0000
0000
1003
0000
0000
0001
0100
0010
1000
0001
,
1000
0001
1000
0001
0010
0100
0010
0001
1000
0001
0100
0010
0100
0001
1000
0001
,
0010
0100
1000
0001
1000
0010
0100
0001
1000
0001
0010
0100
1000
0001
0100
0010
,
0002
0000
0000
0000
,
0000
0000
2003
0000
0000
0000
3100
0010
1000
0001
0010
0100
0001
0100
0010
0001
,
0100
0010
0001
0010
0100
0001
0010
0100
0010
0001
0100
0010
0100
0001
0010
0001
,
0100
0010
0100
0001
0010
0001
0100
0010
2000
0000
3001
0010
0001
1000
0010
0100
,
0010
1000
0100
1000
0010
0100
0002
0000
1003
0100
1000
0001
0010
0100
0010
0001
,
0100
0010
0100
0001
0010
0001
1000
0010
0000
0010
0100
0000
0010
1000
0001
1000
,
0100
0010
0001
1000
0100
1000
0001
0100
0010
0100
0001
1000
0100
1000
0001
0010
,
0200
0000
0001
0000
1000
0000
0001
0001
,
0000
0000
0010
0000
0000
0000
1300
0000
0000
0000
0000
0000
1001
0000
0001
0100
,
0010
0000
1000
0100
0010
0000
0001
0100
0010
0100
0001
0000
0000
0000
0011
0000
,
0000
0000
1100
0000
0000
0000
0000
0000
1001
0000
1000
0100
0010
0000
0001
0100
,
0010
0000
1000
0100
0010
0100
1000
0000
0000
0000
1010
0000
0000
0000
0101
0000
,
0000
0000
0000
0000
1001
0000
0001
0100
0010
0000
1000
0100
0010
0000
0001
0100
,
0010
0100
0001
0000
0000
0000
0011
0000
0000
0000
1200
0000
0000
0000
0000
0000
,
0320
0000
0032
0000
1003
0010
0100
0002
,
0000
0000
0000
0203
0000
0320
0000
2030
,
0000
0000
3002
0000
0013
0100
2000
0000
,
3010
0100
0001
0100
0020
0000
2030
0000
,
3001
0010
0100
2000
0000
0000
0000
3002
,
0000
0103
0010
2000
0000
3010
0100
0002
,
0000
2003
0000
0000
0000
3100
0010
0001
,
1000
0010
0100
0001
1000
0001
0010
0100
,
0001
0100
0010
0001
1000
0010
0100
0100
,
0001
0000
0001
0000
1000
0000
1000
0000
0100
0000
1001
0000
1000
0010
0100
0000
,
0001
0010
0100
1000
0001
1000
0010
0100
0002
0000
0000
0000
1003
0000
0001
0010
,
0100
0000
1000
0100
0010
0100
0002
0000
0000
0000
0103
0000
0000
0000
2100
0000
,
0000
0000
3001
0000
1000
0010
0200
0000
0000
0000
0301
0000
0001
0000
0100
0010
,
1000
0000
0001
0010
0100
0010
0002
0000
0000
0000
0103
0000
0100
0000
0001
1000
,
0001
0000
0010
0100
1000
0000
0000
0000
2001
0000
0000
0000
3010
0000
1000
0010
,
0100
0000
0001
0100
0010
0100
2000
0000
0000
0000
3100
0000
0000
0000
0102
0000
,
0000
0000
1003
0000
0001
0010
0200
0000
0000
0000
0301
0000
0001
0000
0100
0010
,
0100
0000
1000
0000
0010
0100
0010
0000
0001
0000
0010
0100
0010
0000
1000
0000
,
0001
0010
0000
0000
0100
1000
0000
0000
2001
0000
0000
0000
3010
0000
0100
0010
,
0100
0000
0001
1000
0001
0000
0010
0100
0001
0000
0100
0010
0001
0000
1000
0010
,
0100
0000
1000
0100
0010
0000
1000
0000
2001
0000
0000
0000
3100
0000
1000
0001
,
0010
0000
0100
0000
0010
0001
1000
0000
0010
0100
1000
0100
0010
0000
0001
0010
,
0100
0010
1000
0000
0001
0000
0010
0000
0110
0000
0000
0000
1001
0000
1000
0010
,
0100
0000
0001
1000
0001
0000
0010
0100
0001
0000
0100
0010
0001
0000
1000
0010
,
0100
0000
1000
0100
0010
0000
1000
0000
0001
0000
0001
0000
0010
0000
0010
0000
,
0100
0000
0100
0000
1000
0000
1000
0000
0001
0100
0010
1000
0100
0010
0100
1000
,
0010
0000
0000
0100
0000
0000
0010
0000
0000
1000
0000
0000
0001
0000
0000
0000
0000
0000
0000
0000
0000
0000
0000
0000
1002
0000
0000
0000
0000
0000
0000
0000
0000
0000
0000
0000
0000
0000
0000
0000
0013
0000
0000
0000
0100
0000
0000
0000
,
1000
0000
0000
0000
0000
0000
0000
0000
0001
0000
0000
0000
0000
0000
0000
0000
0001
0000
0000
0000
0000
0000
0000
0000
1020
0000
0000
0000
0000
0000
0000
0000
0000
0000
0000
0000
0130
0000
0000
0001
0000
0000
0100
0000
0000
0001
0000
0000
,
1000
0000
0000
0000
0000
0000
0001
0000
0000
0010
0000
0000
0100
0000
0000
0000
0010
0000
0000
0000
1000
0000
0000
0000
0010
0000
0000
0000
0100
0000
0000
0000
1000
0000
0000
0000
0001
0000
0000
0000
1000
0000
0000
0000
0010
0000
0000
0000
,
0100
0000
0000
0000
0001
0000
0000
0000
1000
0000
0000
0000
0001
0000
0000
0000
0010
0000
0000
0000
0100
0000
0000
0000
0001
0000
0000
0100
0000
0000
0010
0000
0000
0001
0000
0000
1000
0000
0000
0000
0000
0000
0001
0000
0000
0100
0000
0000
,
0010
0100
0001
0000
1000
0001
1000
0001
0010
0000
0001
0000
0100
0000
1001
0000
,
0000
0000
1000
0000
0010
0100
0010
0100
1000
0000
0100
0000
0010
0000
1001
0000
,
0000
0000
0001
0000
0010
0100
0010
0100
0001
0000
0100
0000
0100
0000
0100
0000
,
0100
0000
0100
0000
1000
0001
0100
0010
1000
0001
1000
0100
0010
0100
1000
0001
,
0100
0010
0001
1000
0100
0010
1000
0001
0000
0000
0000
0000
0000
0000
0000
0000
,
0000
0000
0020
0000
,
0000
0000
0000
0000
,
0000
0000
0000
0030
1001
0000
0000
0000
;

//--------------- dance-single - [Type_O] FS Rolls XO RH- ----------------
#NOTEDATA:;
#STEPSTYPE:dance-single;
#DESCRIPTION:[Type_O] FS Rolls XO RH-;
#DIFFICULTY:Hard;
#METER:17;
#RADARVALUES:0,0,0,0,0;
#CREDIT:Talkion;
#MUSIC:splitstream ~Type_O~.ogg;
#NOTES:
0000
0000
0000
0000
,
0000
0000
0000
0000
,
0000
0000
0000
0000
,
0000
0000
0000
0000
,
0000
0000
0000
0000
,
2001
0000
3100
0010
,
0012
0000
1003
0010
,
0120
0000
1030
0000
,
2001
0000
0000
0000
0000
0000
3100
0010
0001
1000
0001
0100
,
0020
0000
0000
0000
1030
0001
0010
0000
0100
0000
0100
0000
,
2001
0000
0000
0000
0000
0000
0010
0000
0000
0000
0000
0000
3001
0000
0000
0100
0000
0000
0010
0000
0100
0000
0001
0000
,
1000
0001
0010
0100
0010
0001
2000
0000
0000
3010
0000
0000
,
0201
0000
0000
0000
0310
0000
1000
0000
0200
0000
0000
0000
1300
0001
1000
0001
,
0020
0000
0000
0000
,
0000
0000
0000
0030
,
2001
0000
0010
0000
0000
0000
0000
3010
,
0200
0000
0000
0301
,
2000
0000
0000
0000
0000
3100
0000
0000
,
0020
0000
0130
1000
,
0002
0000
0000
0100
0000
0000
0000
0000
,
2003
0100
0100
0000
,
3002
0010
0000
0000
0000
0000
0000
0000
,
1003
0000
1000
0000
0020
0000
0000
0130
,
0001
0000
1000
0000
0100
0000
0010
0000
1000
0000
0010
0000
0200
0000
0310
0001
,
1000
1000
0010
0100
0010
0001
0010
0100
,
0001
0000
1000
0000
0100
0000
0010
0000
0100
0000
0001
0000
0200
0000
0310
0001
,
1000
1000
0010
0100
2000
0000
3100
0000
,
0001
0000
0100
0000
0010
0000
0001
0000
1000
0000
0100
0000
0020
0000
1030
0001
,
0010
0010
0100
0001
1000
0010
0100
1000
,
0001
0001
0100
0100
0010
0010
1000
1000
,
0001
0010
0100
0010
0001
1000
0001
0100
0010
1000
0001
0010
0100
1000
0001
0100
,
0010
0000
1000
0010
0200
0000
0000
0000
1000
0000
0000
0010
0000
0000
0301
0000
,
1000
0000
0000
1000
0100
0000
0000
0100
0010
0000
0000
0010
1000
0000
0010
0100
,
1000
0000
0001
0000
1000
0010
0100
0000
0001
0000
0100
0010
1000
0000
0001
0000
,
1000
0100
0010
0100
1000
0000
0001
0100
0010
0100
0001
0000
0010
0100
0001
0100
,
0010
0000
0000
0010
0001
0000
1000
0000
0010
0100
0001
0100
0010
0000
1000
0000
,
0100
0010
0100
0000
1000
0000
0001
0100
0010
0000
0000
0010
0001
0000
0010
0100
,
0001
0000
1000
0000
0001
0010
0100
0000
1000
0000
0100
0010
0001
1000
0000
0001
,
0100
0000
0010
0000
1000
0001
1000
0000
0100
0010
0001
0000
1000
0000
0000
0000
,
2001
0000
0000
0000
0000
0000
0000
0000
3010
0000
0000
0000
0100
000M
0100
0000
1000
0000
0000
0000
0000
0000
0000
0000
1000
0000
0000
0000
0100
0000
0010
0000
,
0001
0000
1000
0000
0001
0000
0100
0000
0010
0000
0000
0000
0100
000M
0100
0000
1000
0000
0000
0000
0001
0000
0010
0000
0200
0000
0000
0000
0000
0000
0000
0000
,
1300
0000
0000
0000
0100
00M0
0100
0000
0001
0000
0000
0000
0000
0000
0000
0000
0001
0000
0000
0000
0100
0000
0010
0000
1000
0000
0001
0000
1000
0000
0100
0000
,
0010
0000
0000
0000
0100
M000
0100
0000
0001
0000
0000
0000
0100
0000
0010
0000
2000
0000
0000
0000
0000
0000
0000
0000
3001
0000
0000
0000
0010
0M00
0010
0000
,
1000
0000
0000
0000
0010
0000
0100
0000
0001
0000
0100
0000
0010
0000
0000
0000
2001
0000
0000
0000
0000
0000
0000
0000
3100
0000
0000
0000
0010
000M
0010
0000
,
1000
0000
0000
0000
0000
0000
0000
0000
0102
0000
0000
0000
0000
0000
0000
0000
1003
0000
0000
0000
0010
0M00
0010
0000
0001
0000
0000
0000
0010
0000
0100
0000
,
1000
0000
0100
0000
0010
0000
0000
0000
1002
0000
0000
0000
0000
0000
0000
0000
0103
0000
0000
0000
0010
M000
0010
0000
0001
0000
0000
0000
1000
0000
0000
0000
,
0001
0000
1000
0000
0100
0000
0010
0000
0001
0000
1000
0000
0100
00M0
0100
0000
0001
0000
0000
0000
0100
0000
0010
0000
1000
0000
0000
0000
0000
0000
0000
0000
,
1010
0000
1000
0001
1000
0000
1000
0100
0010
0000
0000
0000
0010
0000
0011
0000
,
0001
0000
1000
0000
0001
0000
0000
0000
0001
0000
0100
0000
0010
0000
0000
0000
0000
0000
0000
0000
0100
000M
0100
0000
1000
0000
0000
0000
1000
0000
0001
0000
,
1000
0000
1000
0010
0100
0000
0000
0000
0100
0000
0101
0000
0001
1000
0001
0000
,
0001
0000
0010
0000
0100
0000
0000
0000
0000
0000
0000
0000
0010
000M
0010
0000
4000
0000
0000
0000
0000
0000
0001
0000
0000
0000
0000
0000
0000
0000
3100
0000
,
0010
0000
0000
0000
0010
0000
0014
0000
0000
1000
0000
0000
0000
0103
0010
0000
,
0000
0000
0000
0000
0100
000M
0100
0000
4000
0000
0000
0000
0000
0000
0001
0000
0000
0000
0000
0000
0000
0000
3010
0000
0100
0000
0000
0000
0000
0000
0000
0000
,
0100
0000
0000
0000
0104
0000
0000
0000
0000
0000
1000
0000
0000
0000
0000
0000
0000
0000
0013
0000
0100
0000
0000
0000
0000
0000
0000
0000
0010
000M
0010
0000
,
1000
0000
0000
0000
0001
0000
0000
0000
1001
0000
0000
0000
0001
0000
0000
0000
0101
0000
0000
0000
0000
0000
0000
0000
0100
00M0
0100
0000
1000
0000
0000
0000
,
0001
1001
0001
0011
0000
0000
1100
1000
,
1001
0000
0000
0000
1000
0000
0000
0000
1010
0000
0000
0000
0000
0000
0000
0000
0010
0M00
0010
0000
0001
0000
0000
0000
1000
0000
0000
0000
1001
0000
0000
0000
,
1000
1100
0000
0000
0014
0000
1000
0000
,
0103
0000
0000
0000
0000
0000
0000
0000
0100
00M0
0100
0000
1000
0000
0000
0000
0004
0000
0000
0000
1000
0000
0000
0000
0000
0000
0000
0000
0013
0000
0000
0000
,
0000
4100
0001
3010
,
0010
0M00
0010
0000
0001
0000
0000
0000
4000
0000
0000
0000
0001
0000
0000
0000
0000
0000
0000
0000
3100
0000
0000
0000
1000
0000
0001
0000
1000
0000
0001
0000
,
0020
0000
0032
0000
1003
0010
0100
0002
,
0000
0000
0000
0203
0000
0310
0010
2000
,
0000
0000
3002
0000
0013
0100
2000
0000
,
3002
0000
0000
0000
1003
0010
0100
0000
0020
0000
0000
0000
2030
0000
0000
0000
,
3001
0010
0100
2000
0000
0000
0000
3020
,
0000
0130
0002
0000
2003
0000
3200
0000
,
2300
0001
0000
0001
0000
3010
0100
0001
,
1000
0100
0010
0001
1000
0001
0100
0010
,
0200
1000
0000
0310
1000
0001
0100
0100
,
0001
0000
0001
0000
1000
0000
1000
0000
0100
0000
1001
0000
1000
0010
0100
0000
,
0001
0010
0100
1000
0001
1000
0010
0100
0002
0000
0000
0000
1003
0000
0001
0010
,
0100
0000
1000
0100
0010
0100
0002
0000
0000
0000
0103
0000
0000
0000
2100
0000
,
0000
0000
3001
0000
1000
0010
0200
0000
0000
0000
0301
0000
0001
0000
0100
0010
,
1000
0000
0001
0010
0100
0010
0002
0000
0000
0000
0103
0000
0100
0000
0001
1000
,
0001
0000
0010
0100
1000
0000
0000
0000
2001
0000
0000
0000
3010
0000
1000
0010
,
0100
0000
0001
0100
0010
0100
2000
0000
0000
0000
3100
0000
0000
0000
0102
0000
,
0000
0000
1003
0000
0001
0010
0200
0000
0000
0000
0301
0000
0001
0000
0100
0010
,
0100
0000
1000
0000
0010
0100
0010
0000
0001
0000
0010
0100
0010
0000
1000
0000
,
0001
0010
0000
0000
0100
1000
0000
0000
2001
0000
0000
0000
3010
0000
0100
0010
,
0100
0000
0001
1000
0001
0000
0010
0100
0001
0000
0100
0010
0001
0000
1000
0010
,
0100
0000
1000
0100
0010
0000
1000
0000
2001
0000
0000
0000
3100
0000
1000
0001
,
0010
0000
0100
0000
0010
0001
1000
0000
0010
0100
1000
0100
0010
0000
0001
0010
,
0100
0010
1000
0000
0001
0000
0010
0000
0110
0000
0000
0000
1001
0000
1000
0010
,
0100
0000
0001
1000
0001
0000
0010
0100
0001
0000
0100
0010
0001
0000
1000
0010
,
0100
0000
1000
0100
0010
0000
1000
0000
0001
0000
0001
0000
0010
0000
0010
0000
,
0100
0000
0100
0000
1000
0000
1000
0000
0001
0100
0010
1000
0100
0010
0100
1000
,
0010
0000
0000
0100
0000
0000
0010
0000
0000
1000
0000
0000
0001
0000
0000
0000
0000
0000
0000
0000
0000
0000
0000
0000
1002
0000
0000
0000
0000
0000
0000
0000
0000
0000
0000
0000
0000
0000
0000
0000
0013
0000
0000
0000
0100
0000
0000
0000
,
1000
0000
0000
0000
0000
0000
0000
0000
0001
0000
0000
0000
0000
0000
0000
0000
0001
0000
0000
0000
0000
0000
0000
0000
1020
0000
0000
0000
0000
0000
0000
0000
0000
0000
0000
0000
0130
0000
0000
0001
0000
0000
0100
0000
0000
0001
0000
0000
,
1000
0000
0000
0000
0000
0000
0001
0000
0000
0010
0000
0000
0100
0000
0000
0000
0010
0000
0000
0000
1000
0000
0000
0000
0010
0000
0000
0000
0100
0000
0000
0000
1000
0000
0000
0000
0001
0000
0000
0000
1000
0000
0000
0000
0010
0000
0000
0000
,
0100
0000
0000
0000
0001
0000
0000
0000
1000
0000
0000
0000
0001
0000
0000
0000
0010
0000
0000
0000
0100
0000
0000
0000
0001
0000
0000
0100
0000
0000
0010
0000
0000
0001
0000
0000
1000
0000
0000
0000
0000
0000
0001
0000
0000
0100
0000
0000
,
0010
0100
0001
0000
1000
0001
1000
0001
0010
0000
0001
0000
0100
0000
1001
0000
,
0000
0000
1000
0000
0010
0100
0010
0100
1000
0000
0100
0000
0010
0000
1001
0000
,
0000
0000
0001
0000
0010
0100
0010
0100
0001
0000
0100
0000
0100
0000
0100
0000
,
0100
0000
0100
0000
1000
0001
0100
0010
1000
0001
1000
0100
0010
0100
1000
0001
,
0100
0010
0001
1000
0100
0010
1000
0001
0000
0000
0000
0000
0000
0000
0000
0000
,
0000
0000
0020
0000
,
0000
0000
0000
0000
,
0000
0000
0000
0030
1001
0000
0000
0000
;

//--------------- dance-single - [Type_T] DS+ XO RH- ----------------
#NOTEDATA:;
#STEPSTYPE:dance-single;
#DESCRIPTION:[Type_T] DS+ XO RH-;
#DIFFICULTY:Challenge;
#METER:17;
#RADARVALUES:0,0,0,0,0;
#CREDIT:Talkion;
#NOTES:
0000
0000
0000
0000
,
0000
0000
0000
0000
,
0000
0000
0000
0000
,
0000
0000
0000
0000
,
0000
0000
0000
0000
,
2001
0000
3100
0010
,
0012
0000
1003
0010
,
0120
0000
1030
0000
,
2001
0000
0000
0000
0000
0000
3100
0010
0001
1000
0001
0100
,
0020
0000
0000
0000
1030
0001
0010
0000
0100
0000
0100
0000
,
2001
0000
0000
0000
0000
0000
0010
0000
0000
0000
0000
0000
3001
0000
0000
0100
0000
0000
0010
0000
1000
0000
0010
0000
,
0100
0001
1000
0001
0010
0100
2000
0000
0000
3001
0000
0000
,
1020
0000
0000
0000
0130
0000
0001
0000
0020
0000
0000
0000
0031
1000
0001
1000
,
0200
0000
0000
0000
,
0000
0000
0000
0300
,
1000
0001
0100
0010
,
1000
0001
0010
0100
,
1000
0001
0100
0010
,
1000
0001
0010
0100
,
1000
0010
0100
0010
,
1000
0100
0010
0001
,
0100
0010
0100
0001
,
0010
0100
1000
0001
,
0100
0010
0100
0000
0001
0000
1000
0100
0010
0000
0001
1000
0001
0100
0010
0000
,
1000
0000
0001
0100
0001
0000
1000
0100
1000
0000
0001
0100
0010
0000
0010
0000
,
1000
0000
1000
0100
0010
0000
0000
0100
1000
0001
1000
0010
0100
0000
0001
0000
,
1000
0100
1000
0002
0010
0000
1003
0100
1000
0001
0000
0100
0010
1000
0010
0100
,
0001
1000
0000
1000
0100
0010
0000
0010
0001
1000
0001
0100
0010
1000
0000
0001
,
0000
0010
0000
0010
0000
0001
0000
1000
0010
0100
0000
0100
0001
1000
0001
0010
,
0100
0000
0010
0001
1000
0001
0100
0010
1000
0000
0001
0000
0010
0100
0010
0000
,
0001
0000
0001
0000
0100
0010
0100
0000
0001
0000
1000
0000
0001
0010
0100
1000
,
0002
0000
0010
0000
1000
0000
0000
0000
1003
0000
0001
0100
0010
0000
2000
0000
,
0000
0000
0010
0000
0001
0000
0000
0000
3001
0000
1000
0100
0020
0000
0001
0000
,
0000
0000
0001
0000
0130
0000
1000
0100
1000
0000
0001
1000
0001
0100
0020
0000
,
0000
0000
0100
0000
1000
0000
0000
0000
1030
0000
0001
0010
0200
0000
0000
0000
,
2300
0000
0100
0000
0001
0000
0000
0000
3001
0000
1000
0010
0100
0000
0002
0000
,
0000
0000
0100
0000
1000
0000
0000
0000
1003
0000
0001
0010
0200
0000
1000
0000
,
0000
0000
1000
0000
0310
0000
0001
1000
0001
0000
0200
0000
0010
0000
0000
0000
,
0302
0100
1000
0000
2003
0100
0001
0000
,
3020
0000
0000
0000
0230
0000
0000
0000
1300
0100
0010
0000
1000
0100
0010
0000
,
1000
0010
0100
0000
1000
0010
0200
0000
0001
0000
0000
0000
0310
0000
0000
0000
,
1000
0000
1000
0010
0100
0000
0100
0010
0001
0000
0010
0000
1000
0000
0000
0000
,
0001
0000
0001
0010
0100
0000
0100
0010
2000
0000
0000
0000
3020
0000
0000
0000
,
0031
0000
0001
0000
0100
0000
0010
0000
1000
0000
1000
0001
0010
0001
1000
0000
,
0010
0100
0010
0100
0002
0000
0000
0000
1003
0100
0000
0100
0000
0000
0010
0100
,
0002
0000
0103
0000
0010
0000
0000
0001
1000
0010
1000
0001
1000
0010
1000
0001
,
0010
0100
1000
0010
1000
0001
0100
0010
1000
0100
1000
0001
0010
0100
1000
0000
,
1001
0000
0001
0100
0010
0000
0001
0100
0010
0000
0000
0000
0010
0000
1001
0000
,
1000
0100
0010
0000
1000
0100
0010
0000
0000
0000
0001
1000
0010
0000
1000
0010
,
0100
0000
1000
0010
0100
0000
0000
0000
0100
0000
1001
0000
0001
0010
0100
0000
,
0001
0010
0100
0000
0000
0000
1000
0001
0100
0000
0010
0100
0001
0000
0010
0100
,
0001
0000
0000
0000
0001
0000
0011
0000
0010
0100
1000
0000
0010
0100
1000
0000
,
0000
0000
0001
1000
0010
0000
0100
0010
1000
0000
0100
0010
1000
0000
0000
0000
,
1000
0000
1100
0000
0100
0010
0001
0000
0100
0010
0001
0000
0000
0000
1000
0001
,
1000
0000
0100
1000
0010
0000
0100
1000
0010
0000
0000
0000
0001
1000
0001
0000
,
0100
0001
0010
0000
0100
0001
0010
0000
0000
0000
0000
0000
0011
0000
0010
0001
,
0100
0000
0010
0001
0100
0000
0000
0000
1000
0001
1000
0000
0010
1000
0100
0000
,
0010
1000
0100
0000
0000
0000
0000
0000
0110
0000
1000
0100
0001
0000
1000
0100
,
0001
0000
0000
0000
0010
0001
1000
0000
0001
0100
1000
0000
0001
0100
1000
0000
,
0000
0000
0000
0000
0110
0000
1000
0010
0001
0000
1000
0010
0001
0000
0000
0000
,
0100
0001
1000
0000
0001
0010
1000
0000
0001
0010
1000
0000
0000
0000
0000
0000
,
0020
0000
0032
0000
1003
0010
0100
0002
,
0000
0000
0000
0203
0000
0320
0000
2030
,
0000
0000
3002
0000
0013
0100
2000
0000
,
3002
0000
0103
0010
0200
0000
0302
0000
,
1003
0100
0010
0002
0000
0000
0000
2003
,
0000
3020
0000
0230
0000
0320
0000
2030
,
0000
3002
0000
0000
0000
0013
0100
1000
,
0001
0100
0010
1000
0001
1000
0100
0010
,
1000
0010
0100
1000
0001
0100
0010
0010
,
1000
0000
1000
0000
0001
0000
0001
0000
0010
0000
1001
0000
0001
0100
0010
0000
,
1000
0100
0010
0000
0001
0100
0010
0100
0002
0000
0000
0000
1003
0000
0001
0010
,
0100
0000
1000
0100
0010
0100
0002
0000
0000
0000
0103
0000
0000
0000
2100
0000
,
0000
0000
3001
0000
1000
0010
0200
0000
0000
0000
0301
0000
0001
0000
0100
0010
,
1000
0000
0001
0010
0100
0010
0002
0000
0000
0000
0103
0000
0100
0000
0001
1000
,
0001
0000
0010
0100
1000
0000
0000
0000
2001
0000
0000
0000
3010
0000
1000
0010
,
0100
0000
0001
0100
0010
0100
2000
0000
0000
0000
3100
0000
0000
0000
0102
0000
,
0000
0000
1003
0000
0001
0010
0200
0000
0000
0000
0301
0000
0001
0000
0100
0010
,
0100
0000
1000
0000
0010
0100
0010
0000
0001
0000
0010
0100
0010
0000
1000
0000
,
0001
0010
0000
0000
0100
1000
0000
0000
2001
0000
0000
0000
3010
0000
1000
0010
,
0100
0000
0001
1000
0001
0000
0010
0100
0001
0000
0100
0010
0001
0000
1000
0010
,
0100
0000
1000
0100
0010
0000
1000
0000
2001
0000
0000
0000
3100
0000
1000
0001
,
0010
0000
0100
0000
0010
0001
1000
0000
0010
0100
1000
0100
0010
0000
0001
0010
,
0100
0010
1000
0000
0001
0000
0010
0000
0110
0000
0000
0000
1001
0000
1000
0010
,
0100
0000
0001
1000
0001
0000
0010
0100
0001
0000
0100
0010
0001
0000
1000
0010
,
0100
0000
1000
0100
0010
0000
1000
0000
0001
0000
0001
0000
0010
0000
0010
0000
,
0100
0000
0100
0000
1000
0000
1000
0000
0001
0100
0010
1000
0100
0010
0100
1000
,
0010
0000
0000
0100
0000
0000
0010
0000
0000
1000
0000
0000
0001
0000
0000
0000
0000
0000
0000
0000
0000
0000
0000
0000
1002
0000
0000
0000
0000
0000
0000
0000
0000
0000
0000
0000
0000
0000
0000
0000
0013
0000
0000
0000
0100
0000
0000
0000
,
1000
0000
0000
0000
0000
0000
0000
0000
0001
0000
0000
0000
0000
0000
0000
0000
0001
0000
0000
0000
0000
0000
0000
0000
1020
0000
0000
0000
0000
0000
0000
0000
0000
0000
0000
0000
0130
0000
0000
0001
0000
0000
0100
0000
0000
0001
0000
0000
,
1000
0000
0000
0000
0000
0000
0001
0000
0000
0010
0000
0000
0100
0000
0000
0000
0010
0000
0000
0000
1000
0000
0000
0000
0010
0000
0000
0000
0100
0000
0000
0000
1000
0000
0000
0000
0001
0000
0000
0000
1000
0000
0000
0000
0010
0000
0000
0000
,
0100
0000
0000
0000
0001
0000
0000
0000
1000
0000
0000
0000
0001
0000
0000
0000
0010
0000
0000
0000
0100
0000
0000
0000
0001
0000
0000
0100
0000
0000
0010
0000
0000
0001
0000
0000
1000
0000
0000
0000
0000
0000
0001
0000
0000
0100
0000
0000
,
0010
0100
0001
0000
1000
0001
1000
0001
0010
0000
0001
0000
0100
0000
1001
0000
,
0000
0000
1000
0000
0010
0100
0010
0100
1000
0000
0100
0000
0010
0000
1001
0000
,
0000
0000
0001
0000
0010
0100
0010
0100
0001
0000
0100
0000
0100
0000
0100
0000
,
0100
0000
0100
0000
1000
0001
0100
0010
1000
0001
1000
0100
0010
0100
1000
0001
,
0100
0010
0001
1000
0100
0010
1000
0001
0000
0000
0000
0000
0000
0000
0000
0000
,
0000
0000
0020
0000
,
0000
0000
0000
0000
,
0000
0000
0000
0030
1001
0000
0000
0000
;
