#TITLE:rommmo;
#SUBTITLE:;
#ARTIST:callasoiled;
#TITLETRANSLIT:;
#SUBTITLETRANSLIT:;
#ARTISTTRANSLIT:;
#GENRE:;
#CREDIT:;
#MUSIC:rommmo.ogg;
#BANNER:rommmo-bn.png;
#BACKGROUND:rommmo-bg.png;
#CDTITLE:;
#SAMPLESTART:39.358;
#SAMPLELENGTH:18.462;
#SELECTABLE:YES;
#OFFSET:-0.125;
#BPMS:0.000=208.000
,18.000=104.000
,19.000=208.000
,55.000=52.000
,56.000=208.000
,88.000=416.000
,88.500=208.000
,117.000=104.000
,118.000=208.000
,211.000=832.000
,223.000=208.000
,286.000=416.000
,288.000=26.000
,289.000=208.000
,358.500=416.000
,359.500=208.000
;
#STOPS:8.000=0.866
,13.000=0.866
,25.000=0.866
,40.000=0.289
,53.000=0.577
,88.000=0.072
,286.000=0.036
,286.250=0.036
,286.500=0.036
,286.750=0.036
,287.000=0.036
,287.250=0.036
,287.500=0.036
,287.750=0.036
,352.500=0.289
,354.500=0.289
,356.500=0.289
,358.500=0.036
,358.750=0.036
,359.000=0.036
,359.250=0.036
,361.500=0.289
,363.500=0.289
,365.500=0.289
,370.500=0.289
,372.500=0.289
;
#DISPLAYBPM:208.000;
#BGCHANGES:-0.500=rommmo.avi=1.000=1=0=0=StretchNoLoop==CrossFade==,
99999.000=-nosongbg-=1.000=0=0=0=StretchNoLoop====
#FGCHANGES:;

//--------------- dance-single - ----------------
#NOTES:
     dance-single:
     :
     Beginner:
     7:
     0,0,0,0,0:
0000
0000
0000
0000
,
0000
0000
0000
0000
,
0000
0000
0000
0000
,
0000
0000
0000
0000
,
0000
0000
0000
0000
,
0000
1000
0000
0000
0001
0000
1000
0000
,
0000
0000
1001
0001
0000
0000
0010
0000
,
0000
0100
0000
0000
1000
0000
0000
0000
,
0010
0000
0000
0001
0000
0000
0000
0000
,
0010
0000
0000
1000
0000
0000
0000
0000
,
0001
0010
0000
0000
0000
0000
1000
0000
,
0000
0010
0000
0000
0000
0000
0001
0000
,
0000
1000
0000
0000
0000
0000
0010
0000
,
0000
2001
0000
3001
,
1000
0000
0100
0000
1000
0000
0000
0010
,
0000
0001
0010
1000
,
0001
0000
0010
0000
0100
0000
0000
0001
,
0000
0100
1000
0001
,
0000
0100
0000
0000
1000
0000
0000
0100
,
0000
0001
1000
0010
,
0100
0000
1000
0000
0100
0000
0000
0001
,
0000
0010
0100
1000
,
0000
0001
0000
0100
0000
1000
0000
0001
,
0000
0010
1000
0100
,
1000
0000
0001
0000
0100
0000
0000
1000
,
0000
0100
0010
1000
,
0100
0000
0000
0010
0000
0000
0001
0000
,
1000
0000
0000
0010
0000
0000
0100
0000
,
0001
0000
1000
0000
,
0001
MMMM
0000
1000
,
0000
0100
0000
0000
0001
0000
0000
0100
,
0000
0000
1000
0000
0000
0001
0001
0000
,
0000
0100
0000
0000
1000
0000
0000
0100
,
0001
0000
0000
1000
0000
0000
0001
0000
,
0000
0000
0010
0000
0000
1000
0000
0000
,
0010
0000
0000
0100
0000
0000
1000
0000
,
0000
0010
0000
0000
0000
0000
0100
0000
,
0000
0001
0000
0000
1000
0000
0001
0000
,
0000
0000
0010
0000
0000
1000
0000
0000
,
0010
0001
1000
0010
,
0000
0000
0001
0000
0000
0010
0000
1000
,
0000
0001
0000
0000
0100
0000
0010
0000
,
0001
0000
0000
0010
0000
0000
1000
0000
,
0001
0010
1000
0010
,
0000
0100
0000
0000
1000
0000
0000
0010
,
0000
0100
0001
1000
,
0000
1000
0000
1000
,
0000
1000
0000
0001
,
0000
0001
0000
0001
,
0000
0001
0000
0100
,
0000
0100
0000
0010
,
0000
0010
0000
1000
,
1000
0001
0001
2000
,
0000
0000
0000
0000
,
0000
0000
0000
0000
,
0000
0000
0000
0000
,
3001
0010
0001
1000
,
0010
0100
0010
1000
,
0001
0010
0100
1000
,
0001
0100
0001
1000
,
0100
1000
0010
0100
,
0001
0010
0001
1000
,
0001
0010
0100
1000
,
0010
0010
0010
0010
,
1000
0100
0001
0100
,
1000
0001
0100
0001
,
0010
0100
1000
0010
,
1000
0001
0010
0100
,
1000
0000
0000
1000
0000
0000
1000
0000
,
0001
0000
0000
0001
0000
0000
0001
0000
,
1000
0001
1000
0001
,
1000
0001
1000
0001
,
0000
1000
0000
0000
,
0100
0000
0000
0001
,
0000
0100
0000
0000
,
0010
0000
0000
1000
,
0000
0010
0000
0001
,
0000
0000
1000
0000
,
0010
0000
0000
0001
,
0000
0010
0000
0000
,
0100
0000
0000
1000
,
0000
0000
0100
0000
,
0000
0001
0000
1000
,
0000
0100
0000
0000
,
0001
0100
0000
0010
,
0000
0001
0000
1000
,
0000
0001
0000
0000
,
0100
0000
0010
2000
,
0000
3200
0000
0320
,
0000
0032
0000
0000
,
1003
0000
1000
2000
3010
0000
0010
0020
,
0130
0000
0100
0200
0301
0000
0001
0002
,
0003
0000
0010
0000
0010
0020
0130
0000
,
0100
0200
1300
0000
1000
2000
3000
0000
,
0001
0000
0001
0002
0003
0000
0000
0000
,
1000
0100
0010
0002
0003
0000
0000
0000
;

//--------------- dance-single - ----------------
#NOTES:
     dance-single:
     :
     Easy:
     11:
     0,0,0,0,0:
0000
0000
0000
0000
,
0000
0000
0000
0000
,
0000
0000
0000
0000
,
0000
0000
0000
0000
,
0000
0000
0000
0000
,
0000
1000
0000
0000
0100
0000
1000
0000
,
0001
0000
1001
0001
0000
0000
0100
0000
,
0000
1000
0000
0000
0100
0000
0001
0000
,
1000
0000
0000
0100
0000
0000
0001
0000
,
0100
0000
0000
1000
0000
0000
0010
0000
,
0100
1000
0000
0000
0100
0000
0001
0001
,
0001
1000
0000
0000
0001
0000
0010
0000
,
0100
0001
0100
1000
,
0001
1002
0000
1003
,
0001
0000
0010
0001
1000
0010
0000
0100
,
0000
0010
1000
0000
0001
0000
0010
1000
,
0010
0000
0000
0000
0001
0000
0000
0000
1000
0000
0000
0010
0000
0100
0000
0000
,
0000
1000
0100
0001
1000
0100
1000
0000
,
0000
0001
0000
0100
0001
0010
0000
0100
,
0000
1000
0010
0000
1000
0000
0001
0100
,
0010
0000
0001
0000
0010
0000
0000
0000
1000
0000
0000
0100
0000
0100
0000
0000
,
0000
1000
0010
0100
0001
0001
1000
1000
,
0000
0001
0010
0001
0010
0001
0000
1000
,
0000
0010
0001
0000
0010
0000
1000
0001
,
1000
0000
0100
0000
0100
0000
0000
0000
0001
0000
0000
0100
0000
0010
0000
0000
,
0000
0001
1000
0010
0001
0010
1000
0000
,
0001
0000
0000
0001
0000
0000
0001
0000
0000
0000
0000
0000
1001
0000
0000
0000
,
1000
0000
0000
1000
0000
0000
1000
0000
0000
0000
0001
0000
1000
0000
0001
0000
,
0100
0000
0000
0000
1000
0000
0000
0000
0100
0000
0000
0001
0000
0000
0010
0000
,
0100
MMMM
0000
1000
,
0100
1000
0001
0000
0100
0000
0010
0100
,
0001
0000
1000
0000
0100
0010
0100
0000
,
1000
0010
0100
0000
0001
0000
0010
0100
,
1000
0000
0100
0010
0001
0000
1000
0010
,
1000
0000
0001
0010
0100
0000
0010
0000
,
0001
1000
0010
0000
0100
0010
1000
0000
,
0100
0010
0001
0000
0100
0000
0010
1000
,
0010
0000
0100
0000
0001
0010
0100
0000
,
0010
0000
0001
1000
0010
0000
1000
0000
,
0001
0010
0001
0000
0100
0010
1000
0000
,
0100
0000
1000
0001
0100
0000
1000
0100
,
0001
0010
0100
1000
,
0010
0100
0010
0000
1000
0000
0001
0010
,
0001
0000
1000
0010
1000
0000
0100
0010
,
0001
0000
0100
0000
0001
0010
0100
0000
,
1000
0000
0001
0100
0010
1000
0001
0000
,
0010
0001
0010
0100
,
1000
0100
1000
0001
,
0100
0001
0100
0010
,
1000
0010
1000
0001
,
0001
0010
0010
0100
,
0100
1000
1000
0010
,
0010
0100
0100
0002
,
0000
0000
0000
0000
,
0000
0000
0000
0000
,
0000
0000
0000
0000
,
1003
1100
0100
0110
,
0010
0011
0001
1001
,
1000
1010
0010
0110
,
0100
0000
0101
0000
0001
1000
0001
0000
,
0001
0011
0010
0110
,
0100
1100
1000
1001
,
0001
0101
0100
0110
,
1010
1001
0110
1001
,
1000
1100
0100
0101
,
0001
0011
0010
1010
,
0001
0101
0100
1100
,
1000
1010
0010
0011
,
1010
0000
0000
0011
0000
0000
0110
0000
,
0101
0000
0000
1100
0000
0000
1001
0000
,
1000
0100
0010
0001
,
1000
0001
1000
0001
1000
0001
1000
0001
,
0000
1000
0100
0001
,
0100
0010
0001
1000
,
0010
0001
0010
1000
,
0001
0010
1000
0010
,
0100
1000
0010
0100
,
1000
0100
0001
1000
,
0100
0001
0100
1000
,
0001
0100
1000
0100
,
0010
1000
0100
0001
,
1000
0010
0001
1000
,
0010
0001
0010
1000
,
0001
0010
1000
0001
,
0100
1000
0010
0001
,
1000
0100
0001
1000
,
0100
0001
0100
1000
,
0001
0010
0100
1000
,
1000
2000
3100
0000
0100
0200
0310
0000
,
0010
0020
0031
0000
0001
0002
0000
0003
,
1000
0100
1000
0200
0310
0001
0010
0002
,
1003
0010
1000
0020
0130
0001
0100
0002
,
0003
0000
0010
0100
0010
0200
1300
0001
,
1000
0002
0103
0010
0100
0020
0030
0000
,
1000
0001
1000
0002
1003
0001
0100
0020
,
1030
0100
0010
0002
0003
0000
0000
0000
;

//--------------- dance-single - ----------------
#NOTES:
     dance-single:
     :
     Medium:
     13:
     0,0,0,0,0:
0000
0000
0000
0000
,
0000
0000
0000
0000
,
0000
0000
0000
0000
,
0000
0000
0000
0000
,
0000
0000
0000
0000
,
0000
1000
0000
0000
0010
0000
0100
0001
,
1000
0000
1001
0001
0010
0000
1000
0010
,
0000
0001
0100
0010
1000
0000
0001
0000
,
0010
0000
0000
1000
0000
0000
0001
0000
,
0100
0100
0100
1000
0000
0000
0010
0000
,
0100
0001
1000
0000
0100
0000
0010
0010
,
0010
0001
0000
0000
1000
0010
0001
0010
,
1000
0001
0100
0000
1000
0100
0001
1000
,
0100
2001
0000
3001
,
0001
0010
0100
0001
0100
1000
0010
0100
,
0000
0001
0001
0000
1000
0000
0100
2000
,
3001
0000
0100
0000
0010
0000
0000
0000
0001
0000
0000
0010
0000
0100
0000
0000
,
0000
1000
0100
0010
1000
0100
1000
0000
,
0000
0001
0100
1000
0100
0010
0000
0001
,
0000
0010
0010
0000
1000
0000
0100
0020
,
0030
0000
0001
0000
1000
0000
0010
0000
0100
0000
0000
0001
0000
0001
0000
0000
,
1000
0100
0010
0001
0100
0010
0100
0010
,
0000
1000
0100
0001
0100
1000
0000
0001
,
0000
0100
1000
0000
0100
0000
0001
2000
,
3000
0000
0010
0000
0010
0000
0000
0000
0100
0000
0000
1000
0000
0100
0000
0000
,
0000
0001
0010
0100
1000
1000
0001
0000
,
1000
0000
0000
0010
0000
0000
0001
0000
0000
0000
0010
0000
1000
0000
0000
0000
,
0001
0000
0000
0010
0000
0000
1000
0000
0000
0000
0010
0000
0001
0000
1000
0000
,
0001
0000
0000
0000
0100
0000
0000
0000
1000
0000
0000
0001
0000
0000
0010
0000
,
1000
0000
MMMM
0000
0000
0000
0001
0010
,
0001
0020
0000
0000
1030
0010
1000
0020
,
0000
0000
0031
0100
0001
0100
0010
1000
,
0010
2000
0000
0000
3010
0001
0010
0001
,
0010
1000
0001
0020
0000
0000
0130
1000
,
0200
0000
1300
0010
1000
0020
0000
0000
,
0031
0010
0001
0010
1000
0001
0010
0200
,
0000
1300
0010
2000
0000
0000
3001
0010
,
0001
0020
0000
0000
0130
1000
0001
0200
,
0000
0000
0310
1000
0100
0020
0000
0000
,
0031
0100
0010
1000
0001
0010
0100
2000
,
0000
0000
3010
0100
0001
0020
0000
0130
,
1000
0020
0000
0000
0130
0001
2000
0000
,
3100
0010
0100
0020
0000
0000
0031
0100
,
0010
1000
0001
0010
0100
0010
0001
1000
,
0010
0200
0000
0000
0301
1000
0100
0020
,
0000
0031
1000
0010
0100
0001
1000
0000
,
1000
0100
0100
0010
,
0010
0001
0001
1000
,
1000
0010
0010
0100
,
0100
0000
0001
0000
0001
0000
1000
0100
,
1000
0000
0001
0100
0001
0000
1000
0010
,
1000
0000
0001
0010
0001
0000
1000
0100
,
0001
1000
0010
0001
0100
0010
2000
0000
,
0000
0000
0000
0000
,
0000
0000
0000
0000
,
0000
0000
0000
0000
,
3001
0000
0011
0000
1000
0100
1000
0000
,
0001
0000
0101
0000
1000
0010
1000
0000
,
0001
0000
1001
0000
0100
0010
0100
0000
,
1001
0011
0101
0110
,
1000
0000
1100
0000
0001
0010
0001
0000
,
1000
0000
1010
0000
0001
0100
0001
0000
,
1000
0000
1001
0000
0100
0010
0100
0000
,
1001
1001
1001
1001
,
1000
0000
1100
0001
0010
0001
0010
0000
,
0001
0000
0101
1000
0010
1000
0010
0000
,
1000
0000
1010
0001
0100
0001
0100
0000
,
0001
0000
0011
1000
0100
1000
0100
0000
,
1100
0000
0000
1010
0000
0000
1001
0000
,
0011
0000
0000
0101
0000
0000
1001
0000
,
1000
1000
0100
0100
0010
0010
0001
0001
,
1000
0010
0100
0001
1000
0100
0010
0001
,
0000
0000
1000
0100
0010
0200
0000
0000
,
1300
0001
0100
0020
0000
0000
0031
0010
,
1000
0001
0100
0010
1000
0002
0000
0000
,
0013
0100
0010
0002
0000
1003
0010
0200
,
0000
0000
0301
0010
0002
0000
0103
0010
,
1000
0200
0000
0000
0301
0100
0010
0001
,
1000
0010
0100
0020
0000
1030
0100
2000
,
0000
0000
3001
0100
0010
2000
0000
0000
,
3100
0010
0001
0200
0000
0000
1300
0100
,
0001
2000
0000
0000
3100
0010
1000
0020
,
0000
0130
0010
0002
0000
0000
0103
0010
,
0001
0020
0000
1030
0001
2000
0000
0000
,
3010
0100
0002
0000
0013
0100
0001
2000
,
0000
0000
3010
0001
1000
0020
0000
0031
,
0010
1000
0001
0010
1000
0020
0000
0000
,
0130
0001
0100
2000
0000
0000
3001
0010
,
0100
2000
3001
0010
0100
2000
3001
0010
,
0100
2000
3001
0010
0100
2000
0000
3000
,
0001
0001
0001
0002
0103
0100
0100
0200
,
0310
0010
0010
0020
1030
1000
1000
2000
,
3000
0000
0100
0100
0100
0200
0310
0010
,
0010
0020
0031
0001
0001
0002
0003
0000
,
1000
1000
1000
2000
3001
0001
0001
0002
,
1003
0100
0010
0002
0003
0000
0000
0000
;

//--------------- dance-single - ----------------
#NOTES:
     dance-single:
     :
     Hard:
     16:
     0,0,0,0,0:
0000
0000
0000
0000
,
0000
0000
0000
0000
,
0000
0000
0000
0000
,
0000
0000
0000
0000
,
0000
0000
0000
0000
,
0000
1000
0000
0000
0001
0001
0100
0100
,
0010
0000
0000
0000
1001
0000
1000
0000
0100
0000
0000
0001
0100
0000
1000
0000
,
0000
0001
0100
0000
0010
1000
0000
1000
0001
0000
0000
0000
1000
0000
0100
0000
,
1000
0100
0000
0020
0000
1000
1000
0000
,
0001
0001
0031
0011
0000
0000
0001
0000
,
1000
0002
0003
0000
0020
0030
0100
0100
,
0100
1100
0000
0000
1000
0001
1000
0001
,
1000
0000
0010
0000
0100
0001
1000
0100
,
0010
2001
0000
3001
,
1000
0000
0100
0000
1000
0001
0100
0000
0010
0000
0001
0000
0010
0000
1000
0000
,
1000
0001
0000
0001
0100
0000
0000
0000
1010
0000
0000
0000
0100
0001
0200
0000
,
1300
0000
0100
0000
0010
0000
1000
0001
0010
0000
0100
1000
0000
1000
0001
0000
,
1000
0000
0010
0000
0001
0000
0010
0000
1000
0010
1000
0010
1000
0000
0000
0000
,
0000
0000
0011
0000
0000
0000
0100
1000
0001
0000
0200
0000
1000
0000
0010
0000
,
0301
1000
0000
1000
0100
0000
0000
0000
0011
0000
0000
0000
1000
0010
1000
0000
,
0000
0000
0100
0000
0100
0000
0010
0001
0100
0000
0010
1000
0000
1000
0001
1000
,
0000
0000
0010
0100
0001
1000
0100
0000
0010
0001
0010
0000
0100
1000
0100
0000
,
0000
1000
1000
1000
1000
1001
0000
0001
,
0000
0000
0100
0000
0100
0000
0000
0000
1010
0000
0000
0000
0001
1000
0001
0000
,
1000
0000
0100
0000
0001
0000
0000
0100
1000
0000
1000
0010
0000
0100
0001
0000
,
0000
0000
0010
0001
0010
0100
1000
0000
0001
0100
0001
0000
1000
0000
0000
0000
,
0011
0000
0000
0001
0000
0000
1001
0000
0000
0000
0100
0000
0110
0000
0000
0000
,
1010
0000
0000
1000
0000
0000
1001
0000
0000
0000
0001
0000
0100
0010
0100
0010
,
1000
0000
0000
0000
1100
0000
0000
0000
1001
0000
0000
0101
0000
0000
0110
0000
,
1000
0000
MMMM
0000
0000
0000
0001
0010
,
1000
0020
0100
0000
0031
1000
0010
0200
,
1000
0000
0310
1000
0100
0010
1000
0010
,
0001
0020
1000
0000
0031
1000
0010
0100
,
1000
0100
0001
2000
0000
0010
3001
0100
,
0010
0001
1000
0100
0010
0200
0001
0000
,
0310
1000
0100
0001
0100
0010
0001
0020
,
0100
0031
0100
0020
0001
0000
1030
0100
,
0010
2000
0001
0000
3010
0100
1000
0020
,
0000
0001
0130
1000
0100
0002
1000
0000
,
0013
0100
0001
0100
1000
0100
0010
0200
,
0000
0001
0310
0001
0100
0020
0000
0031
,
1000
0200
0000
0010
0301
0010
0001
0000
,
1000
0010
0001
0020
0000
0001
0130
1000
,
0100
0001
1000
0100
0010
0001
1000
0010
,
1000
0200
0001
0000
0310
0001
1000
0020
,
0000
0000
0001
0000
0130
0000
0001
0000
1000
0100
0010
0001
1000
0000
0000
0000
,
1000
0001
0001
0100
,
0100
0000
0010
0010
0010
0010
1000
0000
,
1000
0001
0001
0010
,
0010
0000
0100
0100
0100
0000
1000
0010
,
1000
0010
0100
0001
0100
0001
1000
0100
,
1000
0000
0100
0000
0010
0000
0001
0000
0010
0000
0001
0000
0100
0000
0010
1000
,
0001
0000
0010
0001
1000
0010
0100
0001
0010
0100
1000
0001
2000
0000
0000
0000
,
0000
0000
0000
0000
,
0000
0000
0000
0000
,
0000
0000
0000
0000
,
3001
0000
0010
0000
0011
0000
0000
0100
1000
0000
0010
0000
0101
0000
0000
0000
,
1000
0000
0100
0000
1100
0000
0000
0010
0001
0000
1000
0000
0110
0000
0000
0000
,
0001
0000
0100
0000
0101
0000
0000
0000
0010
1000
0001
0000
1001
0000
0000
0000
,
1000
0100
0001
0100
1000
0001
2002
3003
,
1000
0000
0010
0000
1010
0000
0000
0100
0001
0000
0010
0000
1100
0000
0000
0000
,
0001
0000
0100
0000
0101
0000
0000
0010
1000
0000
0001
0000
0110
0000
0000
0000
,
1000
0000
0100
0000
1100
0000
0000
0000
0010
0001
1000
0000
1001
0000
0000
0000
,
1010
1100
0101
0011
,
1000
0000
0100
0000
1100
0000
0000
0000
0001
0100
0001
0000
1010
0000
0000
0000
,
0001
0000
0010
0000
0011
0000
0000
0000
1000
0001
1000
0000
0110
0000
0000
0000
,
1000
0000
0010
0000
1010
0000
0000
0000
0001
1000
0100
0000
0011
0000
0000
0000
,
1000
0010
0001
1000
0100
0001
1001
0000
,
1100
1000
0000
1010
1000
0000
1001
0000
,
0011
0001
0000
0101
0001
0000
1001
0000
,
1000
0100
0010
0100
0001
0100
0010
0100
,
1000
0010
1000
0000
0001
0010
0001
0000
1000
0001
1000
0001
1000
0001
1000
0001
,
0000
0000
1000
0100
0010
2000
0001
0000
,
3010
0001
0100
0020
0001
0000
1030
0001
,
0010
0100
1000
0001
0100
0020
1000
0000
,
0031
1000
0100
0002
0000
1003
0100
0020
,
1000
0100
0031
1000
0020
0000
0130
1000
,
0100
0002
0000
1000
0103
1000
0100
0002
,
0000
1003
0100
0010
0001
1000
0010
0200
,
0000
1000
0310
0001
0010
2000
0000
0000
,
0100
0010
3001
0200
1000
0000
0310
1000
,
0100
0020
0000
1000
0031
0100
0010
0001
,
0010
0100
0001
2000
0000
0000
3100
0010
,
0001
0010
1000
0010
0001
0200
0000
1000
,
0310
0001
0020
0000
1030
0100
0001
0200
,
0000
0010
1300
0001
0100
0020
0000
0001
,
1030
0100
1000
0010
0100
0020
0001
0000
,
0130
0001
0010
0100
1000
0000
0001
0010
,
0100
2000
3001
0010
0100
2000
3001
0010
,
0100
0000
2000
0000
3001
0000
0010
0100
1000
0000
0002
0000
0000
0000
0003
0000
,
1000
0100
1000
2100
3001
0100
0001
0102
,
1003
0010
1000
2010
3001
0010
0001
0012
,
1003
0010
0100
0010
0100
0210
0301
1000
,
0001
1002
0013
0100
0010
0120
0100
0032
,
1003
0001
1000
1002
0103
0010
0100
0010
,
1000
0100
0010
0002
0003
0000
0000
0000
;

//--------------- dance-single - ----------------
#NOTES:
     dance-single:
     :
     Challenge:
     18:
     0,0,0,0,0:
0000
0000
0000
0000
,
0000
0000
0000
0000
,
0000
0000
0000
0000
,
0000
0000
0000
0000
,
0000
0000
0000
0000
,
0000
0000
1000
0000
1000
0000
0000
0000
0010
0000
0010
0000
0100
0001
0010
0001
,
1000
0100
0010
0000
1001
0000
0001
0010
0001
0000
1000
0010
1000
0100
1000
0001
,
0000
1000
0001
0100
0001
1000
0000
0100
0010
0000
0000
0000
1000
0000
0000
0000
,
0010
0001
0000
0010
0000
0100
1000
1000
,
0001
0100
0001
0100
0001
0100
0001
0000
0000
0000
0000
0000
0010
0000
0000
0000
,
0100
1000
0001
0000
0100
0010
0001
0001
,
0001
0010
1000
0000
0100
1000
0001
0100
,
0010
0000
1000
0000
0100
0000
0000
0000
0010
0000
0001
0000
0100
0010
1000
0001
,
0010
0100
1000
0000
1002
0000
0000
0000
0000
0000
0000
0000
1003
0000
0000
0000
,
1000
0000
0100
1000
0001
0100
0010
0100
0001
0000
0010
0000
1000
0010
0001
0000
,
0000
0000
0000
1000
0000
0000
0010
0000
0000
1000
0000
0000
0010
0000
0000
0100
0000
0000
0000
0000
0000
0000
0000
0000
1000
0000
0000
0000
0000
0000
0100
0000
0000
0000
0000
0000
0001
0000
0000
1000
0000
0000
0001
0000
1000
0000
0001
0000
,
1000
0000
0010
0000
0010
0000
1000
0001
0010
0000
0001
0100
0001
0100
0010
0000
,
0100
0000
0001
1000
0001
1000
0100
0010
0001
0010
0001
0010
0001
0000
0000
0000
,
1000
0000
0010
0000
0000
0000
0001
0010
1000
0000
0002
0000
0100
0000
0013
0000
,
0000
0000
0000
0001
0000
0000
0010
0000
0000
0001
0000
0000
1000
0000
0000
0000
0000
0000
0000
0000
0000
0000
0000
0000
1010
0000
0000
0000
0000
0000
0000
0000
0000
0000
0000
0000
0100
0000
0000
0001
0000
0000
1000
0000
0001
0000
1000
0000
,
0001
0000
0100
0000
0010
0100
1000
0100
0010
0000
0000
0100
0001
0100
0001
1000
,
0100
0000
0000
0000
0000
0000
1000
0000
0000
0010
0000
0000
0100
0000
0000
0001
0000
0000
1000
0000
0001
0000
1000
0000
0001
0000
0000
0010
0000
0000
0001
0000
0000
0010
0000
0000
0100
0000
0000
1000
0000
0000
0100
0000
0000
1000
0000
0000
,
0000
1001
1010
1001
0011
0210
0000
1300
,
0000
0000
0000
0000
0000
0000
0010
0000
0000
0000
0000
0000
0010
0000
0000
0000
0000
0000
0000
0000
0000
0000
0000
0000
0101
0000
0000
0000
0000
0000
0000
0000
0000
0000
0000
0000
0010
0000
0000
1000
0000
0000
0001
0000
1000
0000
0001
0000
,
1000
0000
0100
0000
0100
0000
0010
0001
1000
0000
0010
0100
0010
0100
0001
0000
,
0000
0000
1000
0100
0010
0100
1000
0100
0010
0001
0010
0001
1000
0000
0000
0000
,
0010
0000
0001
0010
0000
0000
0100
0000
0000
0000
0001
0010
0001
0000
0000
0000
,
1000
0000
0010
1000
0000
0000
0100
0000
0010
0001
0100
0000
0001
1000
0001
1000
,
0001
0000
0000
0000
0011
0000
0000
0000
1100
0000
0000
1001
0000
0000
1010
0000
,
0001
0000
MMMM
0000
0000
0000
1000
0100
,
1000
0000
0010
0100
0020
0000
0001
0000
0130
0000
0001
1000
0100
0000
0020
0000
,
0001
0000
0130
1000
0010
0100
0001
1000
0100
0000
0010
0001
1000
0000
0010
0000
,
0100
0000
0010
1000
0200
0000
0001
0000
0310
0000
0001
1000
0010
0000
0100
0000
,
1000
0000
0100
0001
1000
0100
0020
0000
1000
0000
0031
1000
0010
0000
0001
0000
,
0010
0000
1000
0001
0010
0000
0100
0000
0010
0000
0001
1000
0020
0000
0001
0000
,
0130
0000
0001
0010
0001
0000
1000
0000
0010
0000
0100
0001
1000
0000
0100
0000
,
0001
0000
0100
0010
0001
0000
0200
0000
0010
0000
0301
1000
0100
0000
0010
0000
,
0001
0000
0200
0000
0000
0000
0301
1000
0001
0000
0010
0100
1000
0000
0020
0000
,
0001
0000
0130
0001
1000
0000
0100
0000
0010
0000
0100
1000
0002
0000
0010
0000
,
0103
0000
0010
0100
0001
0000
0010
0000
0001
0000
1000
0010
0100
0000
0020
0000
,
0001
0000
1030
0001
0010
0000
0100
0000
1000
0000
0010
0100
0001
0000
0010
0000
,
2000
0000
0000
0000
3020
0000
0000
0000
0032
0000
0000
0000
2003
0000
0000
0000
3020
0000
0000
0000
0032
0000
0010
0003
1000
0000
0000
0000
0001
0000
0000
0000
,
0100
0010
0100
0001
1000
0000
0200
0000
0001
0000
0310
0001
1000
0000
0010
0000
,
0100
0000
0001
0010
0001
0000
0100
0000
0010
0000
1000
0100
1000
0000
0001
0000
,
0100
0000
0010
0000
1000
0000
0001
0000
0010
0100
1000
0100
0020
0000
1000
0000
,
0000
0000
0031
0000
0100
0000
0010
0000
1000
0100
0010
0001
1000
0000
0000
0000
,
0101
0100
1100
1000
,
1010
0000
1000
1000
0001
0001
1000
0000
,
1010
0010
0011
0001
,
0101
0000
0000
0000
0001
0000
1000
0001
1000
0000
0000
0000
0001
0000
0010
0000
,
1000
0010
0001
0010
1000
0010
0001
0100
,
1000
0000
0100
0000
0001
0000
0001
0000
1000
0000
1000
0000
0010
0000
0100
0001
,
1000
0000
0100
0010
0001
0100
0001
0100
0010
1000
0010
1000
0002
0000
0000
0000
,
0000
0000
0000
0000
,
0000
0000
0000
0000
,
0000
0000
0000
0000
,
1003
0000
0100
0000
1100
0000
0010
0001
1000
0010
0100
0000
0101
0000
1000
0000
,
0001
0000
0010
0000
0011
0000
0100
1000
0100
0010
0001
0000
2002
0000
3003
0000
,
1000
0000
0010
0000
1010
0000
0100
0001
1000
0100
0010
0000
0011
0000
1000
0000
,
0001
0000
0100
0000
1010
0000
0100
0001
1000
0001
1000
0000
2002
0000
3003
0000
,
0001
0000
0010
0000
0011
0000
0100
1000
0001
0100
0010
0000
1010
0000
0001
0000
,
1000
0000
0100
0000
1100
0000
0010
0001
0010
0100
1000
0000
2002
0000
3003
0000
,
0001
0000
0001
0000
0100
0000
0100
0000
1000
0100
0020
0000
1030
0000
0000
0000
,
1001
0000
1000
0000
1100
0000
0010
0001
1000
0000
0010
1000
0001
0000
0000
0000
,
1000
0000
0010
0000
1010
0000
0100
0001
0010
0100
0010
0000
0011
0000
0001
1000
,
0001
0000
0100
0000
0101
0000
0010
1000
0010
0100
0001
0000
2002
0000
3003
0000
,
1000
0000
0100
0000
1100
0000
0010
0001
0100
0010
0100
0000
0101
0000
0000
0000
,
0001
0000
0010
0000
1100
0000
0010
0000
0001
1000
0001
0000
2002
0000
3003
0000
,
1010
1000
1000
1100
1000
1000
1001
0001
,
0101
0001
0001
0011
0001
0001
1001
1000
,
1000
0100
0001
0100
1000
0010
0001
0010
,
1000
0100
0001
0100
1000
0100
0010
0001
1000
0010
0100
0001
1000
0010
0001
0010
,
0000
0000
1000
0100
0010
0200
1000
0301
,
0100
0010
0001
0200
1000
0000
0301
0010
,
0100
0000
1000
0000
0001
0000
0100
0000
0010
0000
0100
0001
0020
0000
0000
0000
,
0130
0000
1000
0010
0100
0001
0010
0100
0010
0000
0001
0000
1000
0000
0020
0000
,
0001
1030
0010
0100
0002
0000
1003
0100
,
0010
0200
0000
0001
1300
0010
0100
0001
,
1000
0000
0100
0000
0010
0000
0200
0000
1000
0000
0310
0001
0100
0000
0020
0000
,
0000
0000
1030
0100
0010
0000
0001
0100
0001
0000
0020
0000
0100
0000
0000
0000
,
0031
0010
1000
0020
0002
0003
0031
1000
,
0010
0200
0000
1000
0301
1000
0100
0010
,
0001
0000
1000
0000
0010
0000
0200
0000
0001
0000
0301
1000
0100
0000
0010
0000
,
0001
0000
0100
0000
0010
0000
1000
0100
0010
0001
0010
0001
1000
0000
0000
0000
,
1000
0000
1000
0000
0001
0000
0100
0000
0010
1000
0010
0000
0100
0000
0020
0000
,
0000
0001
1030
0010
0100
1000
0100
0001
,
1000
0000
0100
0000
0010
0000
0001
0000
0100
0000
0010
1000
0200
0000
0000
0000
,
0310
0000
0100
0000
1000
0000
0001
1000
0001
0000
0000
0000
1000
0000
0100
0000
,
0010
0002
1003
0100
0010
0002
1003
0100
,
0010
0000
0002
0000
1003
0000
0100
0010
0100
1000
0004
4000
0000
0003
3001
0000
,
1100
0000
1100
0000
1100
0000
2200
3300
0011
0000
0011
0000
0011
0000
0022
0033
,
1010
0000
1010
0000
1010
0000
2020
3030
0101
0000
0101
0000
0101
0000
0001
0000
,
1000
0000
0000
0010
0000
0000
0100
0000
0001
0000
0100
0000
0001
0000
0000
0000
0000
0000
1001
0000
0000
0000
0000
0000
1001
0000
0000
0000
0000
0000
2002
0000
0000
3003
0000
0000
0110
0000
0000
0000
0000
0000
0110
0000
0000
0000
0000
0000
,
0110
0000
0000
0000
0000
0000
0220
0000
0000
0330
0000
0000
1001
0000
0000
0000
0000
0000
1001
0000
0000
0000
0000
0000
1001
0000
0000
0000
0000
0000
2002
0000
0000
3003
0000
0000
1000
0000
0000
0000
0000
0000
0010
0000
1000
0000
0010
0000
,
1000
0001
0010
1000
0001
0100
1000
0001
,
1000
0100
0010
0002
0003
0000
0000
0000
;
