#VERSION:0.83;
#TITLE:roUwUlette;
#SUBTITLE:;
#ARTIST:Z-I-v Sound Team "Karl with a K";
#TITLETRANSLIT:;
#SUBTITLETRANSLIT:;
#ARTISTTRANSLIT:;
#GENRE:;
#ORIGIN:;
#CREDIT:;
#BANNER:roUwUlette banner.png;
#BACKGROUND:roUwUlette bg.png;
#PREVIEWVID:;
#JACKET:roUwUlette jk.png;
#CDIMAGE:;
#DISCIMAGE:;
#LYRICSPATH:;
#CDTITLE:;
#MUSIC:roUwUlette.ogg;
#OFFSET:-0.025000;
#SAMPLESTART:14.944242;
#SAMPLELENGTH:11.360947;
#SELECTABLE:YES;
#BPMS:0.000=169.000;
#STOPS:;
#DELAYS:;
#WARPS:;
#TIMESIGNATURES:0.000=4=4;
#TICKCOUNTS:0.000=4;
#COMBOS:0.000=1;
#SPEEDS:0.000=1.000=0.000=0;
#SCROLLS:0.000=1.000;
#FAKES:;
#LABELS:0.000=Song Start;
#BGCHANGES:;
#KEYSOUNDS:;
#ATTACKS:
;

//---------------dance-single - XO DS- JA- BU- RH STR[1|3|2@169] JU-----------------
#NOTEDATA:;
#CHARTNAME:;
#STEPSTYPE:dance-single;
#DESCRIPTION:XO DS- JA- BU- RH STR[1|3|2@169] JU-;
#CHARTSTYLE:;
#DIFFICULTY:Challenge;
#METER:18;
#RADARVALUES:0.834739,1.110709,0.060551,0.105964,1.120194,772.000000,764.000000,8.000000,14.000000,0.000000,0.000000,0.000000,0.000000,0.000000,0.834739,1.110709,0.060551,0.105964,1.120194,772.000000,764.000000,8.000000,14.000000,0.000000,0.000000,0.000000,0.000000,0.000000;
#CREDIT:OwOaww with an OwO;
#NOTES:
// measure 0
0000
0000
0000
0000
,  // measure 1
0000
0000
0000
0000
,  // measure 2
0000
0000
0000
0000
,  // measure 3
0000
0000
0000
0000
,  // measure 4
0000
0000
0000
0000
,  // measure 5
0000
0000
0000
0000
,  // measure 6
0000
0000
1000
1000
,  // measure 7
0001
0001
0010
0010
,  // measure 8
0100
0000
0100
0000
1000
0010
1000
0010
,  // measure 9
0100
0010
0100
0010
0100
0001
0100
0002
2000
0000
0000
0000
3003
0000
0000
0000
,  // measure 10
0110
0000
0000
0000
0110
0000
0000
0000
1000
0010
1000
0000
0010
0100
0000
0010
,  // measure 11
0000
0100
0001
0100
0000
0001
0010
0001
0000
0010
0100
0000
0010
0000
0100
1000
,  // measure 12
0100
0000
1000
0100
1000
0000
0100
0010
0000
0100
0000
0010
0001
0010
0000
0001
,  // measure 13
0100
0001
0000
0100
0010
0000
0100
0000
1000
0100
0010
0000
1000
0010
1000
0000
,  // measure 14
0100
0010
0000
0100
0000
0010
0001
1000
0000
0001
0010
0100
0000
0010
0100
0000
,  // measure 15
0001
0000
0100
0010
0100
0000
1000
0001
0100
0000
0001
0010
0000
0100
0000
0010
,  // measure 16
1000
0010
0000
0100
1000
0100
0000
0010
0001
0000
0100
0000
1000
0100
0001
0000
,  // measure 17
0001
0100
0001
0000
1000
0010
0000
0100
0000
0010
1000
0010
0000
1000
0100
1000
,  // measure 18
0000
0100
0010
0000
0100
0000
0010
0001
0010
0000
0001
1000
0001
0000
0010
0001
,  // measure 19
0000
0100
0000
0010
1000
0100
0000
1000
0010
0100
0000
0010
0100
0000
0010
0000
,  // measure 20
0001
0010
0100
0000
0001
0100
0001
0000
0010
0100
0000
0010
0000
0100
1000
0001
,  // measure 21
0000
1000
0100
0010
0000
1000
0010
0000
1000
0000
0010
0100
0010
0000
0001
1000
,  // measure 22
0010
0000
1000
0100
0000
0010
0000
0100
0001
0100
0000
0010
0001
0010
0000
0100
,  // measure 23
1000
0000
0010
0000
0001
0010
1000
0000
0001
1000
0001
0000
1000
0001
0000
0010
,  // measure 24
0000
0001
1000
0001
0000
0100
0010
0100
0000
0010
0100
0000
0001
0000
0100
0010
,  // measure 25
0100
0000
0001
0100
0001
0000
0100
0001
0000
1000
0000
0001
0100
0001
0000
1000
,  // measure 26
0100
1000
0000
0100
1000
0000
1000
0000
0001
0100
0001
0000
1000
0001
1000
0000
,  // measure 27
0001
1000
0000
0010
0000
1000
0001
1000
0000
0100
0010
0100
0000
0010
0100
0000
,  // measure 28
1000
0000
0100
0010
0100
0000
1000
0010
1000
0000
0010
1000
0000
0001
0000
1000
,  // measure 29
0010
1000
0000
0001
0010
0001
0000
0010
0001
0000
0001
0000
1000
0010
1000
0000
,  // measure 30
1000
0100
0010
0000
0100
0001
0000
0100
0000
1000
0001
1000
0000
0100
0010
0100
,  // measure 31
0000
0010
0100
0000
1000
0000
0100
0010
0100
0000
1000
0100
1000
0000
0100
1000
,  // measure 32
0000
0001
0000
1000
0100
1000
0000
0001
0100
0001
0000
0100
0001
0000
0001
0000
,  // measure 33
1000
0100
1000
0000
0001
0100
0010
0000
0100
1000
0000
0100
0000
0001
1000
0001
,  // measure 34
0000
0100
0010
0100
0000
0010
0100
0000
0001
0000
0100
0010
0100
0000
0001
0010
,  // measure 35
0001
0000
0010
0001
0000
1000
0000
0001
0010
0001
0000
1000
0010
1000
0000
0010
,  // measure 36
1000
0000
1000
0000
0001
0010
0001
0000
0220
0000
0000
0000
0000
0000
0000
0000
,  // measure 37
0000
0000
0000
0000
0330
0000
0000
0000
1000
0100
0010
0001
1000
0010
0100
0001
,  // measure 38
0100
0001
0100
0001
0100
0001
0100
0000
0000
0010
0000
0000
1000
0000
0000
0100
0000
0000
0100
0000
0000
0000
0000
0000
,  // measure 39
0010
0100
0000
0001
0000
0100
0100
0100
,  // measure 40
0000
0010
0001
0100
0000
0010
0100
0000
,  // measure 41
1000
0000
0100
0001
0010
0000
1000
0010
,  // measure 42
0100
0000
0010
0100
0000
0001
0000
0100
,  // measure 43
1000
0010
0000
0001
0010
0100
0000
0010
,  // measure 44
0100
0000
1000
0000
0110
0010
0010
0000
,  // measure 45
1000
0001
0100
0000
0010
0100
0000
1000
,  // measure 46
0000
0100
0100
0100
0000
0010
1000
0100
,  // measure 47
0000
0010
0100
0000
0001
0000
0100
1000
,  // measure 48
0010
0000
0001
1000
0100
0000
0010
0100
,  // measure 49
0000
1000
0000
0100
0001
0010
0000
1000
,  // measure 50
0001
0100
0000
0010
0100
0000
0001
0000
,  // measure 51
0110
0000
0010
0000
0010
0000
0000
0000
0100
1000
0100
1000
0000
0000
0100
0010
,  // measure 52
0100
0010
0100
0010
0000
0000
0100
1000
0001
1000
0001
1000
0000
0000
0001
1000
,  // measure 53
0010
0000
1000
0100
0000
0000
0100
1000
0001
0100
0001
0100
0000
0000
0010
1000
,  // measure 54
0001
0010
0100
0010
0000
0000
0001
1000
0001
0000
1000
0001
0010
0001
1000
0001
,  // measure 55
0010
0000
0001
0100
0010
0100
0010
0000
0001
0010
0100
0000
0001
0100
0010
0000
,  // measure 56
0100
0010
1000
0000
0100
0010
1000
0000
0010
0001
1000
0000
0010
0100
1000
0100
,  // measure 57
1000
0100
1000
0100
1000
0100
0010
0100
0001
0010
0100
0001
0100
0000
0010
0000
,  // measure 58
0120
0000
1000
0100
,  // measure 59
0032
0000
2003
0000
,  // measure 60
3020
0000
0100
0000
,  // measure 61
2030
0000
3002
0000
,  // measure 62
0023
0000
0100
0000
,  // measure 63
0032
0000
0203
0000
,  // measure 64
0320
0000
0001
0100
,  // measure 65
1030
0001
1000
0001
1000
0100
1000
0100
0010
0001
0010
0001
1000
0010
1000
0010
,  // measure 66
1000
0000
0001
0100
0010
0000
0000
0000
1000
0000
1000
0000
0001
0000
0000
0000
,  // measure 67
0100
0000
0000
0000
1000
0000
0000
0000
0100
0010
0100
0000
0001
0000
0001
0000
,  // measure 68
0010
0000
0100
0010
0100
0000
0000
0000
0001
0000
0001
0000
0100
0000
0010
0000
,  // measure 69
0001
0000
0000
0000
1000
0000
0000
0000
0001
0100
0001
0000
1000
0000
0100
0000
,  // measure 70
0010
0000
0001
1000
0010
0000
1000
0000
0010
1000
0001
0000
0010
0000
0001
0000
,  // measure 71
0010
0000
0001
0100
0010
0000
0100
0000
0010
1000
0100
0000
0001
0000
0100
0000
,  // measure 72
0010
0100
0010
0100
0010
0100
0010
0100
0010
0001
0010
0001
0010
0001
0010
0001
,  // measure 73
0010
1000
0010
1000
0010
0100
0010
0100
1000
0001
0100
0001
0010
0100
1000
0001
,  // measure 74
1000
0010
0100
0001
1000
0001
1000
0001
0100
0001
1000
0100
0010
0100
0010
0001
,  // measure 75
1000
0010
0100
1000
0100
0010
1000
0001
0010
0100
0001
0100
1000
0000
0000
0000
,  // measure 76
0001
0100
0001
0000
0100
0010
0000
0100
0000
0010
1000
0010
0000
1000
0100
1000
,  // measure 77
0000
0100
0010
0000
0100
0000
0010
0001
0010
0000
0001
0010
0001
0000
0010
0100
,  // measure 78
0000
0010
0000
0100
1000
0100
0000
1000
0010
1000
0000
0010
0001
0000
0010
0000
,  // measure 79
0100
0010
0100
0000
1000
0100
0010
0000
0100
0010
0000
0100
0000
0010
1000
0001
,  // measure 80
0000
1000
0100
0010
0000
1000
0010
0000
0100
0000
1000
0100
0010
0000
0001
1000
,  // measure 81
0010
0000
1000
0100
0000
0010
0000
0100
0001
0100
0000
0010
0001
0010
0000
0100
,  // measure 82
1000
0000
0010
0000
0001
0010
1000
0000
0001
0000
0010
0000
1000
0000
0000
0000
,  // measure 83
1010
0010
0000
0100
0000
0010
0100
0010
,  // measure 84
1000
0010
0001
1000
0000
0001
0100
1000
,  // measure 85
0100
0000
0000
0000
0010
0000
0100
0010
0100
0000
0000
0000
0001
0100
0001
1000
,  // measure 86
0010
1000
0001
1000
0100
0010
0001
1000
0001
0100
0010
1000
0001
0010
0100
0010
,  // measure 87
0001
0010
0100
1000
0001
0100
0001
1000
0100
0010
0100
0010
0001
0100
0001
0100
,  // measure 88
0010
1000
0100
0010
1000
0010
0100
0000
0010
0000
0001
0000
1001
0000
1000
0001
;

//---------------dance-single - ----------------
#NOTEDATA:;
#CHARTNAME:;
#STEPSTYPE:dance-single;
#DESCRIPTION:;
#CHARTSTYLE:;
#DIFFICULTY:Beginner;
#METER:4;
#RADARVALUES:0.158946,0.235108,0.030276,0.189222,0.000000,147.000000,143.000000,4.000000,25.000000,0.000000,0.000000,0.000000,0.000000,0.000000,0.158946,0.235108,0.030276,0.189222,0.000000,147.000000,143.000000,4.000000,25.000000,0.000000,0.000000,0.000000,0.000000,0.000000;
#CREDIT:Karl with a K;
#NOTES:
0000
0000
0000
0000
,
0000
0000
0000
0000
,
0000
0000
0000
0000
,
0000
0000
0000
0000
,
0000
0000
0000
0000
,
0000
0000
0000
0000
,
0000
0000
2000
0000
,
0000
0000
0000
0000
,
0000
0000
0000
0000
,
0000
0000
3000
0000
,
0000
0000
0001
0001
,
0001
0000
1000
1000
,
1000
0000
0010
0010
,
0010
0010
0000
1000
,
1000
1000
0000
0001
,
0001
0001
0000
0010
,
0010
0010
0010
0000
,
0001
0001
0001
0000
,
1000
1000
1000
0000
,
0100
0100
0100
0100
,
0000
1000
1000
1000
,
0000
0001
0001
0001
,
0000
0100
0100
0100
,
0100
0000
0010
0000
,
0010
0000
1000
0000
,
1000
0000
0001
0000
,
0001
0000
0001
0001
,
0000
0001
0000
1000
,
0000
1000
0000
0100
,
0000
0100
0000
0010
,
0010
0000
0010
0000
,
0001
0000
0001
0000
,
1000
0000
1000
0000
,
1000
1000
0000
1000
,
0000
0001
0000
0001
,
0000
0100
0000
0100
,
0000
0100
0200
0000
,
0000
0000
0000
0000
,
0000
0300
0002
0000
,
0000
0003
0020
0000
,
0000
0030
0002
0000
,
0000
0000
0003
2000
,
0000
0000
3000
0020
,
0000
0000
0030
2000
,
0000
0000
0000
3000
,
2000
0000
0000
3000
,
0002
0000
0000
0003
,
0200
0000
0000
0000
,
0300
0002
0000
0000
,
0003
2000
0000
0000
,
3000
0200
0000
0000
,
0000
0300
0020
0000
,
0000
0000
0000
0000
,
0000
0030
0020
0000
,
0000
0000
0030
0020
,
0000
0000
0000
0000
,
0000
0000
0000
0000
,
0000
0000
0030
0000
,
2002
0000
0000
0000
,
0000
0000
0000
3003
,
0220
0000
0000
0000
,
0000
0000
0000
0330
,
2002
0000
0000
0000
,
0000
0000
0000
3003
,
0220
0000
0000
0000
,
0000
0000
0000
0330
,
1000
0000
0001
0000
,
0010
0000
0001
0000
,
1000
0000
0010
0000
,
1000
0000
0001
0000
,
1000
1000
1000
0000
,
0001
0001
0001
0000
,
0100
0100
0100
0000
,
0010
0000
0100
0000
,
0000
0000
0000
0000
,
0000
0000
0000
0000
,
0001
0001
0001
0000
,
1000
1000
1000
0000
,
0100
0100
0100
0100
,
0000
1000
1000
1000
,
0000
0001
0001
0001
,
0000
0100
0100
0100
,
0100
0000
0001
0000
,
0001
0000
0100
0000
,
0100
0000
0001
0000
,
0001
0001
0000
1000
,
0000
1000
0000
0100
,
0000
0100
0000
1000
,
0000
1000
1000
1000
;

//---------------dance-single - XO DS JA RH JU-----------------
#NOTEDATA:;
#CHARTNAME:;
#STEPSTYPE:dance-single;
#DESCRIPTION:XO DS JA RH JU-;
#CHARTSTYLE:;
#DIFFICULTY:Hard;
#METER:15;
#RADARVALUES:0.614160,0.740473,0.128671,0.204360,0.310324,568.000000,551.000000,17.000000,27.000000,0.000000,0.000000,0.000000,0.000000,0.000000,0.614160,0.740473,0.128671,0.204360,0.310324,568.000000,551.000000,17.000000,27.000000,0.000000,0.000000,0.000000,0.000000,0.000000;
#CREDIT:Karl with a K;
#NOTES:
0000
0000
0000
0000
,
0000
0000
0000
0000
,
0000
0000
0000
0000
,
0000
0000
0000
0000
,
0000
0000
0000
0000
,
0000
0000
0000
0000
,
0000
0000
1000
0100
,
1000
0100
0010
0001
,
0010
0000
0001
0000
1000
0010
1000
0010
,
0100
0001
0100
0001
2000
0000
0000
0000
,
3001
0000
0000
0000
0110
0000
0000
0000
1000
0000
0100
0000
0010
0100
0000
0000
,
1000
0000
0010
0000
0100
0000
0000
0000
0001
1000
0000
0001
0100
0000
0000
0000
,
0010
0100
0100
0001
1002
0000
0100
0000
,
2003
0000
0100
0000
3200
0000
1000
0000
0310
0000
0001
0000
1000
0001
0100
0000
,
0001
0000
0100
1000
0100
0010
0100
0001
,
0010
0000
0100
0000
1000
0000
0100
0010
0100
0000
1000
0000
0012
0000
0000
0000
,
0000
0000
0103
0000
0010
0000
0000
1000
0200
0000
0010
0000
0301
0000
0100
0000
,
1000
0000
1000
0000
0001
0000
0000
0001
0000
0100
0010
0100
0000
0001
0000
0001
,
1000
1000
0001
0001
0010
0010
0100
0100
,
1000
0100
0000
0010
0001
0000
0001
0000
1000
0001
0000
0001
0100
0000
0010
0000
,
1000
0000
0100
0010
0001
0000
0100
0000
1000
0000
0100
0000
0001
0000
0100
0000
,
0010
1000
0010
1000
0020
0000
0000
0000
0100
0000
0000
0000
1000
0000
0000
0000
,
0100
0000
0000
0000
1030
0100
0000
0010
0000
0100
0000
0010
0001
0000
0100
0010
,
0100
0000
0001
0000
0010
0000
1000
0000
0020
0000
0000
0000
1030
0000
0000
0010
,
0000
0001
0000
0001
0000
0100
0010
0000
0100
0000
0000
0000
0100
0000
0000
0000
,
0010
0000
0100
0010
0000
0000
1000
0000
1000
0001
0000
0010
0001
0000
0000
0001
,
0010
0001
0000
1000
0010
0000
0000
0000
0110
0000
0000
0000
0001
0000
0100
0000
,
0001
0000
0000
0001
0010
0000
0100
0000
0010
0000
0000
0000
0001
0000
0100
0000
,
0001
0000
0000
0001
1000
0000
0100
0000
0010
0000
0100
0010
0000
0001
0000
0100
,
0010
0100
0000
0010
0100
0000
0010
0000
1000
0000
0100
0000
0010
0000
0001
0000
,
1000
0000
1000
0000
0001
0000
0000
1000
0000
0100
1000
0000
0000
0001
0000
0001
,
0000
1000
0001
0000
0100
0000
0001
1000
0001
0000
0100
0000
0001
0000
0010
0000
,
0001
0000
0100
0010
0000
0100
0000
0001
1000
0100
0000
0010
0001
0000
0010
0000
,
0001
0100
0000
0000
1000
0000
0100
0000
0010
0000
1000
0000
0000
0100
0010
0001
,
0000
1000
0001
1000
0000
0001
0100
0000
0010
0000
1000
0000
1000
0000
0010
0000
,
0010
0000
1000
0001
0000
1000
0000
0001
0100
0001
0000
1000
0100
1000
0000
0001
,
0100
0010
0110
0000
2002
0000
0000
0000
,
0000
0000
3003
0000
1000
0100
0010
0001
,
0100
0010
1000
0000
1000
0100
1000
0000
,
0010
0100
0000
0001
0000
0100
0001
0100
,
0000
0010
0100
0001
0000
0010
0100
0000
,
1000
0000
0100
1000
1100
0000
1000
0010
,
1000
0000
0100
0010
0000
0001
0000
0010
,
0001
0010
0000
0100
0010
0001
0000
0100
,
0010
0000
1000
0000
0010
1000
1001
0000
,
1000
0100
1000
0000
1000
0001
0000
0010
,
0000
0001
0010
0001
0000
1000
0001
0010
,
0000
1000
0010
0000
0001
0000
0100
0001
,
0101
0000
0001
0100
0001
0000
0001
1000
,
0000
0010
0000
1000
0010
1000
0000
0001
,
1000
0010
0000
0001
0010
0000
0100
0000
,
0001
0100
0110
0000
2000
0100
0000
0000
,
0100
0100
0000
0000
0100
0100
0000
0100
,
3001
0100
0000
0001
0002
0100
0000
0000
,
0100
0000
0100
0000
0000
0000
0000
0000
0100
0000
0000
0000
1003
0010
1000
0000
,
0200
0010
0001
1000
,
0010
0000
0001
0000
0310
0000
0010
0001
,
1000
0010
1000
0001
0010
0001
1001
0000
,
2010
0000
0000
0001
,
3200
0000
0000
0300
,
0012
0000
0000
1000
0000
0000
0203
0000
,
0000
0320
0000
0000
1030
0000
0100
0000
,
2100
0000
0001
0000
0010
0000
3100
1000
,
0000
0020
0000
0000
0000
0000
0030
0000
,
0102
0000
1000
0000
0010
0000
0103
0001
,
0010
0000
0100
0000
0001
0000
1000
0000
0010
0100
0010
0000
0001
0000
0100
0000
,
0010
0000
1000
0010
1000
0000
0000
0000
0100
0000
1000
0000
0010
0000
0000
0000
,
0001
0000
0000
0000
0010
0000
1000
0000
0100
0010
0100
0000
0010
0000
0100
0000
,
1000
0000
0010
1000
0010
0000
0000
0000
0100
0000
0100
0000
0010
0000
0001
0000
,
1000
0000
0000
0000
0100
0000
0000
0000
0010
1000
0010
0000
1000
0000
0100
0000
,
0010
0001
0001
0100
0010
1000
1000
0100
,
1000
0010
0001
0010
1000
0001
0010
1000
,
0010
0100
0010
0000
0100
0000
1000
0000
0001
0010
0001
0000
0100
0000
0001
0000
,
0020
0001
0130
1000
0020
1000
0130
0001
,
1000
0001
1000
0000
0010
0000
0001
0000
1000
0000
0001
0000
0010
0000
1000
0000
,
0001
0010
1000
0001
1000
0010
0001
0000
,
1000
0000
0010
0000
0100
0010
0000
0000
1000
0000
0100
0000
0010
0000
0000
0000
,
0001
1000
0000
0001
0010
0000
0000
0000
0100
0000
0010
0000
0010
0000
0001
0000
,
1002
0000
0010
0000
2003
0010
3020
1000
,
0130
0000
0001
0000
1000
0001
0010
0000
0001
0000
0000
0000
0010
0000
1000
0000
,
0010
0100
0010
0001
0100
0010
1000
0010
,
1000
0000
0000
0000
0102
0000
0000
0000
0010
0000
0013
0000
0100
0000
0000
1000
,
0010
0100
0001
0010
0001
0100
0001
0000
,
0010
0100
0000
1000
0000
0100
1000
0100
,
0000
0010
0100
1000
0000
0010
0100
0000
,
0001
0000
0000
0000
0100
0000
0001
0000
0100
0000
0001
0100
0001
0000
0010
0000
,
0001
0100
0010
0100
0010
1000
0100
0010
,
0001
0000
0010
0100
0010
0000
0100
0000
1000
0000
0001
0000
0100
0000
0010
0000
,
0100
0000
1000
0100
0010
0000
0100
0000
0010
0000
1000
0000
0001
0000
1000
0001
;

//---------------dance-single - XO- DS JA----------------
#NOTEDATA:;
#CHARTNAME:;
#STEPSTYPE:dance-single;
#DESCRIPTION:XO- DS JA;
#CHARTSTYLE:;
#DIFFICULTY:Medium;
#METER:11;
#RADARVALUES:0.430345,0.538147,0.113533,0.257342,0.000000,398.000000,383.000000,15.000000,34.000000,0.000000,0.000000,0.000000,0.000000,0.000000,0.430345,0.538147,0.113533,0.257342,0.000000,398.000000,383.000000,15.000000,34.000000,0.000000,0.000000,0.000000,0.000000,0.000000;
#CREDIT:Karl with a K;
#NOTES:
0000
0000
0000
0000
,
0000
0000
0000
0000
,
0000
0000
0000
0000
,
0000
0000
0000
0000
,
0000
0000
0000
0000
,
0000
0000
0000
0000
,
0000
0000
1000
0001
,
1000
0001
0100
0010
,
0100
0000
0010
0000
1000
0100
1000
0000
,
0001
0100
0001
0000
2002
0000
3000
0000
,
1003
0001
1000
0100
,
1000
0010
0100
0000
0010
0000
1000
0000
,
0100
0100
0010
0001
,
0010
0100
0010
0000
1000
0010
0001
0000
,
1000
0000
0010
0000
0100
0001
0100
0010
,
1000
0001
1000
0000
1001
0000
0220
0000
,
0330
0000
1001
0000
1000
0100
0010
0100
,
1000
0000
0010
0000
0100
0001
0100
0000
,
0001
1000
0001
0000
0001
1000
0001
0000
,
0020
0000
0130
0010
0001
0100
0010
1000
,
0001
0020
0000
0031
0001
0100
0001
1000
,
1000
1000
0020
0000
0000
0000
1030
0100
,
0010
0002
0203
0320
,
1030
0100
0010
0000
0001
1000
0001
0000
,
0010
0100
0010
0000
0100
0000
0100
0000
,
0010
0001
0002
1000
,
1003
0000
0100
0010
0001
0000
1000
0001
,
1000
0000
0010
0100
0010
0000
1000
0001
,
1000
0000
0020
0000
0000
1000
0000
0000
,
0100
0000
0000
1000
0000
0000
0230
0000
,
0302
0000
1000
1003
,
0200
0000
0310
0001
,
0100
0010
1000
0000
1000
0000
0100
0010
,
0001
0000
0001
0000
0100
0010
1000
0100
,
1000
0000
0001
0010
0001
0000
1000
0010
,
1000
0000
0001
0100
0001
0000
1000
0000
,
0001
1001
2002
0000
,
0000
0000
3003
0000
0002
0000
0000
0023
,
0000
0230
1300
0001
,
0100
0001
0000
0100
0000
0001
0100
0001
,
0000
0001
0000
1000
0000
0100
1000
0000
,
0100
0000
1000
0100
1000
0000
1000
0000
,
0001
0000
0010
0001
0000
0010
0000
0001
,
0010
0001
0000
0001
0000
1000
0000
0010
,
1000
0000
0010
0000
1000
1000
1000
0000
,
0100
0000
0010
0000
0001
0010
0000
0001
,
0000
1000
0001
1000
0000
0001
0000
0100
,
0000
0010
0100
0000
0001
0000
0100
0001
,
0100
0000
0100
0000
0010
0000
1000
0010
,
0000
1000
0000
0001
1000
0001
0000
1000
,
0000
0100
0000
0010
0100
0000
1000
0000
,
0010
0010
0010
0000
1000
2000
0000
0000
,
3001
0002
0000
0000
1003
2000
0000
0000
,
0000
0000
0000
0000
3010
0020
0000
0000
,
0130
0200
0000
0000
0310
0000
0010
1000
,
0100
0200
0000
0000
0310
0000
0001
0000
,
0100
0010
1000
0100
,
0001
0001
0100
1000
,
1002
0000
0100
0000
,
0203
0000
0010
0000
,
0320
0000
1000
0000
,
2030
0000
0100
0000
,
3200
0000
0010
0000
,
0320
0000
0001
0000
,
0032
0000
1000
0000
,
0013
1000
0010
0001
,
1000
0000
0010
0000
0100
0010
0100
0000
,
0001
0000
0010
0000
0100
0010
0100
0010
,
0001
0000
0100
0000
0010
0100
0010
0000
,
1000
0000
0100
0000
0010
0100
0010
0100
,
0010
0011
0001
0101
,
0100
0110
0010
1010
,
0001
0100
0001
0000
1000
0100
1000
0000
,
0010
1000
0010
0000
0001
0010
1000
0000
,
0010
0000
0010
0100
0010
0000
0100
0000
,
0001
0010
0020
0130
,
1000
0000
0010
0000
1000
0100
0010
0000
,
0100
1000
0010
0010
,
0100
0000
0001
0000
0100
0010
0100
0000
,
1000
0100
0001
0000
1000
0000
0100
0000
,
0010
0001
0010
0000
0001
1000
0001
0000
,
1001
0110
0110
1001
,
0001
0100
1000
0100
0001
0001
1000
0000
,
0100
1000
0000
0100
0000
1000
0100
1000
,
0000
1000
1000
0001
0000
0100
0001
0000
,
0100
0000
0001
0100
0001
0000
0001
1000
,
0001
0000
0010
0001
0010
0000
0001
1000
,
0001
0000
1000
0010
1000
0000
0010
0100
,
0010
1000
0001
0010
0100
1000
0010
0100
;

//---------------dance-single - ----------------
#NOTEDATA:;
#CHARTNAME:;
#STEPSTYPE:dance-single;
#DESCRIPTION:;
#CHARTSTYLE:;
#DIFFICULTY:Easy;
#METER:7;
#RADARVALUES:0.272480,0.369976,0.113533,0.174084,0.000000,252.000000,237.000000,15.000000,23.000000,0.000000,0.000000,0.000000,0.000000,0.000000,0.272480,0.369976,0.113533,0.174084,0.000000,252.000000,237.000000,15.000000,23.000000,0.000000,0.000000,0.000000,0.000000,0.000000;
#CREDIT:Karl with a K;
#NOTES:
0000
0000
0000
0000
,
0000
0000
0000
0000
,
0000
0000
0000
0000
,
0000
0000
0000
0000
,
0000
0000
0000
0000
,
0000
0000
0000
0000
,
0000
0000
1000
0000
,
1000
0000
0001
0000
,
0001
0000
1000
1000
,
0001
0001
2002
0000
,
3003
0000
1000
0100
,
0010
0001
1000
1000
,
0010
0010
0100
0010
,
0100
0001
0010
0001
,
0100
0010
1000
0001
,
0001
0010
0010
0100
,
0010
0100
1000
0010
,
1000
0010
0100
0001
,
1000
1000
0100
0100
,
0010
0100
0010
0001
,
0100
0001
0010
0100
,
1000
0001
0001
0100
,
0100
0010
0100
0010
,
1000
0100
0020
0000
,
0031
1000
0010
0010
,
1000
0001
0100
0001
,
1000
0100
1000
0020
,
0000
1030
0001
0010
,
0010
0001
1000
0100
,
1000
0001
0100
0001
,
0200
0000
0301
1000
,
0100
0100
1000
0001
,
0010
0001
1000
0010
,
1000
0200
0000
1300
,
0001
0100
0100
0001
,
1000
0010
1000
0001
,
0010
0001
2002
0000
,
0000
3003
0020
0000
,
0000
0030
1001
0000
,
1000
0000
0010
0000
,
0100
0000
0001
0000
,
0010
0000
0100
1001
,
0000
1000
0000
0100
,
0000
0010
0000
0001
,
0000
0100
0000
0010
,
1001
0000
0001
0000
,
0010
0000
0100
0000
,
1000
0000
0010
0000
,
0100
1001
0000
0001
,
0000
0100
0000
0010
,
0000
1000
0000
0100
,
0000
0010
0020
0000
,
0000
0000
0000
0000
,
0000
0000
0032
0000
,
0000
0000
0000
0203
,
0000
0000
0000
0000
,
0000
0000
0000
0000
,
0000
0000
0000
0300
,
2002
0000
0000
0000
,
0000
0000
0000
3003
,
0220
0000
0000
0330
,
2002
0000
0000
3003
,
2020
0000
0000
0000
,
0000
0000
0000
3030
,
0022
0000
0000
0033
,
1100
1000
0001
0101
,
1000
0010
0100
0010
,
1000
0100
0010
0001
,
0001
0100
0010
0100
,
0001
0010
0100
1000
,
0001
0001
1000
1000
,
0010
0010
0100
0001
,
1000
1000
0100
0100
,
0010
0010
0001
0001
,
1000
0010
0100
0001
,
0100
0010
2000
0000
,
3001
0010
0100
1000
,
0001
0001
0100
0100
,
0010
0100
0010
1000
,
0100
1000
0010
0100
,
0001
1000
1000
0100
,
0100
0010
0100
0010
,
0001
0100
1001
0000
,
0001
0000
0100
0000
,
0010
0000
1000
0000
,
0100
0000
0010
1001
,
1000
0001
1000
0010
,
1000
0100
1000
1000
,
0001
0000
0010
0000
0001
0000
0100
0001
;
