#VERSION:0.83;
#TITLE:rainbow guitar weeps;
#SUBTITLE:;
#ARTIST:dj TAKA;
#TITLETRANSLIT:;
#SUBTITLETRANSLIT:;
#ARTISTTRANSLIT:;
#GENRE:;
#ORIGIN:;
#CREDIT:;
#BANNER:rainbow guitar weeps.png;
#BACKGROUND:rainbow guitar weeps-bg.png;
#PREVIEWVID:;
#JACKET:rainbow guitar weeps-jacket.png;
#CDIMAGE:;
#DISCIMAGE:;
#LYRICSPATH:;
#CDTITLE:CDtitle.png;
#MUSIC:rainbow guitar weeps.ogg;
#OFFSET:0.000000;
#SAMPLESTART:23.846001;
#SAMPLELENGTH:13.125000;
#SELECTABLE:YES;
#BPMS:0.000=156.000;
#STOPS:;
#DELAYS:;
#WARPS:;
#TIMESIGNATURES:0.000=4=4;
#TICKCOUNTS:0.000=4;
#COMBOS:0.000=1;
#SPEEDS:0.000=1.000=0.000=0;
#SCROLLS:0.000=1.000;
#FAKES:;
#LABELS:0.000=Song Start;
#BGCHANGES:;
#KEYSOUNDS:;
#ATTACKS:
;

//---------------dance-single - ----------------
#NOTEDATA:;
#CHARTNAME:;
#STEPSTYPE:dance-single;
#DESCRIPTION:;
#CHARTSTYLE:;
#DIFFICULTY:Easy;
#METER:7;
#RADARVALUES:0.316611,0.425791,0.184690,0.321200,0.000000,276.000000,253.000000,23.000000,40.000000,0.000000,0.000000,0.000000,0.000000,0.000000,0.316611,0.425791,0.184690,0.321200,0.000000,276.000000,253.000000,23.000000,40.000000,0.000000,0.000000,0.000000,0.000000,0.000000;
#CREDIT:Pandemonium X;
#NOTES:
0000
0000
0000
0000
,
0000
0000
0000
0000
,
0000
0000
0000
0000
,
0000
0000
0000
0000
,
0001
0000
0000
0000
,
0100
0000
0000
0000
,
0010
0000
0000
0000
,
1000
0000
0000
0000
,
1000
0000
0001
0000
0010
0001
0010
0000
,
0001
0000
0100
0000
0010
1000
0010
0000
,
1000
0000
0001
0000
0100
0001
0100
0000
,
0001
0000
1000
0000
0100
1000
0100
0000
,
1000
1001
0001
1001
,
0100
0110
0010
0110
,
1000
1010
1000
0011
,
2100
3000
0002
0000
,
0013
0001
0100
0010
,
1000
0100
0010
0100
,
1000
0001
0100
0010
,
2000
3200
0320
0032
,
2003
3001
0100
0001
,
0010
0010
0100
0010
,
0001
0001
1000
1000
,
0001
0100
0010
1000
,
0101
0001
1000
0010
,
0101
1000
0001
0100
,
0101
1000
0001
0100
,
0002
0023
0230
2300
,
3002
1003
0010
1000
,
0001
0001
0100
0100
,
0010
0100
0001
1000
,
0001
0010
0100
1000
,
0220
0000
0000
0000
,
0330
0000
0000
0000
,
1000
0000
0100
0000
,
1000
0000
0010
0000
,
0100
0100
0001
0001
,
0010
0000
0001
0000
,
1000
0001
0100
0001
,
1000
0100
1000
0001
,
1000
0000
0010
0000
,
0100
0010
1000
0001
,
2001
3000
0002
0003
,
0200
0300
0020
0030
,
2000
0000
3100
0000
,
1000
0010
0100
0001
,
0012
0003
0010
0100
,
2100
3100
0100
1000
,
0002
0000
2003
0000
,
3010
0100
2002
3003
,
0110
0001
0100
0010
,
1010
1000
0010
0100
,
0101
0001
0011
0010
,
0110
0100
0010
0100
,
2100
3200
0310
0200
,
0310
0200
1300
0010
,
0100
0001
0010
0100
,
1100
0000
0000
0000
,
0020
0032
0103
0002
,
0013
0002
0103
0002
,
2000
3003
0001
1000
,
0010
0100
0001
0010
,
0200
0300
0010
0001
,
1000
0010
0001
0010
,
2000
3000
0002
0003
,
0100
0010
2002
3003
,
1000
0000
0100
0000
0010
0001
0010
0000
,
0100
0000
1000
0000
0001
0100
0001
0000
,
0100
0000
0010
0000
1000
0001
1000
0000
,
0001
0000
0010
0000
0100
1000
0100
0000
,
1000
0000
0010
0000
0100
0001
0100
0000
,
0001
0000
0010
0000
0100
1000
0100
0000
,
1000
0000
0010
0000
0100
0010
0100
0000
,
0010
0000
1000
0000
0001
1000
0001
0000
,
0100
0100
0100
0100
,
0010
0010
0010
0010
;

//---------------dance-single - ----------------
#NOTEDATA:;
#CHARTNAME:;
#STEPSTYPE:dance-single;
#DESCRIPTION:;
#CHARTSTYLE:;
#DIFFICULTY:Medium;
#METER:10;
#RADARVALUES:0.381999,0.487421,0.080300,0.529980,0.160600,333.000000,323.000000,10.000000,66.000000,0.000000,0.000000,0.000000,0.000000,0.000000,0.381999,0.487421,0.080300,0.529980,0.160600,333.000000,323.000000,10.000000,66.000000,0.000000,0.000000,0.000000,0.000000,0.000000;
#CREDIT:Pandemonium X;
#NOTES:
0000
0000
0000
0000
,
0000
0000
0000
0000
,
0000
0000
0000
0000
,
0000
0000
0000
0000
,
0000
0000
0000
0000
,
0000
0000
0000
0000
,
0000
0000
0000
0000
,
0000
0000
0000
0000
,
0001
0000
0000
0100
0000
0000
0010
1000
0010
0100
0000
0000
,
0010
0000
0000
1000
0000
0000
0100
0010
0100
1000
0000
0000
,
0100
0000
0000
0010
0000
0000
0001
0100
0001
0010
0000
0000
,
0100
0000
0000
1000
0000
0000
0010
0100
0010
1000
0000
0000
,
0001
0000
0000
0000
0000
0000
1000
0000
0000
0000
0000
0000
0100
0000
0010
0000
0001
0000
1000
0000
0000
0001
0000
0000
,
0100
0000
0000
0000
0000
0000
0010
0000
0000
0000
0000
0000
1000
0000
0010
0000
0100
0000
0001
0000
0000
0010
0000
0000
,
0100
0000
0000
0000
0000
0000
0010
0000
0000
0000
0000
0000
0001
0000
0010
0000
0100
0000
1000
0000
0000
0001
0000
0000
,
0220
0000
0000
0000
0000
0000
0330
0000
1000
0000
0000
1000
0000
0000
1000
0000
,
1001
0000
0000
0000
0000
0000
0000
0000
0001
0000
0000
0001
0000
0000
0001
0000
,
1001
0000
0000
0000
0000
0000
0000
0000
1000
0000
0000
1000
0000
0000
1000
0000
,
1001
0000
0000
0000
0000
0000
0000
0000
0001
0000
0000
0001
0000
0000
0001
0000
,
0002
0023
0230
2300
,
3020
1030
0001
0010
,
0100
0010
0100
0000
0010
0001
0010
0000
,
0001
0100
0001
0000
0100
0010
0100
0000
,
0010
0000
0000
0000
1000
0000
0000
0000
0001
0000
0000
0001
0000
0000
0001
0000
,
0110
0000
0000
0000
0000
0000
0000
0000
1000
0000
0000
1000
0000
0000
1000
0000
,
0110
0000
0000
0000
0000
0000
0000
0000
0001
0000
0000
0001
0000
0000
0001
0000
,
0110
0000
0000
0000
0000
0000
0000
0000
1000
0000
0000
1000
0000
0000
1000
0000
,
0020
0230
0302
2003
,
3200
1300
0100
1000
,
0010
1000
0100
0000
0010
0000
0001
0000
,
0100
0001
0010
0000
0100
1000
0010
0000
,
0100
0001
0010
0100
0100
1000
0100
0010
,
0002
0000
0000
0000
,
0003
0000
0000
0000
,
2000
0000
3010
0100
,
0002
1003
0200
1300
,
0020
0130
0020
1030
,
0002
0000
2003
0000
,
3020
0130
0002
0103
,
0020
0130
0002
0103
,
0020
1030
0020
0130
,
0002
0203
0320
2030
,
3002
0023
0130
0020
,
0031
0020
0130
2000
,
3002
0000
1003
0010
,
1000
0100
0010
0001
,
2000
0000
3001
0100
,
0020
0130
0001
1000
,
0200
0000
0000
0000
1300
0000
0000
0000
0010
0000
0000
0000
0100
0000
0000
0001
,
0000
0000
1000
0000
0000
0100
0000
0000
0010
0000
0001
0000
0010
0000
0100
0000
,
2100
0000
3001
0000
1000
0010
0100
0010
,
0200
0000
0310
0000
1000
0001
0010
0001
,
0020
0130
0020
0031
,
2000
3001
0200
0310
,
1000
0000
0001
0001
0002
0000
1003
1000
,
2000
0000
3010
0010
0020
0000
0130
0000
,
0010
1000
0010
0100
,
2002
0000
0000
3003
,
0001
0000
0010
0001
0010
0000
0010
0100
,
0010
0000
0010
0001
0010
0000
0010
0100
,
2000
0000
0000
3100
0020
0000
0230
0000
,
2300
3020
0032
0023
,
2030
0000
0000
3010
0100
0001
1000
0001
,
0020
0000
0130
0010
0100
0010
0001
0010
,
0200
0000
2300
0000
,
3002
0203
0020
0330
,
1001
0000
0000
1000
0000
0000
0001
0100
0001
0010
0000
0000
,
0100
0000
0000
1000
0000
0000
0010
1000
0010
0100
0000
0000
,
0010
0000
0000
1000
0000
0000
0001
0010
0100
0010
0000
0000
,
0100
0000
0000
1000
0000
0000
0001
1000
0100
0010
0000
0000
,
0100
0000
0000
1000
0000
0000
0010
1000
0100
0010
0000
0000
,
0100
0000
0000
0010
0000
0000
0001
0010
0100
0010
0000
0000
,
0100
0000
0000
1000
0000
0000
0010
0100
0001
0010
0000
0000
,
0100
0000
0000
0000
0000
0000
1000
0000
0000
0000
0000
0000
0001
0000
1000
0000
0010
0000
1000
0000
0000
0010
0000
0000
,
0100
0001
0020
0000
0100
0000
0130
0010
,
0100
1000
0020
0000
0100
0000
0130
0010
;

//---------------dance-single - ----------------
#NOTEDATA:;
#CHARTNAME:;
#STEPSTYPE:dance-single;
#DESCRIPTION:;
#CHARTSTYLE:;
#DIFFICULTY:Hard;
#METER:12;
#RADARVALUES:0.575866,0.609276,0.104390,0.425590,0.289080,502.000000,489.000000,13.000000,53.000000,0.000000,0.000000,0.000000,0.000000,0.000000,0.575866,0.609276,0.104390,0.425590,0.289080,502.000000,489.000000,13.000000,53.000000,0.000000,0.000000,0.000000,0.000000,0.000000;
#CREDIT:Pandemonium X;
#NOTES:
0000
0000
0000
0000
,
0000
0000
0000
0000
,
0000
0000
0000
0000
,
0000
0000
0000
0000
,
0001
0000
0000
0100
0000
0000
0010
0000
0000
1000
0000
0000
0100
0000
0010
0000
0100
0000
1000
0000
0000
0000
0000
0000
,
0100
0000
0000
0010
0000
0000
0001
0000
0000
1000
0000
0000
0010
0000
0100
0000
0001
0000
0010
0000
0000
0000
0000
0000
,
0100
0000
0000
1000
0000
0000
0010
0000
0000
0100
0000
0000
0010
0000
0100
0000
0010
0000
1000
0000
0000
0001
0000
0000
,
0100
0000
0000
0001
0000
0000
0010
0000
0000
0100
0000
0000
0010
0000
0001
0000
1000
0000
0100
0000
0000
1000
0000
0000
,
0001
0010
0001
0000
0010
0010
0100
1000
,
0010
0100
0010
0000
0010
0010
0100
0001
,
1000
0100
1000
0000
1000
1000
0100
0010
,
0001
0100
0010
0000
0010
0010
0100
0001
,
1000
0100
0001
0100
1000
0010
0100
0010
,
1000
0001
0010
1000
0010
0001
0100
0010
,
1000
0000
0000
0100
0000
0000
0001
0000
0000
0100
0000
0000
1000
0000
0010
0000
1000
0000
0001
0000
0000
1000
0000
0000
,
0220
0000
0000
0000
0000
0000
0330
0000
0001
0000
0000
0001
0000
0000
0001
0000
,
1002
0000
0000
0000
0103
0000
0001
0000
0010
0000
0000
0010
0000
0000
0010
0000
,
0210
0000
0000
0000
1300
0000
0010
0000
0100
0000
0000
0100
0000
0000
0010
0000
,
2010
0000
0000
0000
3001
0000
0010
0000
0001
0000
0000
0001
0000
0000
0001
0000
,
1000
0000
0000
1000
0100
0000
0000
0100
0010
0000
0000
0010
0001
0000
0000
0001
,
0200
0000
0310
1000
0001
0010
0001
0010
,
0100
0001
0100
0010
0001
0100
0010
1000
,
0100
0010
0100
1000
0010
0100
0001
0010
,
0100
0000
1000
0000
0001
0000
1000
0000
0010
0000
0000
0010
0000
0000
0010
0000
,
2001
0000
0000
0000
3001
0000
0010
0000
0100
0000
0000
0100
0000
0000
0100
0000
,
1002
0000
0000
0000
1003
0000
0100
0000
0010
0000
0000
0010
0000
0000
0010
0000
,
1002
0000
0000
0000
1003
0000
0010
0000
0100
0000
0000
0100
0000
0000
0100
0000
,
1001
0000
0000
0001
0010
0000
0000
0010
0100
0000
0000
0100
1000
0000
0000
1000
,
0020
0000
0130
0010
0100
0001
0100
0010
,
1000
0001
0010
0001
1000
0100
0010
0100
,
1000
0001
0200
0000
0301
1000
0200
0000
,
1300
0010
0001
0010
0100
0001
1000
0100
,
0022
0000
0000
0000
,
0030
0003
2000
3002
,
0203
0000
0000
0310
1000
0000
0100
0000
,
0020
0000
0130
1000
0001
0000
0100
0000
,
0010
0000
0000
1000
0100
0000
0000
0100
1000
0000
0000
0100
0010
0000
0000
0010
,
0001
0000
0000
0001
0000
0000
1000
0000
0010
0000
0000
0010
0000
0000
0100
0000
,
0002
0000
0103
0010
2000
0000
3010
0100
,
0002
0000
0000
0000
0103
0000
0010
0000
2000
0000
0000
3002
0000
0000
0013
0000
,
0200
1300
0200
0310
,
0100
1000
0010
0001
0010
0100
0001
1000
,
2001
0000
3100
0010
0002
0000
0013
0100
,
2000
0000
3100
0010
0002
0000
0103
0010
,
0200
0000
0000
0000
0310
0001
0010
0100
,
0001
1000
0100
0001
0100
1000
0010
0100
,
1002
0000
0000
1003
0100
0001
0100
0010
,
0002
0000
0013
1000
0010
0001
0010
0100
,
2000
0000
0000
0000
3001
0000
0100
0000
0010
0100
0000
0001
1000
0000
0010
0100
,
0000
0001
1000
0000
0010
0100
0000
0001
1000
0000
0100
0000
0010
0000
0001
0000
,
1002
0000
0000
1003
0100
1000
0010
0100
,
0102
0000
0013
0100
1000
0100
0001
0100
,
1000
0000
0000
0001
0100
0000
0000
0010
1000
0000
0000
0100
0010
0000
0000
0100
,
1000
0000
0000
1000
0000
0000
1000
0000
0010
0000
0000
0010
0000
0000
0010
0000
,
0200
0000
0010
0010
0320
0000
1000
1000
,
2030
0000
0000
0000
0001
0000
0001
0000
3002
0000
0000
1003
0000
0000
0010
0000
,
1000
0000
0000
0001
0000
0000
0010
0000
0100
0000
0000
0010
0000
0000
0001
0000
,
0200
0000
0000
0000
0000
0000
0000
0000
0300
0000
0000
0000
0010
0100
0000
0100
,
0010
0000
0100
0001
0020
0000
0130
1000
,
0020
0000
0130
0001
0020
0000
0130
1000
,
0002
0000
0000
1000
1003
0010
0100
1000
,
0100
0010
1000
0001
0010
0100
0010
0001
,
0020
0000
0000
0130
0001
0100
1000
0001
,
0020
0000
0130
0001
0100
1000
0001
0100
,
0002
0000
0000
0000
1003
0000
0100
0000
0010
0001
0000
0010
0100
0000
1000
0100
,
0000
0010
0001
0000
0010
0100
0000
2000
0002
0000
0000
0000
0000
0000
3003
0000
,
1000
0000
0000
0010
0000
0000
0100
0000
0000
0010
0000
0000
0100
0000
0001
0000
0010
0000
0100
0000
0000
0010
0000
0000
,
0000
0000
0000
0100
0000
0000
1000
0000
0000
0010
0000
0000
0100
0000
0001
0000
0010
0000
0100
0000
0000
0010
0000
0000
,
0000
0000
0000
0100
0000
0000
0010
0000
0000
0001
0000
0000
1000
0000
0100
0000
0010
0000
0001
0000
0000
0010
0000
0000
,
0000
0000
0000
0100
0000
0000
1000
0000
0000
0001
0000
0000
0010
0000
0001
0000
0010
0000
0100
0000
0000
0010
0000
0000
,
0001
0000
0000
1000
0000
0000
0010
0000
0000
1000
0000
0000
0001
0000
0010
0000
0001
0000
1000
0000
0000
0100
0000
0000
,
0000
0000
0000
0010
0000
0000
0001
0000
0000
0100
0000
0000
0010
0000
0100
0000
0001
0000
1000
0000
0000
0100
0000
0000
,
0000
0000
0000
0010
0000
0000
0100
0000
0000
1000
0000
0000
0001
0000
0100
0000
0001
0000
0010
0000
0000
0001
0000
0000
,
0000
0000
0000
1000
0000
0000
0100
0000
0000
0010
0000
0000
0001
0000
0010
0000
0100
0000
1000
0000
0000
0001
0000
0000
,
0200
0000
0320
0000
1030
0001
0010
0001
,
0200
0000
0320
0000
1030
0001
0010
0001
;

//---------------dance-single - ----------------
#NOTEDATA:;
#CHARTNAME:;
#STEPSTYPE:dance-single;
#DESCRIPTION:;
#CHARTSTYLE:;
#DIFFICULTY:Challenge;
#METER:16;
#RADARVALUES:0.784646,0.949046,0.088330,0.481800,0.895345,684.000000,673.000000,11.000000,60.000000,0.000000,0.000000,0.000000,0.000000,0.000000,0.784646,0.949046,0.088330,0.481800,0.895345,684.000000,673.000000,11.000000,60.000000,0.000000,0.000000,0.000000,0.000000,0.000000;
#CREDIT:Pandemonium X;
#NOTES:
// measure 0
0000
0000
0000
0000
,  // measure 1
0000
0000
0000
0000
,  // measure 2
0000
0000
0000
0000
,  // measure 3
0000
0000
0000
0000
,  // measure 4
0001
0000
0000
0100
0000
0000
0010
0000
0000
1000
0000
0000
0100
0000
0010
0000
0001
0000
1000
0000
0000
0001
0000
0000
,  // measure 5
0100
0000
0000
0010
0000
0000
1000
0000
0000
0100
0000
0000
0010
0000
0001
0000
0010
0000
0100
0000
0000
0010
0000
0000
,  // measure 6
0001
0000
0000
0100
0000
0000
0010
0000
0000
1000
0000
0000
0100
0000
0010
0000
0100
0000
1000
0000
0000
0001
0000
0000
,  // measure 7
0100
0000
0000
0010
0000
0000
1000
0000
0000
0001
0000
0000
0010
0000
0100
0000
1000
0000
0001
0000
0000
0100
0000
0000
,  // measure 8
0010
0100
1001
0000
1000
0100
1000
0100
,  // measure 9
0010
0100
0110
0000
0001
0010
0001
1000
,  // measure 10
0010
0000
0000
0100
0000
0000
0101
0000
0000
0000
0000
0000
0100
0000
0010
0000
1000
0000
0100
0000
0000
1000
0000
0000
,  // measure 11
0010
0000
0000
0100
0000
0000
0110
0000
0000
0000
0000
0000
0100
0000
0010
0000
1000
0000
0001
0000
0000
0010
0000
0000
,  // measure 12
0100
0000
1000
0000
1000
0001
0000
0001
0100
0000
0010
0000
0100
0010
0000
0010
,  // measure 13
1000
0000
0001
0000
0001
0010
0000
0010
0100
0000
0010
0000
0001
0010
0000
0010
,  // measure 14
0100
1000
0000
0100
0010
0001
0000
0010
0001
0100
0000
0010
1000
0100
0000
0010
,  // measure 15
0200
0000
0000
0000
0000
0000
0000
0000
1000
0000
0000
1000
0000
0000
1300
0000
,  // measure 16
0011
0000
0000
0000
0010
0001
0100
0001
0020
0000
0000
0100
0000
0000
0031
0000
,  // measure 17
1100
0000
0000
0000
1000
0010
0100
0010
2000
0000
0000
0001
0000
0000
3010
0000
,  // measure 18
0101
0000
0000
0000
0001
0100
0010
0100
0001
0000
0000
1000
0000
0000
0001
0000
,  // measure 19
1000
0000
0000
0001
0100
0001
0100
0000
0000
0010
0100
0010
0100
0000
0000
0010
1000
0010
1000
0000
0000
0100
1000
0100
,  // measure 20
1000
0000
0100
0010
0100
1000
0010
0100
,  // measure 21
0001
0100
0001
0010
0100
0000
0010
0001
0100
0001
1000
0001
1000
0100
0010
0001
,  // measure 22
0010
0001
1000
0100
1000
0010
1000
0010
0100
0010
1000
0001
0010
0000
0100
0010
,  // measure 23
0001
0100
0010
0100
0001
0000
1000
0000
0020
0000
0000
1000
0000
0000
0130
0000
,  // measure 24
1001
0000
0000
0000
1000
0100
0010
0001
2000
0000
0000
0010
0000
0000
3103
0000
,  // measure 25
1001
0000
0000
0000
0001
0010
0100
1000
0002
0000
0000
0010
0000
0000
1003
0000
,  // measure 26
1001
0000
0000
0000
0001
0100
0010
1000
0200
0000
0000
0010
0000
0000
0310
0000
,  // measure 27
0110
0000
0000
0100
1000
0100
1000
0000
0000
0100
0010
0100
0010
0000
0000
0001
0010
0001
0010
0000
0000
0001
0100
0001
,  // measure 28
0100
0000
0010
0100
0001
0010
0100
1000
,  // measure 29
0001
1000
0010
1000
0100
0000
0010
0001
0100
0001
0010
0001
1000
0100
0010
0001
,  // measure 30
1000
0000
1000
0000
1000
0001
0000
0001
0100
0000
0100
0000
0100
0010
0000
0010
,  // measure 31
1000
0001
1000
0001
1000
0001
1000
0001
0100
0010
0100
0010
0100
0010
0100
0010
,  // measure 32
2000
0000
0000
0000
,  // measure 33
0002
0000
3003
0000
,  // measure 34
2000
0000
0000
3010
0100
0001
0010
0100
,  // measure 35
0020
0000
0031
0100
0010
1000
0001
0010
,  // measure 36
0200
0000
0000
0310
0002
0000
0000
0013
0200
0000
0000
0310
0002
0000
0000
0013
,  // measure 37
0100
0000
1000
0100
0000
1000
0010
0000
0100
0010
0000
0100
0001
0000
1000
0000
,  // measure 38
0002
0000
1003
0100
2000
0000
3001
0100
,  // measure 39
0020
0000
0000
0000
0130
0000
0001
0000
1000
0000
0010
0100
0000
0010
1000
0000
,  // measure 40
0001
0010
0100
0010
0001
0100
0010
0100
,  // measure 41
0001
0000
0001
0000
1000
0000
1000
0000
0010
0100
0000
0010
1000
0001
0000
0010
,  // measure 42
0200
0000
1300
0100
0002
0000
0103
1000
,  // measure 43
0020
0000
0031
0010
2000
0000
3010
0100
,  // measure 44
0002
0000
0000
1003
0100
0010
0100
1000
,  // measure 45
0010
0001
0010
0100
0001
0010
1000
0010
,  // measure 46
0002
0000
0000
1003
0100
0001
0100
1000
,  // measure 47
0020
0000
0130
1000
0100
0001
1000
0100
,  // measure 48
0020
0000
0000
0000
0031
1000
0100
0000
1000
0020
0000
0130
0002
0000
0013
0200
,  // measure 49
0000
0310
0002
0000
0103
0020
0000
0130
0010
1000
0100
0010
0001
0010
0100
0010
,  // measure 50
0002
0000
0000
0000
0003
1000
0100
1000
0010
0100
0010
1000
0010
0100
0010
1000
,  // measure 51
0002
0000
0000
0000
0013
0100
0010
0100
0010
0001
0100
0010
1000
0100
1000
0001
,  // measure 52
1000
0000
0001
0100
0020
0000
0130
0001
2000
0000
3100
0010
0002
0000
0013
0100
,  // measure 53
1000
0010
0000
0100
0000
0010
1000
0001
0010
0100
0010
0001
0010
0001
1000
0001
,  // measure 54
0200
0000
0000
0000
0310
1000
0001
0010
0200
0000
0000
0000
0310
0001
1000
0010
,  // measure 55
2000
0000
0000
0000
3010
1000
0001
0010
0100
0010
0100
2000
0000
3100
0010
0100
,  // measure 56
1000
0001
0100
0000
0010
0000
1000
0010
0100
0010
0100
0010
0100
0000
0001
0010
,  // measure 57
0100
0000
0000
0000
0100
0000
0000
0000
0100
0000
0000
0000
0010
0001
0000
0001
,  // measure 58
0200
0000
0000
0000
0310
1000
0001
0010
0200
0000
0000
0000
0310
0001
1000
0010
,  // measure 59
2000
0000
0000
3010
0100
0001
1000
0100
0020
0000
0000
0130
0010
0100
1000
0001
,  // measure 60
0020
0000
0000
0000
0000
0000
0130
1000
0001
1000
0001
0100
0001
0100
0010
0100
,  // measure 61
0010
1000
0001
1000
0010
1000
0001
0010
0100
1000
0100
0010
0100
1000
0001
0010
,  // measure 62
0200
0000
0000
0000
0000
0000
1300
0010
0100
0010
1000
0100
0010
0001
1000
0001
,  // measure 63
2000
0000
0000
3100
0010
0001
0100
0010
1000
0100
1000
0001
1000
0100
0010
0100
,  // measure 64
2000
0000
0000
0000
3001
0100
0002
0000
1003
0200
0000
0310
0200
0000
1300
0020
,  // measure 65
0000
0130
0002
0000
1003
0200
0000
0320
0002
0000
0000
0000
0000
0000
0033
0000
,  // measure 66
1000
0000
0000
0100
0000
0000
1000
0000
0000
0010
0000
0000
0100
0000
0010
0000
1000
0000
0100
0000
0000
0010
0000
0000
,  // measure 67
0100
0000
0000
1000
0000
0000
0010
0000
0000
0100
0000
0000
0001
0000
0010
0000
0100
0000
0010
0000
0000
0001
0000
0000
,  // measure 68
1000
0000
0000
0010
0000
0000
0100
0000
0000
0001
0000
0000
0010
0000
0100
0000
0010
0000
0001
0000
0000
1000
0000
0000
,  // measure 69
0100
0000
0000
1000
0000
0000
0010
0000
0000
0100
0000
0000
0010
0000
1000
0000
0100
0000
0010
0000
0000
0100
0000
0000
,  // measure 70
0010
0000
0000
0001
0000
0000
0100
0000
0000
0010
0000
0000
1000
0000
0010
0000
1000
0000
0001
0000
0000
0010
0000
0000
,  // measure 71
0100
0000
0000
0010
0000
0000
0001
0000
0000
0100
0000
0000
0010
0000
1000
0000
0100
0000
0010
0000
0000
0100
0000
0000
,  // measure 72
1000
0000
0000
0100
0000
0000
0010
0000
0000
0100
0000
0000
1000
0000
0100
0000
0010
0000
0100
0000
0000
1000
0000
0000
,  // measure 73
0001
0000
0000
0010
0000
0000
0100
0000
0000
0010
0000
0000
0001
0000
1000
0000
0010
0000
0100
0000
0000
0001
0000
0000
,  // measure 74
1000
1000
0001
0010
1000
0010
0002
2003
,  // measure 75
3001
0001
0100
1000
0100
0001
2000
0002
,  // measure 76
0000
3003
0000
0000
;

//---------------dance-single - ----------------
#NOTEDATA:;
#CHARTNAME:;
#STEPSTYPE:dance-single;
#DESCRIPTION:;
#CHARTSTYLE:;
#DIFFICULTY:Beginner;
#METER:3;
#RADARVALUES:0.114714,0.244112,0.104390,0.032120,0.000000,100.000000,87.000000,13.000000,4.000000,0.000000,0.000000,0.000000,0.000000,0.000000,0.114714,0.244112,0.104390,0.032120,0.000000,100.000000,87.000000,13.000000,4.000000,0.000000,0.000000,0.000000,0.000000,0.000000;
#CREDIT:Pandemonium X;
#NOTES:
0000
0000
0000
0000
,
0000
0000
0000
0000
,
0000
0000
0000
0000
,
0000
0000
0000
0000
,
0000
0000
0000
0000
,
0000
0000
0000
0000
,
0000
0000
0000
0000
,
0000
0000
0000
0000
,
0001
0000
0000
0000
,
1000
0000
0000
0000
,
0010
0000
0000
0000
,
0100
0000
0000
0000
,
0010
0000
0000
0000
,
1000
0000
0000
0000
,
0100
0000
0010
0000
,
1001
0000
0000
0000
,
0001
0000
0000
0000
,
1000
0000
0000
0000
,
0010
0000
0000
0000
,
0100
0000
0010
0000
,
1001
0000
0000
0000
,
1000
0000
0000
0000
,
0010
0000
0000
0000
,
0100
0000
0010
0000
,
1001
0000
0000
0000
,
1001
0000
0000
0000
,
1001
0000
0000
0000
,
0001
0000
1000
0000
,
0110
0000
0000
0000
,
0010
0000
0000
0000
,
0100
0000
0001
0000
,
1000
0000
0001
0000
,
0220
0000
0000
0000
,
0330
0000
0000
0000
,
1000
0000
0000
0000
,
0001
0000
0000
0000
,
0010
0000
0000
0000
,
0100
0000
0000
0000
,
1000
0000
0000
0000
,
0010
0000
0000
0000
,
0100
0000
0000
0000
,
0001
0000
1000
0000
,
0010
0000
0000
0000
,
0100
0000
0000
0000
,
0001
0000
0000
0000
,
0010
0000
0000
0000
,
0100
0000
0000
0000
,
1000
0000
0000
0000
,
0001
0000
1000
0000
,
0010
0000
0100
0000
,
1001
0000
0001
0001
,
0001
0000
0000
0000
,
1000
0000
0000
0000
,
0010
0000
0000
0000
,
0100
0000
0010
0000
,
0100
0000
0010
0000
,
1000
0000
0000
0000
,
1001
0000
0000
0000
,
1000
0000
0001
0000
,
1000
0000
0010
0000
,
1000
0000
0100
0000
,
0000
0000
0000
0000
,
0110
0000
0100
0000
,
1001
0000
0010
0000
,
1001
0000
0110
0000
,
0001
0001
0001
0000
,
1000
0000
0000
0000
,
0010
0000
0000
0000
,
0100
0000
0000
0000
,
0001
0000
0000
0000
,
0010
0000
0000
0000
,
0100
0000
0000
0000
,
1000
0000
0000
0000
,
0010
0000
0000
0000
,
0200
0000
0000
0300
,
0020
0000
0000
0000
,
0030
0000
0000
0000
;
