#TITLE:ra'am;
#SUBTITLE:;
#ARTIST:雷龍;
#TITLETRANSLIT:;
#SUBTITLETRANSLIT:;
#ARTISTTRANSLIT:Rairyu;
#GENRE:RAVERS DANCE SPEED;
#CREDIT:;
#MUSIC:ra'am.ogg;
#BANNER:ra'am.png;
#BACKGROUND:ra'am-bg.png;
#CDTITLE:;
#SAMPLESTART:14.624;
#SAMPLELENGTH:15.000;
#SELECTABLE:YES;
#OFFSET:0.500;
#BPMS:0.000=222.000;
#STOPS:;
#BGCHANGES:8.000=ra'am.mp4=1.000=0=0=1,
999.000=1.000=0.000=0=0=0=StretchNoLoop====,
99999.000=-nosongbg-=1.000=0=0=0=StretchNoLoop====
;
#FGCHANGES:;

//--------------- dance-single - forcednature ----------------
#NOTES:
     dance-single:
     forcednature:
     Beginner:
     9:
     0,0,0,0,0:
0000
0000
0000
0000
,
0000
0000
0000
0000
,
0000
0000
0000
0000
,
0000
0000
0000
0000
,
0000
0000
0000
0000
,
0000
0000
0000
0000
,
0000
0000
0000
0000
,
0000
0000
0000
0000
,
1000
0000
0000
1000
0000
0000
1000
0000
,
0001
0000
0000
0001
0000
0000
0001
0000
,
0100
0010
0100
0010
,
0000
0000
1000
0001
1000
0000
0000
0000
,
0200
0000
0000
0000
,
0310
0010
0020
0030
,
1001
0001
1000
0010
,
0100
0001
1000
0100
,
0010
0000
0000
0010
0000
0000
0010
0000
,
0000
0000
0001
1000
0001
0000
0000
0000
,
0100
0010
1000
0010
,
0100
0001
0100
0010
,
1000
0001
1000
0100
,
0000
0000
0010
0001
0010
0000
0000
0000
,
0200
0000
0000
0000
,
1300
0000
0001
0000
,
0200
0000
0000
0000
,
0301
0000
1000
0000
,
0010
0010
0010
0010
,
0100
0001
1000
0100
,
0010
0000
0000
0010
0000
0000
0010
0000
0100
0000
0000
0100
0000
0000
0100
0000
,
1000
0001
0200
0300
,
0010
1000
0010
0100
,
0001
0000
1000
0000
0100
0010
0100
0000
,
1000
0001
0100
0010
,
1000
0000
0001
0000
0010
0100
0010
0000
,
0001
1000
0010
0100
,
0001
0000
1000
0000
0100
0010
0100
0000
,
1000
0000
0000
1000
0000
0000
1000
0000
0001
0000
0000
0001
0000
0000
0001
0000
,
0100
0000
0010
0000
1000
0001
1000
0000
,
0100
0010
0002
0003
,
0100
0010
2000
3000
,
0001
0010
0200
0300
,
1000
0000
0000
0001
0000
0000
1000
0000
0000
0001
0000
0000
1000
0000
0000
0000
,
0010
0000
0100
0000
0001
1000
0001
0000
,
0010
0000
0100
0000
1000
0001
1000
0000
,
0010
0000
0100
0000
0001
1000
0001
0000
,
0010
0000
0000
0100
0000
0000
0010
0000
0000
0100
0000
0000
0010
0000
0000
0000
,
2002
0000
0000
0000
0000
0000
0000
3000
,
0000
1000
0000
1000
0000
1000
0000
2000
,
0000
0000
0000
0000
0000
0000
0000
0003
,
0000
0001
0000
0000
0001
0000
3001
0000
,
1000
0100
1000
0000
0100
0000
1000
0000
,
0001
0100
0001
0000
0100
0000
0001
0000
,
1000
0010
1000
0000
0001
0010
0001
0000
,
0000
0100
0000
0100
0010
0100
0010
0000
,
1000
0000
0000
0000
,
1000
0000
0000
0000
,
0001
0000
0000
0000
,
0001
0000
0001
0000
,
0010
0000
0000
0000
,
0010
0000
0000
0000
,
0110
0000
0000
0000
,
0000
0000
0000
0000
,
1000
0000
0100
0000
1000
0100
1000
0000
,
0001
0000
0100
0000
0001
0100
0001
0000
,
0010
0000
0000
0100
0000
0000
0110
0000
,
0000
0000
1000
0001
1000
0000
0000
0000
,
0001
0000
0100
0001
0000
0100
0001
0000
,
1000
0000
0100
1000
0000
0100
1000
0000
,
0010
0000
0100
0010
0000
0100
0010
0000
,
0000
0000
1000
0001
1000
0000
0000
0000
,
0200
0000
0000
0000
,
0020
0000
0000
0000
,
0000
0000
0000
0000
,
0000
0000
0000
0000
0000
0000
0000
0000
0000
0000
0000
0000
0000
0000
0000
0000
0000
0000
0000
0000
0000
0000
0000
0000
0000
0000
0000
0000
0000
0000
0000
0000
0000
0000
0000
0000
0000
0000
0000
0000
0000
0000
0000
0000
0000
0000
0000
0330
,
0000
0000
0000
0000
,
1001
0001
0100
0010
,
1000
0000
0000
0100
0000
0000
1000
0000
0001
0000
0000
0010
0000
0000
0001
0000
,
0100
0010
1000
0001
,
0010
0000
0000
0100
0000
0000
0010
0000
0100
0000
0000
0010
0000
0000
0100
0000
,
1000
0001
0100
0010
,
1000
0000
0000
0010
0000
0000
1000
0000
0001
0000
0000
0010
0000
0000
0001
0000
,
0100
0000
0000
0100
0000
0000
0100
0000
0010
0000
0000
0010
0000
0000
0010
0000
,
1000
0000
1000
0001
0020
0000
0030
0000
,
0100
0000
0000
1000
0000
0000
0100
0000
0000
1000
0000
0000
0001
0000
0010
0000
,
0100
0000
0000
1000
0000
0000
0001
0000
1000
0000
0010
0000
1000
0000
0001
0000
,
0100
0000
0000
0001
0000
0000
0100
0000
0000
0001
0000
0000
1000
0000
0010
0000
,
0100
0000
0000
0001
0000
0000
1000
0000
0001
0000
0010
0000
0001
0000
1000
0000
,
0010
0000
0000
0100
0000
0000
0010
0000
0000
0100
0000
0000
0001
0000
1000
0000
,
0100
0000
0000
0010
0000
0000
0001
0000
1000
0000
0010
0000
0100
0000
0001
0000
,
0010
0000
0000
0010
0000
0000
0010
0000
0100
0000
0000
0100
0000
0000
0100
0000
,
1000
0000
0000
1000
0000
0000
1000
0000
0001
0000
0000
0001
0000
0000
0001
0000
,
0100
0001
0100
0001
1000
0100
1000
0100
,
0010
0001
1000
0001
0100
0010
1000
0001
,
0020
0000
0000
0000
,
0000
0000
0000
0000
,
0000
0000
0000
0000
,
0000
0030
0000
0000
;

//--------------- dance-single - forcednature ----------------
#NOTES:
     dance-single:
     forcednature:
     Easy:
     13:
     0,0,0,0,0:
0000
0000
0000
0000
,
0000
0000
0000
0000
,
0000
0000
0000
0000
,
0000
0000
0000
0000
,
0000
0000
0000
0000
,
0000
0000
0000
0000
,
0000
0000
0000
0000
,
0000
0000
0000
0000
,
1000
0100
0010
0001
0010
0100
1000
0000
,
0001
0100
0010
1000
0010
0100
0001
0000
,
0010
0001
1000
0010
0100
0001
0010
0000
,
0000
0000
0100
1000
0002
0000
0003
0000
,
0200
0000
0000
0000
,
0301
1000
0001
1000
0001
1000
0010
0000
,
0101
1000
0100
0010
,
0001
1000
0010
0100
,
0001
1000
0000
0100
0010
0000
0001
1000
,
0000
0000
0001
0100
0010
0000
0000
0000
,
1100
0000
0100
0010
0000
0001
0010
0000
,
0110
0000
0100
1000
0000
0001
1000
0000
,
0001
0100
0010
1000
0010
0100
0001
0000
,
0000
0000
1000
0100
0020
0000
0030
0000
,
0002
0000
0100
0000
,
1003
0100
0020
0031
,
2000
0000
0100
0000
,
3001
0100
0020
1030
,
0100
0100
0010
0010
,
0001
0000
0001
0000
1000
0010
1000
0000
,
0001
0000
0000
0100
0000
0000
0001
0000
1000
0000
0000
0100
0000
0000
1000
0000
,
0010
0100
0010
1000
0002
0000
0003
0000
,
0010
0000
0000
0100
0000
0000
0010
0000
0000
0100
0000
0000
1000
0000
0000
0000
,
0010
0000
0000
0100
0000
0000
0010
0000
1000
0000
0001
0000
1000
0000
0000
0000
,
0001
0000
0000
0100
0000
0000
0001
0000
0000
0100
0000
0000
0010
0000
0000
0000
,
1000
0000
0000
0100
0000
0000
1000
0000
0010
0000
0100
0000
0010
0000
0000
0000
,
1000
0000
0000
0100
0000
0000
0010
0000
0000
0001
0000
0000
1000
0000
0000
0000
,
0001
0000
0000
0100
0000
0000
0010
0000
1000
0000
0001
0000
0010
0000
0000
0000
,
0100
0000
0000
0100
0000
0000
0100
0000
0010
0000
0000
0010
0000
0000
0010
0000
,
0001
1000
0001
1000
0010
0100
0001
0000
,
1100
0001
2000
3010
,
0100
0001
0020
0130
,
1001
1000
0002
0013
,
0100
0000
0000
1000
0000
0000
0100
0000
0000
1000
0000
0000
0100
0000
0010
0000
,
0001
0000
1000
0000
0010
0010
0010
0000
,
1000
0000
0001
0000
0010
0010
0010
0000
,
0100
0000
1000
0000
0010
0010
0010
0000
,
0100
0000
0000
0001
0000
0000
0100
0000
0000
0001
0000
0000
0010
0000
0000
0000
,
2002
0000
0000
3003
,
0000
0001
0000
0001
0000
0001
1000
0001
,
0000
0000
0000
0000
,
0000
1000
0000
1000
0001
0001
0010
0000
,
0100
1000
0100
1000
0100
1000
0100
0000
,
0010
0001
0010
0001
0010
0001
0010
0000
,
0001
0100
0010
1000
0001
0100
0010
1000
,
0000
1001
0000
1000
0100
0010
0001
0000
,
0200
0000
0001
0000
,
0001
0001
0001
0000
,
0010
0000
0010
0000
,
0010
0010
0010
0300
,
1002
0000
1000
0000
,
1000
1000
1000
0003
,
0210
0000
0001
1300
,
0000
2002
0000
0000
0000
0000
3003
0000
,
0100
0001
0100
0001
0100
0001
1000
0000
,
0100
1000
0100
1000
0001
0010
0001
0000
,
0110
0000
0000
1001
0000
0000
0110
0000
,
0000
0000
0001
1000
0010
0000
0000
0000
,
1000
0100
0010
0001
0010
0100
1000
0000
,
0001
0100
0010
1000
0010
0100
0001
0000
,
1000
0100
0010
0001
1000
0100
0010
0000
,
0000
0000
0001
0100
0010
0000
0000
0000
,
2000
0000
0000
0000
,
0002
0000
0000
0000
,
0000
0000
0000
0000
,
0000
0000
0000
0000
0000
0000
0000
0000
0000
0000
0000
0000
0000
0000
0000
0000
0000
0000
0000
0000
0000
0000
0000
0000
0000
0000
0000
0000
0000
0000
0000
0000
0000
0000
0000
0000
0000
0000
0000
0000
0000
0000
0000
0000
0000
0000
0000
3003
,
0000
0000
0000
0000
0000
0000
0000
0000
0000
0000
0000
0000
0000
0000
0000
0000
0000
0000
0000
0000
0000
0000
0000
0000
0200
0000
0000
0000
0000
0000
0000
0000
0000
0000
0000
0000
0000
0000
0000
0000
0000
0000
0000
0000
0000
0300
0000
0000
0000
0000
0000
0000
0000
0000
0000
0000
0000
0000
0000
0000
0000
0000
0000
0000
0000
0000
0000
0000
0000
0000
0000
0000
0200
0000
0000
0000
0000
0000
0000
0000
0000
0000
0000
0000
0000
0000
0000
0000
0000
0000
0000
0000
0000
0000
0000
0300
0000
0000
0000
0000
0000
0000
0000
0000
0000
0000
0000
0000
0000
0000
0000
0000
0000
0000
0000
0000
0000
0000
0000
0000
0200
0000
0000
0000
0000
0000
0000
0000
0000
0000
0000
0000
0000
0000
0000
0000
0000
0000
0000
0000
0000
0000
0300
0000
0000
0000
0000
0000
0000
0000
0000
0000
0000
0000
0000
0000
0000
0000
0000
0000
0000
0000
0000
0000
0000
0000
0000
0000
0000
0000
0000
0000
0000
0000
0000
0000
0000
0000
0000
0000
0000
0000
0000
0000
0000
0000
0000
0000
0000
0000
0000
0000
,
1001
0000
0000
0001
0000
0000
0100
0000
0000
0000
0010
0000
0000
0000
1000
0000
,
0001
0000
0000
0010
0000
0000
0100
0000
1000
0000
0000
0010
0000
0000
0100
0000
,
0001
0000
1000
0010
0000
0100
0000
0001
,
1000
0000
0000
0100
0000
0000
0010
0000
0001
0000
0000
0010
0000
0000
0100
0000
,
1000
0000
0000
0001
0000
0000
0100
0000
0000
0000
0010
0000
0000
0000
1000
0000
,
0100
0000
0000
0001
0000
0000
0100
0000
1000
0000
0000
0001
0000
0000
0100
0000
,
0010
0000
0000
0010
0000
0000
0010
0000
1000
0000
0000
1000
0000
0000
1000
0000
,
0001
0001
0010
0100
2000
0000
3000
0000
,
0001
0100
0000
0001
0100
0000
0001
0100
0000
0001
0100
0000
0010
0000
0000
0000
,
1000
0010
0100
0001
0100
0010
1000
0000
,
1000
0100
0000
1000
0100
0000
1000
0100
0000
1000
0100
0000
0010
0000
0000
0000
,
0001
0010
0100
1000
0100
0100
0010
0000
,
0001
1000
0000
0001
1000
0000
0001
1000
0000
0001
1000
0000
0010
0000
0000
0000
,
0100
0001
1000
0100
0010
0001
0100
0000
,
0100
0000
0000
0110
0000
0000
0100
0000
0010
0000
0000
0110
0000
0000
0010
0000
,
1000
0000
0000
1001
0000
0000
1000
0000
0001
0000
0000
1001
0000
0000
0001
0000
,
1000
0100
0010
0001
1000
0010
0100
0001
,
0010
0100
1000
1000
0001
0100
1000
0100
,
0020
0000
0000
0000
,
0000
0000
0000
0030
;

//--------------- dance-single - forcednature ----------------
#NOTES:
     dance-single:
     forcednature:
     Medium:
     16:
     0,0,0,0,0:
0000
0000
0000
0000
,
0000
0000
0000
0000
,
0000
0000
0000
0000
,
0000
0000
0000
0000
,
0000
0000
0000
0000
,
0000
0000
0000
0000
,
0000
0000
0000
0000
,
0000
0000
0000
0000
,
1000
0100
0001
0100
1000
0010
1000
0000
,
0001
0100
1000
0100
0001
0010
0001
0000
,
0100
0100
0001
0001
1000
1000
0100
0000
,
0000
0000
0010
0100
0220
0000
0330
0000
,
2002
0000
0000
3003
,
1000
0100
1000
0100
1000
0100
0020
0000
,
0031
0100
0010
0100
0001
1000
0000
0100
,
0010
0001
0100
0001
1000
0001
0010
0100
,
0010
1000
0000
0010
0100
0000
0010
0001
,
1000
0000
0001
0100
0101
0000
1000
1000
,
0010
0100
0001
0100
0010
1000
0000
0001
,
0010
0100
1000
0100
0010
0001
1000
0010
,
0100
0001
1000
0001
0010
0100
1000
0000
,
0000
0000
0001
1000
2002
0000
3003
0000
,
1000
0000
0000
1000
0000
0000
1000
0000
0000
0000
1000
0000
0000
0000
1000
0000
,
0100
0000
0000
0100
0000
0000
0100
0000
0010
0000
0001
0000
0010
0000
0000
0000
,
0001
0000
0000
0001
0000
0000
0001
0000
0000
0000
0001
0000
0000
0000
0001
0000
,
0100
0000
0000
0100
0000
0000
0100
0000
0010
0000
1000
0000
0010
0000
0000
0000
,
1000
0000
0000
0100
1000
0000
0100
0000
1000
0000
0100
0000
1000
0000
0100
0000
,
0010
0000
0000
0001
0010
0000
0001
0000
1000
0000
0010
0000
0100
0000
0000
0000
,
0001
0000
0000
1100
0000
0000
0010
0000
1000
0000
0000
0101
0000
0000
0010
0000
,
0100
0100
0010
0100
1000
0001
1000
0000
,
0001
0100
0000
0001
0100
0000
0001
0100
0000
0001
0100
0000
0010
0000
1000
0000
,
0001
0000
0000
0010
0000
0000
0001
0000
0100
0000
0010
0000
1000
0000
0001
0000
,
1000
0100
0000
1000
0100
0000
1000
0100
0000
1000
0100
0000
0010
0000
0001
0000
,
1000
0000
0000
0010
0000
0000
1000
0000
0100
0000
0010
0000
0001
0000
1000
0000
,
0001
0100
0000
0010
1000
0000
0001
0100
0000
0010
1000
0000
0001
0000
0010
0000
,
0100
0000
0000
1000
0000
0000
0001
0000
0100
0000
0010
0000
1000
0000
0001
0000
,
0010
0000
0000
0110
0000
0000
0100
0000
1000
0000
0000
1001
0000
0000
0001
0000
,
0100
0100
0010
1000
0001
0010
0100
1000
,
0002
0000
0203
0000
0310
1000
0010
0000
,
2000
0000
3200
0000
0310
0001
0010
0000
,
0200
0000
2300
0000
3001
0100
0001
0000
,
0010
0000
0000
0110
0000
0000
0100
0000
0000
0110
0000
0000
1000
0000
0001
0000
,
0200
0000
0000
0000
0302
0000
0000
0000
1003
0010
1000
0010
1000
0000
0000
0000
,
0200
0000
0000
0000
2300
0000
0000
0000
3001
0010
0001
0010
0001
0000
0000
0000
,
0200
0000
0000
0000
0320
0000
0000
0000
1030
0001
1000
0001
1000
0000
0000
0000
,
0100
0000
0000
0110
0000
0000
0010
0000
0000
0110
0000
0000
0001
0000
1000
0000
,
0020
0100
1000
0130
,
0000
0101
0000
0101
0000
1000
0001
0000
,
0020
0100
0001
0130
,
0000
1100
0000
1000
0001
0001
0020
0000
,
0130
1000
0100
1000
0001
0100
0001
0100
,
0010
1000
0010
1000
0001
0010
0001
0010
,
0100
1000
0100
0000
0010
0000
0001
0000
0100
0001
0100
0000
0010
0000
1000
0000
,
0000
1001
0000
0001
0100
0100
1000
0000
,
0110
0000
0001
0000
1000
0000
0000
0010
,
0000
0000
0010
0000
0100
0000
0001
1000
,
0100
0000
0010
0000
0001
1000
0000
0001
,
0100
0000
0010
0000
1000
0000
0000
0100
,
0100
0000
0010
0000
0001
0000
0000
1000
,
0000
0000
1000
0000
0010
0000
0100
0001
,
1000
0000
0100
0000
0010
0001
0000
0100
,
0000
0020
0000
0000
0000
0000
0030
0000
,
1000
0000
0100
0000
0010
0000
0001
0000
1000
0100
0010
0001
1000
0000
0000
0000
,
0001
0000
0100
0000
0010
0000
1000
0000
0001
0100
0010
1000
0001
0000
0000
0000
,
1100
0000
0000
0101
0000
0000
1001
0000
,
0000
0000
0010
0100
1001
0000
0000
0000
,
0001
0100
0001
0000
1000
0000
0001
0100
0001
0000
1000
0000
0010
0000
0000
0000
,
1000
0100
1000
0000
0001
0000
1000
0100
1000
0000
0001
0000
0010
0000
0000
0000
,
0001
0100
0001
0000
1000
0100
1000
0000
0001
0010
0001
0000
1000
0000
0000
0000
,
0000
0000
0100
0010
1001
0000
0000
0000
,
0200
0000
0000
0000
,
0020
0000
0000
0000
,
0000
0000
0000
0000
,
0000
0000
0000
0000
0000
0000
0000
0000
0000
0000
0000
0000
0000
0000
0000
0000
0000
0000
0000
0000
0000
0000
0000
0000
0000
0000
0000
0000
0000
0000
0000
0000
0000
0000
0000
0000
0000
0000
0000
0000
0000
0000
0000
0000
0000
0000
0000
0330
,
0000
0000
0000
0000
0000
0000
0000
0000
0000
0000
0000
0000
0000
0000
0000
0000
0000
0000
0000
0000
0000
0000
0000
0000
2000
0000
0000
0000
0000
0000
0000
0000
0000
0000
0000
0000
0000
0000
0000
0000
0000
0000
0000
0000
0000
3000
0000
0000
0000
0000
0000
0000
0000
0000
0000
0000
0000
0000
0000
0000
0000
0000
0000
0000
0000
0000
0000
0000
0000
0000
0000
0000
2000
0000
0000
0000
0000
0000
0000
0000
0000
0000
0000
0000
0000
0000
0000
0000
0000
0000
0000
0000
0000
0000
0000
3000
0000
0000
0000
0000
0000
0000
0000
0000
0000
0000
0000
0000
0000
0000
0000
0000
0000
0000
0000
0000
0000
0000
0000
0000
0002
0000
0000
0000
0000
0000
0000
0000
0000
0000
0000
0000
0000
0000
0000
0000
0000
0000
0000
0000
0000
0000
0003
0000
0000
0000
0000
0000
0000
0000
0000
0000
0000
0000
0000
0000
0000
0000
0000
0000
0000
0000
0000
0000
0000
0000
0000
0000
0000
0000
0000
0000
0000
0000
0000
0000
0000
0000
0000
0000
0000
0000
0000
0000
0000
0000
0000
0000
0000
0000
0000
0000
,
1000
0000
0000
0100
1000
0000
0010
0000
0100
0000
0001
0000
0010
0000
0001
0000
,
0100
0000
0000
0010
1000
0000
0001
0000
0010
0000
0000
0100
1000
0000
0001
0000
,
0010
0000
0000
0100
0010
0000
0001
0000
1000
0000
0001
0000
0100
0000
0010
0000
,
1000
0000
0000
0100
0010
0000
0001
0000
1000
0000
0000
0010
0100
0000
0001
0000
,
0010
0000
0000
0100
1000
0000
0001
0000
0100
0000
0010
0000
1000
0000
0001
0000
,
0010
0000
0000
0001
1000
0000
0010
0000
0100
0000
0000
0001
1000
0000
0100
0000
,
0010
0000
0000
0011
0000
0000
1000
0000
0100
0000
0000
1010
0000
0000
0001
0000
,
0100
0100
0010
1000
0002
0000
0003
0000
,
0010
0001
0000
1000
0100
0000
0010
0001
0000
1000
0100
0000
0010
0000
0001
0000
,
1000
0010
0000
1000
0001
0000
1000
0100
0010
0000
0010
0000
0001
0000
1000
0000
,
0001
0100
0000
0010
1000
0000
0001
0100
0000
0010
1000
0000
0001
0000
0100
0000
,
0001
1000
0000
0001
0010
0000
0100
1000
0001
0000
0100
0000
0010
1000
0010
0000
,
0100
0001
0000
1000
0100
0000
0010
0001
0000
1000
0010
0000
0100
0000
0001
0000
,
1000
0100
0000
1000
0010
0000
1000
0001
0100
0000
0100
0000
0001
0000
0010
0000
,
0011
0000
0000
0011
0000
0000
0011
0000
1100
0000
0000
1100
0000
0000
1100
0000
,
1010
0000
0000
1010
0000
0000
1010
0000
0101
0000
0000
0101
0000
0000
0101
0000
,
1000
0100
1000
0000
0001
0010
0001
0000
1000
0010
1000
0000
0001
0100
0001
0000
,
0010
0100
0010
0000
0001
0000
0001
0000
1000
0000
0010
0000
0100
0001
1000
0000
,
0200
0000
0000
0000
,
0000
0000
0000
0300
;

//--------------- dance-single - forcednature ----------------
#NOTES:
     dance-single:
     forcednature:
     Hard:
     18:
     0,0,0,0,0:
0000
0000
0000
0000
,
0000
0000
0000
0000
,
0000
0000
0000
0000
,
0000
0000
0000
0000
,
0000
0000
0000
0000
,
0000
0000
0000
0000
,
0000
0000
0000
0000
,
0000
0000
0000
0000
,
1000
0100
1000
0100
1000
0000
0001
0100
0001
0100
0001
0000
0010
0000
0000
0000
,
0001
0100
0001
0100
0001
0000
1000
0100
1000
0100
1000
0000
0010
0000
0000
0000
,
1000
0100
1000
0100
0010
0000
0001
0100
0001
0100
0010
0000
1000
0000
0000
0000
,
0000
0000
0001
0010
0100
0000
1000
0000
,
0020
0000
0000
0000
,
0130
0001
0100
0001
0100
0001
0020
0000
,
0130
1000
0100
0010
0001
1000
0010
0100
,
0000
1000
0100
0001
1000
0010
0100
0010
,
0001
0010
0000
1000
0001
0000
0010
0100
,
1000
0000
0000
0000
0001
0000
0100
0000
1010
0000
0000
0000
0001
0010
0001
0010
,
0100
1000
0001
1000
0010
0001
0010
0100
,
0000
0001
0010
1000
0010
0100
1000
0001
,
0100
1000
0100
0010
0100
0001
1000
0000
,
0000
0000
0001
0010
2200
0000
3300
0000
,
0002
0000
0000
0100
0000
0000
0100
0000
0000
0000
0100
0000
0000
0000
1003
0000
,
0001
0000
0000
0010
0000
0000
0100
0000
1000
0100
0010
0001
1000
0000
0000
0000
,
2000
0000
0000
0100
0000
0000
0100
0000
0000
0000
0100
0000
0000
0000
3001
0000
,
1000
0000
0000
0010
0000
0000
0100
0000
0001
0100
0010
1000
0001
0000
0000
0000
,
0010
0000
0000
0100
0010
0000
0001
0000
1000
0000
0010
0000
0100
0000
0010
0000
,
1000
0000
0000
0100
0010
0000
0001
0000
0100
0001
1000
0001
0010
0000
0000
0000
,
0101
0000
0000
0001
0000
0000
0001
0000
1000
0000
0000
1000
0000
0000
1000
0000
,
0010
0100
0001
0000
1000
0000
0100
0010
0001
1000
0001
0100
0010
0000
0000
0000
,
1000
0100
0000
0010
0100
0000
1000
0100
0000
0010
0001
0000
1000
0000
0001
0000
,
0100
0001
0000
1000
0010
0000
0100
0001
1000
0100
1000
0000
0001
0000
0010
0000
,
0001
0100
0000
0010
0100
0000
0001
0100
0000
0010
1000
0000
0001
0000
1000
0000
,
0100
1000
0000
0100
0010
0000
0001
0010
0001
0000
0100
0000
0010
1000
0001
0000
,
1000
0100
0000
0010
0001
0000
1000
0100
0000
0010
0001
0000
1000
0000
0010
0000
,
0100
0001
0000
1000
0010
0000
0100
0001
1000
0100
1000
0000
0001
0000
0010
0000
,
0110
0000
0000
1000
0000
0000
0001
0000
0110
0000
0000
0001
0000
0000
1000
0000
,
0001
0100
0010
0000
1000
0000
1000
0000
0001
0000
0010
0000
0100
1000
0001
0000
,
0200
0000
0000
0000
1000
0000
0000
0000
0301
0100
0010
1000
0002
0000
0000
0000
,
0023
0000
0000
0000
0230
0000
0000
0000
1300
0001
0100
0010
2000
0000
0000
0000
,
3200
0000
0000
0000
0001
0000
0000
0000
1300
0100
0010
0001
1000
0000
0000
0000
,
1100
0000
0000
0011
0000
0000
0101
0000
0000
1010
0000
0000
0001
0000
1000
0000
,
1002
0000
0000
0000
0010
0000
0000
0000
1003
0100
1000
0010
1000
0000
0000
0000
,
2001
0000
0000
0000
0010
0000
0000
0000
3001
0100
0001
0010
0001
0000
0000
0000
,
0021
0000
0000
0000
1000
0000
0000
0000
0130
0001
0100
1000
0100
0000
0000
0000
,
0110
0000
0000
1001
0000
0000
0110
0000
0000
1001
0000
0000
1000
0000
0001
0000
,
0200
0000
0001
0000
0310
1000
0002
0000
,
0100
1000
0000
1000
0000
1000
0013
0001
,
0200
0000
1000
0000
0310
0010
2000
0000
,
0100
0001
0000
0100
0001
0001
3010
0000
,
1000
0100
1000
0010
1000
0100
1000
0010
,
0100
0001
0010
0001
0100
0001
0010
0001
,
1000
0100
1000
0100
0010
0001
0010
0001
1000
0010
0100
0001
1000
0010
0100
0001
,
0000
0000
1001
0000
0000
0000
1000
0000
0001
0010
0100
1000
0010
0000
0000
0000
,
0101
0000
0001
0000
1000
0000
0000
0001
,
0000
0100
0001
0000
0010
0001
0100
0010
,
1000
0000
0100
0000
1000
0010
0000
1000
,
0001
0000
0100
0000
0001
0010
0001
0100
,
0110
0000
0010
0000
1000
0001
0000
0010
,
0000
0100
1000
0000
0001
0100
0010
1000
,
1010
0000
0100
0000
0001
0010
0100
1000
,
0000
0020
0000
0000
0000
0000
0030
0000
,
1000
0100
0010
0001
1000
0100
0010
0001
1000
0100
0010
0001
0100
0000
0000
0000
,
0001
0100
0010
1000
0001
0100
0010
1000
0001
0010
0100
1000
0010
0000
0000
0000
,
0101
0000
0000
1001
0000
0000
1100
0000
,
0000
0000
1010
0110
0101
0000
0000
0000
,
1000
0100
0010
0001
1000
0000
0001
0100
0010
1000
0001
0000
1001
0000
0000
0000
,
1000
0010
0100
0001
1000
0000
0001
0010
0100
1000
0001
0000
1001
0000
0000
0000
,
1000
0100
0010
0001
1000
0010
0100
0001
1000
0100
0010
0001
0100
0000
0000
0000
,
0000
0000
0000
0000
0011
0000
0110
0000
1100
0000
0000
1000
0100
0010
0001
0000
,
0100
0001
0100
0001
1000
0100
1000
0100
0010
0001
1000
0010
0100
0001
1000
0001
,
0020
0000
0000
0000
,
0000
0000
0000
0000
,
0000
0000
0000
0000
0000
0000
0000
0000
0000
0000
0000
0000
0000
0000
0000
0000
0000
0000
0000
0000
0000
0000
0000
0000
0000
0000
0000
0000
0000
0000
0000
0000
0000
0000
0000
0000
0000
0000
0000
0000
0000
0000
0000
0000
0000
0000
0000
0030
,
0000
0000
0000
0000
0000
0000
0000
0000
0000
0000
0000
0000
0000
0000
0000
0000
0000
0000
0000
0000
0000
0000
0000
0000
0200
0000
0000
0000
0000
0000
0000
0000
0000
0000
0000
0000
0000
0000
0000
0000
0000
0000
0000
0000
0000
0300
0000
0000
0000
0000
0000
0000
0000
0000
0000
0000
0000
0000
0000
0000
0000
0000
0000
0000
0000
0000
0000
0000
0000
0000
0000
0000
0200
0000
0000
0000
0000
0000
0000
0000
0000
0000
0000
0000
0000
0000
0000
0000
0000
0000
0000
0000
0000
0000
0000
0300
0000
0000
0000
0000
0000
0000
0000
0000
0000
0000
0000
0000
0000
0000
0000
0000
0000
0000
0000
0000
0000
0000
0000
0000
0200
0000
0000
0000
0000
0000
0000
0000
0000
0000
0000
0000
0000
0000
0000
0000
0000
0000
0000
0000
0000
0000
0300
0000
0000
0000
0000
0000
0000
0000
0000
0000
0000
0000
0000
0000
0000
0000
0000
0000
0000
0000
0000
0000
0000
0000
0000
0000
0000
0000
0000
0000
0000
0000
0000
0000
0000
0000
0000
0000
0000
0000
0000
0000
0000
0000
0000
0000
0000
0000
0000
0000
,
1000
0010
0000
0100
0001
0000
1000
0010
1000
0000
0100
0000
0010
0000
0001
0000
,
0010
0100
0000
1000
0100
0000
0010
0001
1000
0001
0000
0100
0001
0000
1000
0010
,
1000
0001
0000
0010
0001
0000
1000
0100
0010
0000
0001
0000
1000
0000
0001
0000
,
0100
0010
0000
1000
0010
0000
0100
0001
1000
0100
0000
0010
0001
0000
0010
0100
,
1000
0001
0000
0100
0001
0000
0010
0001
1000
0000
0100
0000
1000
0000
0010
0000
,
0100
0001
0000
1000
0100
0000
0010
0001
1000
0010
0000
0100
0001
0000
1000
0100
,
1000
0000
0000
1100
0000
0000
1010
0000
1001
0000
0000
0101
0000
0000
0011
0000
,
0001
0100
0010
0000
1000
0000
0001
0010
0200
0000
0000
0000
1300
0000
0000
0000
,
0100
0010
0001
0010
0100
0000
1000
0001
0100
0010
1000
0000
0001
0000
0010
0000
,
0100
0000
1000
0001
0100
0000
0010
1000
0001
1000
0100
0010
0001
0000
0100
0000
,
0010
1000
0001
0010
0100
0000
0010
0001
1000
0010
0100
0000
0001
0000
1000
0000
,
0010
0000
0100
0001
1000
0000
0100
0010
0002
0000
0100
0000
1003
0001
0010
0000
,
0100
1000
0001
1000
0010
0000
0100
0001
1000
0010
0100
0000
0001
0000
0010
0000
,
0100
0000
1000
0001
0100
0000
0010
1000
0001
0010
0100
1000
0010
0000
0100
0000
,
0101
0000
0000
1001
0000
0000
0011
0000
1100
0000
0000
1001
0000
0000
1010
0000
,
0101
0000
0000
1100
0000
0000
1001
0000
1010
0000
0000
0011
0000
0000
1001
0000
,
1000
0100
0010
0001
0100
0010
1000
0100
0010
0001
0100
0010
1000
0100
0010
0001
,
0100
0010
1000
0000
0001
0000
0001
0000
0010
0000
0100
0000
1000
0001
0100
0000
,
0220
0000
0000
0000
,
0000
0000
0000
0330
;

//--------------- dance-double - forcednature ----------------
#NOTES:
     dance-double:
     forcednature:
     Easy:
     13:
     0,0,0,0,0:
00000000
00000000
00000000
00000000
,
00000000
00000000
00000000
00000000
,
00000000
00000000
00000000
00000000
,
00000000
00000000
00000000
00000000
,
00000000
00000000
00000000
00000000
,
00000000
00000000
00000000
00000000
,
00000000
00000000
00000000
00000000
,
00000000
00000000
00000000
00000000
,
00001000
00010000
00000100
00001000
00000010
00010000
00001000
00000000
,
00010000
00001000
01000000
00010000
00100000
00001000
00010000
00000000
,
00100000
10000000
00010000
10000000
01000000
00010000
00001000
00000000
,
00000000
00000000
00000010
00000100
00000020
00000000
00000030
00000000
,
00000002
00000000
00000000
00000000
,
00000103
00000100
00000100
00000110
,
00001001
00001000
00000100
00010000
,
00001000
01000000
00010000
00100000
,
01000000
10000000
00000000
01000000
00010000
00000000
01000000
10000000
,
00000000
00000000
00010000
01000000
00100000
00000000
00000000
00000000
,
00011000
00000000
01000000
00010000
00000000
00100000
00001000
00000000
,
00011000
00000000
00000100
00001000
00000000
00000010
00010000
00000000
,
00001000
00100000
00010000
10000000
00100000
01000000
00010000
00000000
,
00000000
00000000
00100000
00001000
00020000
00000000
00030000
00000000
,
00000020
00000000
00001000
00000000
,
00010030
00001000
02000000
03010000
,
00200000
00000000
00010000
00000000
,
00301000
00010000
00000200
00001300
,
00000010
00000010
00000100
00000100
,
00000001
00000000
00000001
00000000
00001000
00000100
00001000
00000000
,
00000010
00000000
00000000
00010000
00000000
00000000
00001000
00000000
00100000
00000000
00000000
00001000
00000000
00000000
00010000
00000000
,
00100000
00000000
00100000
10000000
00020000
00000000
00030000
00000000
,
00100000
00000000
00000000
01000000
00000000
00000000
00100000
00000000
00000000
01000000
00000000
00000000
10000000
00000000
00000000
00000000
,
00010000
00000000
00000000
01000000
00000000
00000000
00010000
00000000
00100000
00000000
00001000
00000000
00010000
00000000
00000000
00000000
,
00000010
00000000
00000000
00001000
00000000
00000000
00000010
00000000
00000000
00001000
00000000
00000000
00000001
00000000
00000000
00000000
,
00000010
00000000
00000000
00000100
00000000
00000000
00000010
00000000
00000001
00000000
00001000
00000000
00000001
00000000
00000000
00000000
,
00000100
00000000
00000000
00001000
00000000
00000000
00000100
00000000
00000000
00001000
00000000
00000000
00010000
00000000
00000000
00000000
,
00100000
00000000
00000000
01000000
00000000
00000000
00100000
00000000
10000000
00000000
00010000
00000000
00100000
00000000
00000000
00000000
,
01000000
00000000
00000000
01000000
00000000
00000000
01000000
00000000
00010000
00000000
00000000
00010000
00000000
00000000
00010000
00000000
,
00001000
00000000
00000010
00000100
00001000
00000001
00000100
00000000
,
00001010
00000001
00000020
00000130
,
00010000
00001000
02000000
03010000
,
10010000
10000000
02000000
03010000
,
00001000
00000000
00000000
00010000
00000000
00000000
00001000
00000000
00000000
00010000
00000000
00000000
00000010
00000000
00001000
00000000
,
00000010
00000000
00000100
00000000
00000001
00000001
00000001
00000000
,
00000010
00000000
00000100
00000000
00010000
00010000
00010000
00000000
,
00001000
00000000
01000000
00000000
00010000
00010000
00010000
00000000
,
00100000
00000000
00000000
01000000
00000000
00000000
00100000
00000000
00000000
01000000
00000000
00000000
10000000
00000000
00000000
00000000
,
20020000
00000000
00000000
30030000
,
00000000
10000000
00000000
10000000
00000000
10000000
01000000
00010000
,
00000000
00000000
00000000
00000000
,
00000000
00001000
00000000
00001000
00000100
00000100
00000001
00000000
,
00000010
00000100
00000010
00000100
00001000
00000100
00001000
00000100
,
00010000
00001000
00010000
00001000
01000000
00010000
01000000
00010000
,
00100000
01000000
10000000
01000000
00100000
00010000
01000000
00001000
,
00000000
00011000
00000000
00010000
00000100
00001000
00000010
00000000
,
00020000
00000000
00000100
00000000
,
00000100
00000100
00000100
00000000
,
00001000
00000000
00001000
00000000
,
00100000
00100000
00100000
00030000
,
00012000
00000000
01000000
00000000
,
00010000
00010000
00013000
00000000
,
00010200
00000000
00000000
00000000
00001000
00000000
00000000
00000310
,
00000000
00000220
00000000
00000000
00000000
00000000
00000330
00000000
,
00000001
00000100
00000010
00010000
00001000
01000000
00010000
00000000
,
10000000
01000000
00100000
00001000
00010000
00000100
00001000
00000000
,
00000110
00000000
00000000
00011000
00000000
00000000
01100000
00000000
,
00000000
00000000
00010000
10000000
01000000
00000000
00000000
00000000
,
00100000
00001000
00010000
00000100
00010000
00001000
00100000
00000000
,
00001000
01000000
00001000
00010000
00000010
00010000
00001000
00000000
,
00100000
00010000
01000000
00001000
00010000
00000100
00001000
00000000
,
00000000
00000000
00000010
00000100
00000001
00000000
00000000
00000000
,
00000020
00000000
00000000
00000000
,
00000200
00000000
00000000
00000000
,
00000000
00000000
00000000
00000000
,
00000000
00000000
00000000
00000000
00000000
00000000
00000000
00000000
00000000
00000000
00000000
00000000
00000000
00000000
00000000
00000000
00000000
00000000
00000000
00000000
00000000
00000000
00000000
00000000
00000000
00000000
00000000
00000000
00000000
00000000
00000000
00000000
00000000
00000000
00000000
00000000
00000000
00000000
00000000
00000000
00000000
00000000
00000000
00000000
00000000
00000000
00000000
00000330
,
00000000
00000000
00000000
00000000
00000000
00000000
00000000
00000000
00000000
00000000
00000000
00000000
00000000
00000000
00000000
00000000
00000000
00000000
00000000
00000000
00000000
00000000
00000000
00000000
00002000
00000000
00000000
00000000
00000000
00000000
00000000
00000000
00000000
00000000
00000000
00000000
00000000
00000000
00000000
00000000
00000000
00000000
00000000
00000000
00000000
00003000
00000000
00000000
00000000
00000000
00000000
00000000
00000000
00000000
00000000
00000000
00000000
00000000
00000000
00000000
00000000
00000000
00000000
00000000
00000000
00000000
00000000
00000000
00000000
00000000
00000000
00000000
00002000
00000000
00000000
00000000
00000000
00000000
00000000
00000000
00000000
00000000
00000000
00000000
00000000
00000000
00000000
00000000
00000000
00000000
00000000
00000000
00000000
00000000
00000000
00003000
00000000
00000000
00000000
00000000
00000000
00000000
00000000
00000000
00000000
00000000
00000000
00000000
00000000
00000000
00000000
00000000
00000000
00000000
00000000
00000000
00000000
00000000
00000000
00000000
00000002
00000000
00000000
00000000
00000000
00000000
00000000
00000000
00000000
00000000
00000000
00000000
00000000
00000000
00000000
00000000
00000000
00000000
00000000
00000000
00000000
00000000
00000003
00000000
00000000
00000000
00000000
00000000
00000000
00000000
00000000
00000000
00000000
00000000
00000000
00000000
00000000
00000000
00000000
00000000
00000000
00000000
00000000
00000000
00000000
00000000
00000000
00000000
00000000
00000000
00000000
00000000
00000000
00000000
00000000
00000000
00000000
00000000
00000000
00000000
00000000
00000000
00000000
00000000
00000000
00000000
00000000
00000000
00000000
00000000
00000000
00000000
,
00001001
00000000
00000000
00001000
00000000
00000000
00000100
00000000
00000000
00000000
00010000
00000000
00000000
00000000
00001000
00000000
,
01000000
00000000
00000000
00010000
00000000
00000000
00100000
00000000
01000000
00000000
00000000
10000000
00000000
00000000
00100000
00000000
,
01000000
00000000
00001000
00010000
00000000
00000100
00000000
00001000
,
00000001
00000000
00000000
00000100
00000000
00000000
00001000
00000000
00010000
00000000
00000000
01000000
00000000
00000000
10000000
00000000
,
00100000
00000000
00000000
01000000
00000000
00000000
00010000
00000000
00000000
00000000
00100000
00000000
00000000
00000000
00001000
00000000
,
00010000
00000000
00000000
00100000
00000000
00000000
00010000
00000000
00001000
00000000
00000000
00000010
00000000
00000000
00001000
00000000
,
00010000
00000000
00000000
00010000
00000000
00000000
00010000
00000000
00000100
00000000
00000000
00000100
00000000
00000000
00000100
00000000
,
00001000
00001000
00000010
00000100
00000002
00000000
00000003
00000000
,
00000020
00000000
00000000
00000230
00000000
00000000
00020300
00000000
00000000
00032000
00000000
00000000
01003000
00000000
00010000
00000000
,
00100000
01000000
10000000
01000000
00100000
00001000
00010000
00000010
,
00002000
00000000
00000000
00003200
00000000
00000000
00000302
00000000
00000000
00000203
00000000
00000000
00000310
00000000
00000001
00000000
,
00001000
00000001
00000100
00001000
00010000
00010000
00100000
10000000
,
00020000
00000000
00000000
00230000
00000000
00000000
02300000
00000000
00000000
23000000
00000000
00000000
30100000
00000000
01000000
00000000
,
00010000
00100000
00001000
00010000
00000010
00001000
00000100
00010000
,
00001000
00000000
00000000
01000000
00000000
00000000
00001000
00000000
00010000
00000000
00000000
00000100
00000000
00000000
00010000
00000000
,
00001000
00000000
00000000
00100000
00000000
00000000
00001000
00000000
00010000
00000000
00000000
00000010
00000000
00000000
00010000
00000000
,
00001000
00100000
00010000
01000000
00001000
00010000
00000100
00001000
,
00000010
00010000
00001000
00000010
00000100
00010000
00001000
00000100
,
00000002
00000000
00000000
00000000
,
00000000
00000000
00000000
00000003
;

//--------------- dance-double - forcednature ----------------
#NOTES:
     dance-double:
     forcednature:
     Medium:
     16:
     0,0,0,0,0:
00000000
00000000
00000000
00000000
,
00000000
00000000
00000000
00000000
,
00000000
00000000
00000000
00000000
,
00000000
00000000
00000000
00000000
,
00000000
00000000
00000000
00000000
,
00000000
00000000
00000000
00000000
,
00000000
00000000
00000000
00000000
,
00000000
00000000
00000000
00000000
,
00001000
00010000
00100000
01000000
00100000
00010000
00001000
00000000
,
00010000
00001000
00000010
00000100
00000010
00001000
00010000
00000000
,
00100000
01000000
00010000
10000000
01000000
00100000
00001000
00000000
,
00000000
00000000
00010000
00000010
00002000
00000000
00003000
00000000
,
00000200
00000000
00000000
00000300
,
00000010
00000001
00000010
00000001
00000010
00000001
00000200
00000000
,
00001300
00010000
00001000
01000000
00010000
00100000
00000000
01000000
,
10000000
01000000
00010000
00001000
00010000
00000100
00001000
00000001
,
00000100
00001000
00000000
00000100
00000001
00000000
00000010
00000100
,
00001000
00000000
00000001
00000100
00001000
00000000
00010000
00010000
,
00100000
10000000
00010000
10000000
01000000
00010000
00000000
00001000
,
00000010
00000100
00000010
00000001
00001000
00000001
00000100
00001000
,
00010000
00100000
01000000
00100000
10000000
00010000
00100000
00000000
,
00000000
00000000
01000000
00010000
00002000
00000000
00003000
00000000
,
00000100
00000000
00000000
00000100
00000000
00000000
00000100
00000000
00000000
00000000
00000100
00000000
00000000
00000000
00000100
00000000
,
00000001
00000000
00000000
00000001
00000000
00000000
00000001
00000000
00000010
00000000
00000100
00000000
00000010
00000000
00000000
00000000
,
00001000
00000000
00000000
00001000
00000000
00000000
00001000
00000000
00000000
00000000
00001000
00000000
00000000
00000000
00001000
00000000
,
00010000
00000000
00000000
00010000
00000000
00000000
00010000
00000000
00100000
00000000
01000000
00000000
00100000
00000000
00000000
00000000
,
10000000
00000000
00000000
01000000
10000000
00000000
00010000
00000000
10000000
00000000
00100000
00000000
10000000
00000000
00010000
00000000
,
01000000
00000000
00000000
00010000
00001000
00000000
00010000
00000000
00000100
00000000
00001000
00000000
00000010
00000000
00000000
00000000
,
00000100
00000000
00000000
00001000
00000000
00000000
00010000
00000000
01000000
00000000
00000000
00010000
00000000
00000000
00001000
00000000
,
01000000
01000000
00010000
00100000
00001000
00010000
00100000
00000000
,
10000000
01000000
00000000
01000000
00100000
00000000
00100000
00010000
00000000
00010000
01000000
00000000
00001000
00000000
00010000
00000000
,
00000100
00000000
00000000
00001000
00000000
00000000
00000010
00000000
00000100
00000000
00000001
00000000
00000010
00000000
00000001
00000000
,
00000100
00000001
00000000
00000001
00001000
00000000
00001000
00000100
00000000
00000100
00010000
00000000
00001000
00000000
01000000
00000000
,
00010000
00000000
00000000
00100000
00000000
00000000
01000000
00000000
10000000
00000000
00100000
00000000
00010000
00000000
00100000
00000000
,
01000000
00010000
00000000
00010000
00100000
00000000
00100000
00001000
00000000
00001000
00010000
00000000
00000010
00000000
00001000
00000000
,
00000100
00000000
00000000
00000010
00000000
00000000
00000001
00000000
00000100
00000000
00001000
00000000
00000100
00000000
00000001
00000000
,
00000010
00000000
00000000
00000100
00000000
00000000
00010000
00000000
00001000
00000000
00000000
01000000
00000000
00000000
00100000
00000000
,
10000000
10000000
01000000
00010000
00001000
00010000
00000010
00001000
,
00000200
00000000
00000302
00000000
00000103
00001000
00000010
00000000
,
00000200
00000000
00002300
00000000
00013000
00100000
01000000
00000000
,
00020000
00000000
20030000
00000000
31000000
00010000
00001000
00000000
,
00000010
00000000
00000000
00000110
00000000
00000000
00000100
00000000
00000000
00000110
00000000
00000000
00001000
00000000
00000001
00000000
,
00000200
00000000
00000000
00000000
00002300
00000000
00000000
00000000
00013000
00100000
00010000
00100000
00010000
00000000
00000000
00000000
,
00002000
00000000
00000000
00000000
02003000
00000000
00000000
00000000
03100000
10000000
00100000
10000000
00100000
00000000
00000000
00000000
,
02000000
00000000
00000000
00000000
03002000
00000000
00000000
00000000
00013000
00000100
00010000
00000100
00010000
00000000
00000000
00000000
,
00001000
00000000
00000000
00001100
00000000
00000000
00000100
00000000
00000000
00000101
00000000
00000000
00000001
00000000
00000010
00000000
,
00000200
00000001
00000010
00001300
,
00000000
00010100
00000000
00010100
00000000
00010000
00001000
00000000
,
02000000
00010000
00100000
13000000
,
00000000
01100000
00000000
10000000
01000000
01000000
00020000
00000000
,
00031000
00010000
00001000
00010000
00100000
10000000
00100000
10000000
,
01000000
00010000
01000000
00010000
00001000
00000100
00001000
00000100
,
00000001
00000010
00000001
00000000
00000100
00000000
00001000
00000000
00010000
00001000
00010000
00000000
00100000
00000000
01000000
00000000
,
00000000
10010000
00000000
10000000
01000000
00010000
00001000
00000000
,
00011000
00000000
00010000
00000000
00000100
00000000
00000000
00001000
,
00000000
00000000
00001000
00000000
00000001
00000000
00000100
00000010
,
00001000
00000000
00000100
00000000
00010000
00001000
00000000
00001000
,
01000000
00000000
00100000
00000000
10000000
00000000
00000000
01000000
,
01000000
00000000
00010000
00000000
00001000
00000000
00000000
00000010
,
00000000
00000000
00000100
00000000
00001000
00000000
00000001
00000100
,
00001000
00000000
00000100
00000000
00000010
00010000
00000000
00001000
,
00000000
00200000
00000000
00000000
00000000
00000000
00300000
00000000
,
01000000
00000000
10000000
00000000
01000000
00000000
00010000
00000000
00001000
00010000
00001000
00010000
00000010
00000000
00000000
00000000
,
00000100
00000000
00000001
00000000
00000100
00000000
00001000
00000000
00010000
00001000
00010000
00001000
00100000
00000000
00000000
00000000
,
00110000
00000000
00000000
11000000
00000000
00000000
10010000
00000000
,
00000000
00000000
10000000
01000000
00010000
00000000
00000000
00000000
,
00001000
01000000
00001000
00000000
00010000
00000000
00001000
01000000
00001000
00000000
00010000
00000000
00000010
00000000
00000000
00000000
,
00010000
00000100
00010000
00000000
00001000
00000000
00010000
00000100
00010000
00000000
00001000
00000000
00100000
00000000
00000000
00000000
,
00001000
01000000
00001000
00000000
00010000
00000100
00010000
00000000
00001000
00100000
00001000
00000000
00010000
00000000
00000000
00000000
,
00000000
00000000
00000000
00000000
00100000
00000000
10000000
00000000
01000000
00000000
00000000
00100000
00000000
00000000
00001000
00000000
,
00020000
00000000
00000000
00000000
,
00002000
00000000
00000000
00000000
,
00000000
00000000
00000000
00000000
,
00000000
00000000
00000000
00000000
00000000
00000000
00000000
00000000
00000000
00000000
00000000
00000000
00000000
00000000
00000000
00000000
00000000
00000000
00000000
00000000
00000000
00000000
00000000
00000000
00000000
00000000
00000000
00000000
00000000
00000000
00000000
00000000
00000000
00000000
00000000
00000000
00000000
00000000
00000000
00000000
00000000
00000000
00000000
00000000
00000000
00000000
00000000
00033000
,
00000000
00000000
00000000
00000000
00000000
00000000
00000000
00000000
00000000
00000000
00000000
00000000
00000000
00000000
00000000
00000000
00000000
00000000
00000000
00000000
00000000
00000000
00000000
00000000
00000200
00000000
00000000
00000000
00000000
00000000
00000000
00000000
00000000
00000000
00000000
00000000
00000000
00000000
00000000
00000000
00000000
00000000
00000000
00000000
00000000
00000300
00000000
00000000
00000000
00000000
00000000
00000000
00000000
00000000
00000000
00000000
00000000
00000000
00000000
00000000
00000000
00000000
00000000
00000000
00000000
00000000
00000000
00000000
00000000
00000000
00000000
00000000
00000200
00000000
00000000
00000000
00000000
00000000
00000000
00000000
00000000
00000000
00000000
00000000
00000000
00000000
00000000
00000000
00000000
00000000
00000000
00000000
00000000
00000000
00000000
00000300
00000000
00000000
00000000
00000000
00000000
00000000
00000000
00000000
00000000
00000000
00000000
00000000
00000000
00000000
00000000
00000000
00000000
00000000
00000000
00000000
00000000
00000000
00000000
00000000
00000020
00000000
00000000
00000000
00000000
00000000
00000000
00000000
00000000
00000000
00000000
00000000
00000000
00000000
00000000
00000000
00000000
00000000
00000000
00000000
00000000
00000000
00000030
00000000
00000000
00000000
00000000
00000000
00000000
00000000
00000000
00000000
00000000
00000000
00000000
00000000
00000000
00000000
00000000
00000000
00000000
00000000
00000000
00000000
00000000
00000000
00000000
00000000
00000000
00000000
00000000
00000000
00000000
00000000
00000000
00000000
00000000
00000000
00000000
00000000
00000000
00000000
00000000
00000000
00000000
00000000
00000000
00000000
00000000
00000000
00000000
00000000
,
00000001
00000000
00000000
00000100
00000001
00000000
00000010
00000000
00000100
00000000
00001000
00000000
00000100
00000000
00010000
00000000
,
00001000
00000000
00000000
01000000
00010000
00000000
00100000
00000000
01000000
00000000
00000000
10000000
00010000
00000000
01000000
00000000
,
10000000
00000000
00000000
01000000
00010000
00000000
00100000
00000000
01000000
00000000
00010000
00000000
00001000
00000000
00000010
00000000
,
00000100
00000000
00000000
00010000
00001000
00000000
00000100
00000000
00000001
00000000
00000000
00000010
00000100
00000000
00010000
00000000
,
00001000
00000000
00000000
01000000
00010000
00000000
00100000
00000000
10000000
00000000
00100000
00000000
01000000
00000000
10000000
00000000
,
00010000
00000000
00000000
01000000
00001000
00000000
00010000
00000000
00000100
00000000
00000000
00001000
00000010
00000000
00000100
00000000
,
00000001
00000000
00000000
00000110
00000000
00000000
00001000
00000000
00000010
00000000
00000000
00011000
00000000
00000000
00100000
00000000
,
00010000
00010000
01000000
00100000
20000000
00000000
30000000
00000000
,
01000000
00010000
00000000
00001000
00010000
00000000
01000000
00010000
00000000
00001000
00010000
00000000
00000010
00000000
00001000
00000000
,
00000001
00000100
00000000
00001000
00000100
00000000
00000010
00010000
00001000
00000000
00001000
00000000
00000010
00000000
00000100
00000000
,
00001000
00000010
00000000
00000001
00000010
00000000
00001000
00000010
00000000
00000001
00000010
00000000
00000100
00000000
00001000
00000000
,
00010000
00001000
00000000
01000000
00001000
00000000
00100000
00010000
00100000
00000000
01000000
00000000
10000000
00010000
01000000
00000000
,
00001000
00010000
00000000
01000000
00010000
00000000
00001000
00010000
00000000
01000000
00010000
00000000
00001000
00000000
00000010
00000000
,
00000100
00001000
00000000
00000001
00001000
00000000
00000010
00000100
00000001
00000000
00000001
00000000
00000010
00000000
00000100
00000000
,
00010000
00000000
00000000
00001000
00000000
00000000
00000100
00000000
00001000
00000000
00000000
00010000
00000000
00000000
01000000
00000000
,
00010000
00000000
00000000
00001000
00000000
00000000
00000010
00000000
00001000
00000000
00000000
00010000
00000000
00000000
00100000
00000000
,
10000000
01000000
00100000
00010000
00001000
00000100
00000010
00000001
,
00000100
00000000
00001000
00000000
00010000
00000000
00010000
00000000
00100000
00000000
10000000
00000000
00010000
00100000
01000000
00000000
,
00020000
00000000
00000000
00000000
,
00000000
00000000
00000000
00030000
;

//--------------- dance-double - forcednature ----------------
#NOTES:
     dance-double:
     forcednature:
     Hard:
     18:
     0,0,0,0,0:
00000000
00000000
00000000
00000000
,
00000000
00000000
00000000
00000000
,
00000000
00000000
00000000
00000000
,
00000000
00000000
00000000
00000000
,
00000000
00000000
00000000
00000000
,
00000000
00000000
00000000
00000000
,
00000000
00000000
00000000
00000000
,
00000000
00000000
00000000
00000000
,
00001000
01000000
00001000
01000000
00001000
00000000
00010000
00000100
00010000
00000100
00010000
00000000
00001000
00000000
00000000
00000000
,
00010000
00000010
00010000
00000010
00010000
00000000
00001000
00100000
00001000
00100000
00001000
00000000
00010000
00000000
00000000
00000000
,
00000100
00010000
00000100
00010000
00001000
00000000
01000000
00001000
01000000
00001000
00010000
00000000
00100000
00000000
00000000
00000000
,
00000000
00000000
10000000
01000000
00010000
00000000
00001000
00000000
,
00000020
00000000
00000000
00000000
,
00000130
00000100
00000100
00000100
00000100
00000100
00002000
00000000
,
00003001
00000100
00000010
00000100
00001000
00010000
01000000
00100000
,
00000000
00010000
01000000
10000000
01000000
00100000
10000000
00010000
,
10000000
01000000
00000000
00010000
00001000
00000000
00000100
00000001
,
00000010
00000000
00000000
00000000
00000001
00000000
00000100
00000000
00001000
00000000
00000000
00000000
00010000
00100000
00010000
00100000
,
01000000
00010000
10000000
00010000
00100000
01000000
00100000
00001000
,
00000000
00010000
00000010
00001000
00000100
00000001
00000100
00001000
,
00000010
00010000
00001000
00010000
01000000
00100000
00010000
00000000
,
00000000
00000000
10000000
01000000
00020000
00000000
00030000
00000000
,
00002000
00000000
00000000
01000000
00000000
00000000
01000000
00000000
00000000
00000000
01000000
00000000
00000000
00000000
00103000
00000000
,
00001000
00000000
00000000
00010000
00000000
00000000
00000100
00000000
00001000
00000010
00001000
00000001
00000100
00000000
00000010
00000000
,
00020000
00000000
00000000
00000100
00000000
00000000
00000100
00000000
00000000
00000000
00000100
00000000
00000000
00000000
00030010
00000000
,
00010000
00000000
00000000
00001000
00000000
00000000
01000000
00000000
00010000
10000000
00010000
00100000
01000000
00000000
00010000
00000000
,
00001000
00000000
00000000
00010000
00001000
00000000
00000100
00000000
00001000
00000000
00010000
00000000
00001000
00000000
01000000
00000000
,
00010000
00000000
00000000
10000000
00010000
00000000
00100000
00000000
01000000
10000000
00010000
10000000
00100000
00000000
00000000
00000000
,
10000000
00000000
00000000
01000000
00000000
00000000
00001000
00000000
00000100
00000000
00000000
00010000
00000000
00000000
00001000
00000000
,
01000000
00010000
01000000
00000000
00001000
00000000
00010000
00100000
01000000
00100000
10000000
00010000
10000000
00000000
00000000
00000000
,
10000000
00100000
00000000
01000000
00100000
00000000
00010000
00100000
00000000
00010000
00001000
00000000
00000010
00000000
00001000
00000000
,
00010000
00000100
00000000
00001000
00000100
00000000
00000010
00000001
00001000
00000010
00001000
00000000
00010000
00000000
01000000
00000000
,
00100000
10000000
00000000
00010000
10000000
00000000
01000000
10000000
00000000
01000000
00010000
00000000
00001000
00000000
00000010
00000000
,
00000100
00000001
00000000
00000100
00001000
00000000
00000001
00000010
00000001
00000000
00000100
00000000
00001000
00010000
00001000
00000000
,
01000000
00010000
00000000
01000000
10000000
00000000
01000000
00010000
00000000
01000000
00001000
00000000
00100000
00000000
00010000
00000000
,
00001000
00000100
00000000
00000010
00000100
00000000
00000001
00000100
00001000
00000001
00001000
00000000
00000010
00000000
00000100
00000000
,
00001000
00000000
00000000
01000000
00000000
00000000
00010000
00000000
00100000
00000000
00000000
00001000
00000000
00000000
00000010
00000000
,
00000001
00001000
00000001
00000000
00000100
00000000
00000100
00000000
00001000
00000000
01000000
00000000
00010000
10000000
00100000
00000000
,
02000000
00000000
00000000
00000000
10000000
00000000
00000000
00000000
03010000
01000000
00001000
00010000
00002000
00000000
00000000
00000000
,
00003200
00000000
00000000
00000000
00000320
00000000
00000000
00000000
00001030
00000100
00000010
00000001
00000200
00000000
00000000
00000000
,
00002300
00000000
00000000
00000000
00100000
00000000
00000000
00000000
00013000
00001000
01000000
00010000
01000000
00000000
00000000
00000000
,
00100000
00000000
00000000
00010000
00000000
00000000
00000010
00000000
00000000
00001000
00000000
00000000
00000100
00000000
00000010
00000000
,
00000002
00000000
00000000
00000000
00000203
00000000
00000000
00000000
00001300
00010000
00001000
00010000
00100000
00000000
00000000
00000000
,
20000000
00000000
00000000
00000000
32000000
00000000
00000000
00000000
03010000
00001000
00010000
00001000
00000010
00000000
00000000
00000000
,
00000002
00000000
00000000
00000000
00000203
00000000
00000000
00000000
00001300
00010000
00001000
00010000
01000000
00000000
00000000
00000000
,
00100000
00000000
00000000
00001000
00000000
00000000
00000100
00000000
00000000
00000001
00000000
00000000
00000010
00000000
00000100
00000000
,
00020000
00000000
00000010
00000000
00031000
00010000
00200000
00000000
,
00010000
01000000
00000000
01000000
00000000
01000000
10300000
00100000
,
00020000
00000000
00000100
00000000
00031000
00001000
00000020
00000000
,
00000001
00000100
00000000
00000001
00000100
00000100
00001030
00000000
,
00000010
00000001
00000100
00000001
00000010
00001000
00010000
00100000
,
10000000
01000000
10000000
00100000
10000000
01000000
00010000
00001000
,
01000000
00010000
01000000
00001000
00010000
00000100
00001000
00000100
00000010
00000001
00001000
00000001
00000100
00001000
00010000
00001000
,
00000000
00000000
01100000
00000000
00000000
00000000
10000000
00000000
01000000
00010000
00001000
00010000
00000010
00000000
00000000
00000000
,
00001100
00000000
00010000
00000000
00000010
00000000
00000000
00001000
,
00000000
00000001
00000100
00000000
00001000
00010000
00001000
00100000
,
00010000
00000000
10000000
00000000
01000000
00010000
00000000
00001000
,
00010000
00000000
00000010
00000000
00001000
00000100
00000010
00000001
,
00001001
00000000
00000001
00000000
00000100
00001000
00000000
00010000
,
00000000
00100000
01000000
00000000
00010000
10000000
01000000
10000000
,
10100000
00000000
00010000
00000000
10000000
01000000
00010000
00001000
,
00000000
00000020
00000000
00000000
00000000
00000000
00000030
00000000
,
00000001
00000100
00000010
00001000
00000010
00010000
00001000
01000000
00010000
01000000
00100000
10000000
00010000
00000000
00000000
00000000
,
10000000
01000000
00100000
00010000
00100000
00001000
00010000
00000100
00001000
00000100
00000010
00000001
00001000
00000000
00000000
00000000
,
00000110
00000000
00000000
00011000
00000000
00000000
01100000
00000000
,
00000000
00000000
00000100
00010000
00100000
00000000
00000000
00000000
,
10000000
01000000
00100000
00001000
00010000
00000000
00001000
00010000
00000100
00000010
00000001
00000000
00001001
00000000
00000000
00000000
,
00000001
00000100
00000010
00010000
00001000
00000000
00010000
00001000
01000000
00100000
10000000
00000000
10010000
00000000
00000000
00000000
,
10000000
01000000
00100000
00010000
01000000
00001000
00010000
00000010
00001000
00000100
00000010
00000001
00000100
00000000
00000000
00000000
,
00000000
00000000
00000000
00000000
00000010
00000000
00010000
00000000
01000000
00000000
00000000
00100000
01000000
10000000
01000000
00000000
,
00100000
00010000
01000000
00001000
00010000
00000100
00001000
00000010
00010000
00001000
00100000
00010000
10000000
00100000
00010000
00001000
,
00000200
00000000
00000000
00000000
,
00000000
00000000
00000000
00000000
,
00000000
00000000
00000000
00000000
00000000
00000000
00000000
00000000
00000000
00000000
00000000
00000000
00000000
00000000
00000000
00000000
00000000
00000000
00000000
00000000
00000000
00000000
00000000
00000000
00000000
00000000
00000000
00000000
00000000
00000000
00000000
00000000
00000000
00000000
00000000
00000000
00000000
00000000
00000000
00000000
00000000
00000000
00000000
00000000
00000000
00000000
00000000
00000300
,
00000000
00000000
00000000
00000000
00000000
00000000
00000000
00000000
00000000
00000000
00000000
00000000
00000000
00000000
00000000
00000000
00000000
00000000
00000000
00000000
00000000
00000000
00000000
00000000
00000002
00000000
00000000
00000000
00000000
00000000
00000000
00000000
00000000
00000000
00000000
00000000
00000000
00000000
00000000
00000000
00000000
00000000
00000000
00000000
00000000
00000003
00000000
00000000
00000000
00000000
00000000
00000000
00000000
00000000
00000000
00000000
00000000
00000000
00000000
00000000
00000000
00000000
00000000
00000000
00000000
00000000
00000000
00000000
00000000
00000000
00000000
00000000
00000002
00000000
00000000
00000000
00000000
00000000
00000000
00000000
00000000
00000000
00000000
00000000
00000000
00000000
00000000
00000000
00000000
00000000
00000000
00000000
00000000
00000000
00000000
00000003
00000000
00000000
00000000
00000000
00000000
00000000
00000000
00000000
00000000
00000000
00000000
00000000
00000000
00000000
00000000
00000000
00000000
00000000
00000000
00000000
00000000
00000000
00000000
00000000
00000002
00000000
00000000
00000000
00000000
00000000
00000000
00000000
00000000
00000000
00000000
00000000
00000000
00000000
00000000
00000000
00000000
00000000
00000000
00000000
00000000
00000000
00000003
00000000
00000000
00000000
00000000
00000000
00000000
00000000
00000000
00000000
00000000
00000000
00000000
00000000
00000000
00000000
00000000
00000000
00000000
00000000
00000000
00000000
00000000
00000000
00000000
00000000
00000000
00000000
00000000
00000000
00000000
00000000
00000000
00000000
00000000
00000000
00000000
00000000
00000000
00000000
00000000
00000000
00000000
00000000
00000000
00000000
00000000
00000000
00000000
00000000
,
00000010
00000100
00000000
00001000
00000100
00000000
00010000
00001000
00010000
00000000
00100000
00000000
01000000
00000000
00100000
00000000
,
10000000
01000000
00000000
00100000
00010000
00000000
01000000
00001000
00010000
00001000
00000000
00000100
00001000
00000000
00010000
00000100
,
00001000
00000100
00000000
00000010
00000001
00000000
00001000
00000010
00000100
00000000
00001000
00000000
00010000
00000000
00001000
00000000
,
01000000
00010000
00000000
10000000
01000000
00000000
00100000
00010000
00100000
00001000
00000000
00010000
00000010
00000000
00001000
00000100
,
00000010
00001000
00000000
00000010
00000001
00000000
00001000
00000001
00000100
00000000
00001000
00000000
00010000
00000000
00100000
00000000
,
01000000
00010000
00000000
10000000
01000000
00000000
00100000
00010000
00100000
00001000
00000000
00010000
00000010
00000000
00001000
00000001
,
00001000
00000000
00000000
00000100
00000000
00000000
00010000
00000000
01000000
00000000
00000000
00100000
00000000
00000000
00001000
00000000
,
00010000
00100000
01000000
00000000
00100000
00000000
10000000
00010000
02000000
00000000
00000000
00000000
13000000
00000000
00000000
00000000
,
01000000
00010000
01000000
00001000
00010000
00000000
00000100
00001000
00000100
00000010
00000001
00000000
00001000
00000000
00000001
00000000
,
00000100
00000000
00001000
00010000
00000010
00000000
00001000
00000100
00010000
00001000
00100000
00010000
10000000
00000000
00100000
00000000
,
01000000
00010000
01000000
00001000
00010000
00000000
00000100
00001000
00000100
00000010
00000001
00000000
00001000
00000000
00000010
00000000
,
00000100
00000000
00001000
00010000
00001000
00000000
01000000
00010000
10000000
00000000
00100000
00000000
00010000
00001000
00100000
00000000
,
01000000
10000000
01000000
00100000
00010000
00000000
01000000
00001000
00010000
00000010
00001000
00000000
00000100
00000000
00000001
00000000
,
00000100
00000000
00001000
00000001
00000100
00000000
00000010
00010000
00000100
00001000
00000001
00000100
00000010
00000000
00001000
00000000
,
00000100
00000000
00000000
00010000
00000000
00000000
00100000
00000000
01000000
00000000
00000000
00001000
00000000
00000000
00000010
00000000
,
00000100
00000000
00000000
01000000
00000000
00000000
00000010
00000000
00100000
00000000
00000000
00001000
00000000
00000000
00000010
00000000
,
00000001
00000010
00000100
00001000
00000001
00000100
00001000
00010000
01000000
10000000
00100000
01000000
10000000
01000000
00010000
00100000
,
01000000
10000000
01000000
00000000
00010000
00000000
00001000
00000000
00000010
00000000
00000100
00000000
00001000
00000001
00000100
00000000
,
00002000
00000000
00000000
00000000
,
00000000
00000000
00000000
00003000
;
