#TITLE:pique;
#SUBTITLE:;
#ARTIST:星野音楽工房;
#TITLETRANSLIT:;
#SUBTITLETRANSLIT:;
#ARTISTTRANSLIT:Hoshino ongaku koubou;
#GENRE:;
#CREDIT:;
#MUSIC:pique.ogg;
#BANNER:pique.png;
#BACKGROUND:pique-bg.png;
#CDTITLE:;
#SAMPLESTART:79.259;
#SAMPLELENGTH:15.000;
#SELECTABLE:YES;
#OFFSET:0.000;
#BPMS:0.000=162.000;
#STOPS:;
#BGCHANGES:;
#FGCHANGES:;

//--------------- dance-single - chrononical ----------------
#NOTES:
     dance-single:
     chrononical:
     Beginner:
     5:
     0,0,0,0,0:
0000
0000
0000
0000
,
0000
0000
0000
0000
,
0000
0000
0000
0000
,
0000
0000
0000
0000
,
0000
0000
0000
0000
,
1000
0000
1000
0000
,
0100
0000
0001
0000
,
0100
0000
0100
0000
,
0010
0000
1000
0000
,
0010
0000
0001
0000
,
0001
0000
0100
0000
,
0010
0000
1000
0000
,
1000
0000
0200
0000
,
1300
0000
0100
0000
,
0010
0000
0001
0000
,
1000
1000
0001
0001
,
2000
3000
1002
0003
,
2000
3100
0010
0001
,
1000
0000
1000
0000
,
0002
0103
0010
1000
,
0001
0000
0010
0000
,
0200
0000
1300
0000
,
0001
0200
0320
0000
,
2030
0000
3200
0000
,
0320
0000
0032
2003
,
3002
0000
0103
0000
,
0010
0000
1001
0000
,
2000
0000
3100
0000
,
0020
0000
0000
0030
,
0002
0103
0010
1000
,
0001
0000
0001
0000
,
2000
3100
0010
0001
,
1000
0000
0010
0000
,
0200
0000
0301
1000
,
0200
0000
0310
0020
,
0032
0103
0020
0130
,
0002
0023
0230
2300
,
3002
0000
2003
0000
,
0000
0000
3200
0000
,
0000
0000
2300
0000
,
0000
0000
3020
0000
,
0000
0000
2030
0000
,
0000
0000
3002
0000
,
0000
0000
2003
3200
,
0320
0032
2003
0000
,
3000
1001
0001
0000
,
0100
0000
0010
0000
,
1000
0000
0001
0000
,
0010
0000
0100
0000
,
1000
0002
1003
0000
,
0001
0000
1000
0001
,
1000
0200
1300
1000
,
0100
0100
0020
0000
,
0030
1001
0001
0000
,
1000
0000
0100
0100
,
0100
0000
1000
0000
,
0001
0000
0100
0100
,
0010
0010
2000
0000
,
3100
0000
0010
0000
,
0001
0000
1000
1000
,
1000
0000
0001
0001
,
0001
2000
0000
3000
,
0001
0000
0010
0010
,
0010
0000
0001
0000
,
1000
0000
0010
0010
,
0100
0100
0002
0000
,
0013
0000
0100
0000
,
1000
0000
0001
0001
,
0001
0000
1000
1000
,
1000
0001
0001
0000
,
1000
0000
0100
0100
,
0100
0020
0032
0000
,
0000
0000
0203
0000
,
0320
0000
0030
0010
,
1000
0000
0100
0000
,
0010
0000
0001
0000
,
0001
0000
0100
0000
,
0010
0000
1000
0000
,
1000
0000
0010
0000
,
0001
0000
0010
0000
,
0010
0000
0100
0000
,
1000
0000
0100
0000
,
0001
0000
0001
0000
,
0010
0000
0100
0000
,
1000
0000
1000
0000
,
0020
0000
0130
0000
,
0001
0000
0010
0100
,
1000
0020
0130
0001
,
1000
0001
2000
3000
,
1002
0203
0000
0000
,
0000
0000
0000
0000
,
0300
0000
0000
0000
;

//--------------- dance-single - chrononical ----------------
#NOTES:
     dance-single:
     chrononical:
     Easy:
     8:
     0,0,0,0,0:
0000
0000
0000
0000
,
0000
0000
0000
0000
,
0000
0000
0000
0000
,
0000
0000
0000
0000
,
0000
0000
0000
0000
,
0001
0010
0100
0100
,
1000
0010
0100
1000
,
0100
0100
0001
0001
,
1000
0100
0001
0100
,
1000
0000
0001
0000
,
0010
0000
0010
0000
,
0001
0000
1000
0000
,
0100
0000
0200
0000
,
1300
0000
0000
0010
0000
0000
0100
0000
0001
0000
0000
0000
1000
0000
0000
0000
,
0000
0000
0001
0000
0000
0010
0000
0000
0100
0000
0000
0000
0100
0000
0000
0000
,
1000
0010
1000
0000
0001
0010
0001
0000
,
2000
3000
1002
0203
,
2300
3100
0001
1000
,
0100
0010
0001
0010
,
2000
3010
0001
1000
,
0001
0000
0000
0100
0000
0000
0010
0000
0000
1000
0000
0000
0001
0000
1000
0000
,
0002
0013
0100
0010
,
1000
0000
0010
0100
2000
0000
3010
0000
,
2000
3100
2000
3001
,
2000
3010
0200
0302
,
2003
0000
3100
0020
,
0031
0000
1000
0000
0000
0100
0000
0000
0010
0000
0000
0000
0001
0000
1000
0000
,
0002
0203
0320
2030
,
0000
3001
0000
0000
0100
0000
0010
0000
1000
0000
0000
0000
0020
0000
0000
0000
,
0032
0013
1000
0001
,
0010
0100
1000
0100
,
0002
0103
1000
0001
,
1000
0000
0000
0010
0000
0000
0100
0000
0000
0001
0000
0000
1000
0000
0000
0000
,
2001
0000
0000
0000
3100
0000
0000
0010
0000
0000
0001
0000
0000
1000
0000
0000
,
1002
0000
0000
0000
0103
0000
0000
0010
0000
0000
1000
0000
0000
0002
0000
0000
,
1003
0000
0000
0100
0000
0000
0000
0000
0100
0000
0000
0010
0000
0000
0000
0000
,
0001
1000
0001
1000
0002
0000
1003
0000
,
2000
3020
2030
0000
,
0000
0000
3200
0000
,
0000
0000
2300
0000
,
0000
0000
3020
0000
,
0000
0000
2030
0000
,
0000
0000
3002
0000
,
0000
0000
2003
3200
,
0320
0032
2003
0000
,
3000
1001
1000
0000
,
0100
0000
0010
0010
,
0010
0000
0001
0000
,
0100
0000
0010
0010
,
0010
0000
0200
0000
0301
1000
0001
0000
,
0010
0100
0010
0000
0001
1000
0001
0000
,
0100
0010
0200
0000
0301
0010
0100
0000
,
0010
0100
1000
0000
0002
0000
0000
0000
,
0003
2001
3001
0010
,
1000
0000
0010
0100
1000
0000
0010
0000
,
0001
0000
0010
0100
0001
0000
0010
0000
,
0100
0000
0000
0000
0001
0000
0000
0000
0100
0000
0000
0100
0000
0000
1000
0000
,
0000
1000
0000
0000
0001
0000
1000
0000
0002
0000
0000
0000
0100
0000
0000
0000
,
1003
0100
0010
0010
,
0100
0000
0000
0000
0100
0000
0000
0000
1000
0000
0000
0010
0000
0000
1000
0000
,
0000
0100
0000
0000
0001
0000
0100
0000
0010
0000
0000
0100
0000
0000
1000
0000
,
0000
0010
0000
0000
0001
0000
0020
0000
0000
0000
0000
0000
0130
0000
0000
0000
,
1000
0000
0100
0010
1000
0000
0100
0000
,
0001
0000
0100
0010
0001
0000
0100
0000
,
0010
0000
0000
0000
0001
0000
0000
0000
0010
0000
0000
0010
0000
0000
1000
0000
,
0000
1000
0000
0000
0001
0000
1000
0000
0002
0000
0000
0000
0010
0000
0000
0000
,
1003
0010
0100
0100
,
0010
0000
0000
0000
0010
0000
0000
0000
1000
0000
0000
0100
0000
0000
1000
0000
,
0000
0010
0000
0000
0001
0000
0010
0000
0100
0000
0000
0010
0000
0000
1000
0000
,
0000
0100
0000
0000
0001
0000
0100
0000
0010
0000
0000
0000
0100
0000
0000
0000
,
0001
0000
0100
0000
1000
0001
1000
0001
,
2000
3002
0203
0000
,
0000
0000
0320
0000
,
2030
0000
3000
0100
,
0010
0010
0001
0100
,
0010
0010
1000
0100
,
0010
0010
0001
0100
,
0010
1000
0001
0010
,
0100
0000
0000
0100
0000
0000
2000
0000
0000
0000
0000
0000
3000
0000
0000
0000
,
0010
0001
0010
0010
,
1000
1000
0001
0010
,
1000
0010
0001
0000
,
1000
0000
0010
0000
,
0010
0000
1000
0000
,
0001
0000
0010
0000
,
0020
0000
0000
0000
0000
0000
0000
0000
0031
0000
0000
0100
0000
0000
0100
0000
,
0010
0000
0000
0000
1000
0000
0000
0000
0001
0000
0000
0010
0000
0000
0010
0000
,
0100
0000
2000
0000
3001
0100
0010
0000
,
0100
0010
1000
0000
0002
0000
0003
0000
,
2001
3200
0000
0000
,
0000
0000
0000
0000
,
0300
0000
0000
0000
;

//--------------- dance-single - chrononical ----------------
#NOTES:
     dance-single:
     chrononical:
     Medium:
     12:
     0,0,0,0,0:
0000
0000
0000
0000
,
0000
0000
0000
0000
,
0000
0000
0000
0000
,
0000
0000
0000
0000
,
0000
0000
0000
0000
,
0001
0000
0000
0000
0100
0000
0000
0000
0010
0000
0000
1000
0000
0000
0001
0000
,
0000
0000
1000
0000
0100
0000
0010
0000
0100
0000
0000
0001
0000
0100
0000
0000
,
1000
0000
0000
0000
0010
0000
0000
0000
0100
0000
0000
0001
0000
0000
1000
0000
,
0000
0000
0001
0000
0100
0000
0010
0000
0001
0000
0000
0010
0000
0000
0100
0000
,
0001
0010
0100
1000
,
0001
0100
0010
1000
,
0001
0010
0100
1000
,
0001
0001
0200
0000
,
0310
0000
0000
1000
0000
0000
0001
0000
0010
0000
0000
0010
0000
0000
0010
0000
,
0000
0000
0001
0000
0000
1000
0000
0000
0010
0000
0000
0010
0000
0000
0010
0000
,
0000
0100
0000
0000
0001
0000
0000
0010
0000
0000
0001
0000
0000
1000
0000
0000
,
0010
0000
0000
0100
0000
0001
1000
0000
1002
0000
0000
0000
0203
0000
0000
0000
,
2300
0000
3100
0010
1000
0100
0010
0100
,
1000
0010
0100
0001
0100
0000
0001
0010
,
2000
0000
3010
0100
1000
0010
0100
0010
,
0110
0000
0000
1001
0000
0000
0110
0000
0000
1002
0000
0000
1003
0000
0100
0000
,
0010
0000
0001
1000
0000
0000
0001
0000
0100
0000
0010
0000
0100
0000
1000
0000
,
0100
0000
0010
0000
0100
0000
0100
0000
0010
0000
1000
0001
0000
0000
0010
0000
,
0100
0000
0010
0000
1000
0000
0000
0010
0000
0000
0100
0000
0001
0000
0000
0100
,
0000
0000
0010
0000
1000
0000
0000
0010
0200
0000
0000
0000
2300
0000
0000
0000
,
3002
1000
0203
0320
,
0030
0000
0001
0000
0000
0010
0000
0000
1000
0000
0000
0000
0100
0000
0010
0000
,
0002
1000
0023
0230
,
0300
0001
0000
0000
0100
0000
1000
0000
0001
0000
0001
0000
1000
0000
0020
0000
,
0032
0000
0013
0100
0001
0010
0100
0010
,
0001
0100
0010
1000
0010
0000
1000
0100
,
0002
0000
0103
0010
0001
1000
0010
0100
,
0110
0000
0000
1001
0000
0000
0110
0000
0000
2001
0000
0000
3100
0000
0010
0000
,
2000
0000
0000
0000
3010
0000
0000
0110
0000
0000
0011
0000
0000
0201
0000
0000
,
2300
0000
0000
0000
3100
0000
0000
0110
0000
0000
0101
0000
0000
0012
0000
0000
,
1003
0000
0000
0100
0000
0000
0010
0000
0001
0000
0000
0100
0000
0000
0010
0000
,
0100
0001
1000
0100
1000
0001
0020
0000
,
0130
0001
0100
1000
0002
0000
0000
0000
,
0000
0000
0023
0000
,
0000
0000
0032
0000
,
0000
0000
0203
0000
,
0000
0000
0302
0000
,
0000
0000
2003
0000
,
0000
0000
3002
0023
,
0230
2300
3002
0000
,
0003
1001
1000
0100
,
0010
0001
1000
0010
,
0100
0001
0001
0010
,
0100
1000
0001
0100
,
0010
0000
2001
0000
3100
0010
0001
0000
,
0100
0010
1000
0000
0100
0010
0001
0000
,
0100
0010
0200
0000
0301
0010
0100
1000
,
0001
0010
0100
1000
0002
0000
0000
0000
,
0003
0000
0000
0000
2001
0000
0000
0000
3001
0000
0100
0000
0010
0000
0000
0001
,
0000
0010
0000
0100
0000
0001
1000
0000
0001
0000
0010
0000
0100
0000
0000
0001
,
0000
0100
0000
0010
0000
0001
1000
0000
0001
0000
0000
0100
0000
0000
0010
0000
,
0100
0000
0000
1000
0000
0000
0100
0000
0001
0000
0000
0010
0000
0000
0100
0000
,
0000
1000
0000
0000
0001
0000
0100
0000
0020
0000
0000
0000
0001
0000
0000
0000
,
1030
0000
0100
0000
0010
0001
1000
0000
,
0010
0000
1000
0000
0001
0000
0000
0000
0100
0000
0000
0010
0000
0000
1000
0000
,
0000
0100
0000
0000
0001
0000
0100
0000
0010
0000
0000
0001
0000
0000
0100
0000
,
0000
0010
0000
0000
0001
0000
0020
0000
0000
0000
0000
0000
0130
0000
0000
1000
,
0000
0100
0000
0010
0000
1000
0001
0000
1000
0000
0100
0000
0010
0000
0000
1000
,
0000
0010
0000
0100
0000
1000
0001
0000
1000
0000
0000
0010
0000
0000
0100
0000
,
0010
0000
0000
0001
0000
0000
0010
0000
1000
0000
0000
0100
0000
0000
0010
0000
,
0000
0001
0000
0000
1000
0000
0010
0000
0200
0000
0000
0000
1000
0000
0000
0000
,
0301
0000
0010
0000
0100
1000
0001
0000
,
0100
0000
0001
0000
1000
0000
0000
0000
0010
0000
0000
0100
0000
0000
0001
0000
,
0000
0010
0000
0000
1000
0000
0010
0000
0100
0000
0000
1000
0000
0000
0010
0000
,
0000
0100
0000
0000
1000
0000
0100
0000
0001
0000
1000
0000
0100
0000
0010
0000
,
0001
1000
0001
0000
1000
0001
0100
0010
,
1000
0001
2000
0000
3002
0000
0000
0000
,
0000
0000
2003
0000
,
3200
0000
0300
0100
,
0010
0000
0000
0001
0000
0000
1000
0000
0000
0000
0001
0000
0100
0000
0010
0000
,
0100
0000
0000
0001
0000
1000
0000
0000
0001
0000
0000
0000
0010
0000
0000
0000
,
0100
0000
0000
1000
0000
0000
0001
0000
0000
0000
0100
0000
0010
0000
0000
0000
,
1000
0000
0000
0100
0000
0010
0000
0001
1000
0000
0000
0000
0010
0000
0000
0000
,
0100
0000
0000
0001
0000
0000
1000
0000
0000
0000
0001
0000
0010
0000
0100
0000
,
0010
0000
0000
1000
0000
0010
0000
0000
0001
0000
0000
0000
0100
0000
0000
0000
,
0010
0000
0000
1000
0000
0000
0001
0000
0000
0000
1000
0000
0010
0000
0100
0000
,
1000
0000
0000
0100
0000
0000
0010
0000
1000
0000
0000
0000
0100
0000
0000
0000
,
0010
0001
1000
0010
,
0100
0001
1000
0100
,
0010
0001
1000
1000
,
0020
0000
0000
0000
0000
0000
0000
0000
1030
0001
0000
0100
0000
0000
0010
0000
,
1000
0000
0000
0100
0000
0000
0010
0000
0001
1000
0000
0010
0000
0000
0100
0000
,
0001
0000
0000
2000
0000
0000
0000
0000
3001
0000
0010
0000
0100
0000
2000
0000
,
3001
0100
0010
2000
3001
0010
0100
1000
,
2001
3200
0000
0000
,
0000
0000
0000
0000
,
0300
0000
0000
0000
;

//--------------- dance-single - chrononical ----------------
#NOTES:
     dance-single:
     chrononical:
     Hard:
     15:
     0,0,0,0,0:
0000
0000
0000
0000
,
0000
0000
0000
0000
,
0000
0000
0000
0000
,
0000
0000
0000
0000
,
0000
0000
0000
0000
,
1000
0000
0000
0000
1010
0000
0000
0000
0010
0000
0000
0100
0000
0000
0001
0000
,
0000
0000
1000
0000
0100
0000
0010
0000
0001
0100
0000
1000
0000
0100
0000
0000
,
0001
0000
0000
0000
0011
0000
0000
0000
0010
0000
0000
0100
0000
0000
1000
0000
,
0000
0000
0001
0000
0100
0000
0010
0000
0001
0000
0000
0010
0000
0000
0100
0000
,
0001
0000
0001
0000
0010
0000
0010
0001
,
1000
0000
1000
0000
0010
0000
0010
1000
,
0001
0000
0001
0000
0100
0000
0100
0001
,
1000
0100
0000
0000
0100
0010
0000
0000
0020
0000
0000
0000
0000
0000
0000
0000
,
0031
0000
0000
1000
0000
0000
0010
0000
0100
0000
0000
0100
0000
0000
0100
0000
,
0000
0000
0001
0000
0000
0010
0000
0000
0100
0000
0000
0100
0000
0000
0100
0000
,
0000
0001
0000
0000
0001
0000
0000
1000
0000
0000
1000
0000
0000
0010
0000
0000
,
0001
1000
0000
0010
0000
1000
0001
0000
2001
0000
0000
0000
3020
0000
0000
0000
,
0032
0000
0000
0000
0013
0100
0010
0000
1000
0001
1000
0000
0100
0010
0100
0000
,
1000
0010
0100
0000
0010
0100
0001
1000
0000
0001
0010
0100
0000
0100
0010
0000
,
2000
0000
0000
0000
3010
0100
0010
0000
0001
0100
0010
0000
0100
0010
1000
0000
,
1010
0000
0000
0110
0000
0000
0101
0000
0000
1002
0000
0000
0013
0000
0100
1000
,
0001
0000
0100
0010
0000
1000
0001
0000
0100
0000
0010
0000
0100
0000
1000
0000
,
0100
0000
0010
0000
1000
0000
0100
0000
1000
0000
0100
0010
0000
0001
1000
0000
,
0001
0000
0100
0000
1000
0100
0000
0010
1000
0000
0100
0000
0001
0100
0000
0010
,
0001
0000
0100
0000
1000
0100
0000
0100
0020
0000
0000
0000
2030
0000
0000
0000
,
3002
0000
0000
0000
1000
0000
0000
0000
0013
0000
0100
0010
0200
0000
0000
0000
,
0310
0000
0000
0000
0000
0000
1000
0000
0000
0000
0000
0000
0010
0000
0000
0100
0000
0000
0000
0000
0000
0010
0000
0000
0001
0000
0000
0000
1000
0000
0000
0000
0010
0000
0000
0000
0200
0000
0000
0000
0000
0000
0000
0000
0000
0000
0000
0000
,
0320
0000
0000
0000
1000
0000
1000
0000
0130
0001
1000
0000
0200
0000
0000
0000
,
0310
1000
0000
0010
0001
0000
0100
0000
1000
0000
0001
0000
0010
0000
0200
0000
,
2300
0000
0000
0000
3100
0010
0100
0000
0001
1000
0001
0000
0010
0100
0010
0000
,
0001
0100
0010
0000
0100
0010
1000
0001
0000
1000
0100
0010
0000
0010
0100
0000
,
0002
0000
0000
0000
0103
0010
0100
0000
1000
0001
1000
0000
0001
0100
0001
0000
,
0101
0000
0000
0110
0000
0000
1010
0000
0000
2001
0000
0000
3100
0000
0010
0100
,
0002
0000
0000
0000
0103
0000
0000
0110
0000
0000
1100
0000
0000
1020
0000
0000
,
0032
0000
0000
0000
0013
0000
0000
0110
0000
0000
1010
0000
0000
1200
0000
0000
,
0310
0000
0001
1000
0000
0010
1000
0000
0100
0000
1000
0001
0000
0100
0001
0000
,
1000
0100
0010
0000
0001
0100
0010
0000
1000
0010
0100
0001
2000
0000
0000
0000
,
3100
0000
0010
0000
0001
0100
0010
1000
0002
0000
0000
0000
0000
0000
0000
0000
,
0000
0000
0203
0000
,
0000
0000
0302
0000
,
0000
0000
0023
0000
,
0000
0000
0032
0000
,
0000
0000
2003
0000
,
0000
0000
3002
0203
,
0320
2030
3002
0000
,
0000
0003
1001
0000
1000
0000
1000
0000
,
0100
0000
0100
1000
0001
0000
0001
0000
,
0100
0000
0100
0001
1000
0000
1000
0000
,
0010
0000
0010
1000
0001
0000
0001
0000
,
0010
0000
0000
0000
0020
0000
0100
0000
0031
0000
1000
0000
0010
0100
0000
0000
,
0001
0000
1000
0000
0100
0010
0000
0000
0001
0000
1000
0000
0010
0100
0000
0000
,
0001
0000
1000
0000
0020
0000
0000
0000
1030
0100
0010
0000
0010
0100
1000
0000
,
0001
0100
0010
0000
0010
0100
0001
0000
2000
0000
0000
0000
0000
0000
0000
0000
,
3000
0000
0000
0000
1002
0000
0000
0000
1003
0000
0100
0000
0010
0100
0000
0001
,
0000
0100
0010
0100
0000
0010
0001
0000
1000
0000
0010
0000
0100
0010
0000
0001
,
0000
0010
0100
0010
0000
0100
0001
0000
1000
0000
0100
0010
0000
0100
1000
0000
,
0001
0000
0100
1000
0000
0100
0010
0000
1000
0000
0000
1100
0000
0000
0110
0000
,
0000
0011
0000
0000
0001
0000
0100
0000
0120
0000
0000
0000
0001
0000
0000
0000
,
1030
0000
0100
0000
0010
0001
0010
0000
0001
1000
0001
0000
0100
0001
0100
0000
,
0001
1000
0001
0000
0010
0100
1000
0000
0001
0100
0000
0001
0100
0000
0010
0100
,
0000
0010
0100
0000
1000
0000
0100
0000
0001
0010
0000
0001
0010
0000
0100
0010
,
0000
0100
0010
0000
1000
0000
0020
0000
0000
0000
0000
0000
0031
0100
0000
1000
,
0000
0100
0010
0100
0000
0010
1000
0000
0001
0000
0010
0000
0100
0010
0000
1000
,
0000
0010
0100
0010
0000
0100
1000
0000
0001
0000
0100
0010
0000
0100
0001
0000
,
1000
0000
0100
0001
0000
0100
0010
0000
0001
0000
0000
0101
0000
0000
0110
0000
,
0000
1010
0000
0000
1000
0000
0100
0000
0120
0000
0000
0000
1000
0000
0000
0000
,
0031
0000
0100
0000
0010
1000
0010
0000
1000
0001
1000
0000
0100
1000
0100
0000
,
1000
0001
1000
0000
0010
0100
0001
0000
1000
0100
0000
1000
0100
0000
0010
0100
,
0000
0010
0100
0000
0001
0000
0100
0000
1000
0010
0000
1000
0010
0000
0100
0010
,
0000
0100
0010
0000
0001
0000
0010
0000
1000
0000
0100
0000
0010
0000
0100
0000
,
1000
0000
0010
0000
0100
0000
0010
0000
1000
0100
0010
0000
0100
0010
0001
0000
,
1000
0010
0100
0001
0200
0000
0000
0000
0302
0000
0000
0000
0000
0000
0000
0000
,
0000
0000
0000
0000
2000
0003
0000
0000
3200
0000
0000
0000
0000
0000
0000
0000
,
0320
0000
0031
0011
,
0010
0000
0000
0100
0000
0000
1000
0000
0000
0000
0001
0000
0100
0000
0010
0000
,
1000
0100
0000
0010
0000
0100
0000
0000
1000
0000
0000
0000
1010
0000
0000
0000
,
0010
0000
0000
0100
0000
0000
0001
0000
0000
0000
1000
0000
0100
0000
0000
0000
,
0010
0001
0000
1000
0000
0010
0000
0010
1000
0000
0000
0000
1100
0000
0000
0000
,
0100
0000
0000
0010
0000
0000
0001
0000
0000
0000
1000
0000
0010
0000
0100
0000
,
0001
0010
0000
1000
0000
0010
0000
0000
0001
0000
0000
0000
0101
0000
0000
0000
,
0100
0000
0000
0010
0000
0000
1000
0000
0000
0000
0001
0000
0010
0000
0100
0000
,
0001
0000
0000
0100
0000
0000
0010
0000
0001
0000
0000
0000
0001
0000
0000
0000
,
0100
0000
0100
0001
1000
0000
1000
0000
,
0100
0000
0100
1000
0001
0000
0001
0000
,
0010
0000
0000
0000
0010
0000
0001
0000
1000
0010
0000
0000
0010
0100
0000
0000
,
0200
0000
0000
0000
0000
0000
0000
0000
0301
1000
0000
0100
0000
1000
0001
0000
,
1000
0001
0000
0100
0000
0001
1000
0000
0001
1000
0000
0010
0000
1000
0001
0000
,
1000
0001
0000
0010
0200
0000
0000
0000
1300
0100
0010
0001
1000
0001
2000
0000
,
3001
0100
0010
1000
0001
1000
0002
0000
1003
0100
0010
0001
1000
0001
1000
0000
,
1002
0203
0000
0000
,
0000
0000
0000
0000
,
0300
0000
0000
0000
;

//--------------- dance-single - chrononical ----------------
#NOTES:
     dance-single:
     chrononical:
     Challenge:
     17:
     0,0,0,0,0:
0000
0000
0000
0000
,
0000
0000
0000
0000
,
0000
0000
0000
0000
,
0000
0000
0000
0000
,
0000
0000
0000
0000
,
1010
0000
0000
0000
1100
0000
0000
0000
0100
0000
0000
1000
0000
0000
0010
0000
,
0000
0000
0100
0000
0001
0000
1000
0100
0010
0100
0000
0001
0000
0100
0000
0000
,
1100
0000
0000
0000
1010
0000
0000
0000
0010
0000
0000
1000
0000
0000
0100
0000
,
0000
0000
0010
0000
0001
0000
0100
0000
1000
0000
0000
0100
0000
0000
0010
0000
,
1000
0000
0000
0000
0100
0000
0000
0000
0010
0000
0000
0000
0001
0000
1000
0001
,
1000
0000
0000
0000
0010
0000
0000
0000
0100
0000
0000
0000
0001
0000
1000
0001
,
1000
0000
0000
0000
0100
0000
0000
0000
0010
0000
0000
0000
0001
0000
1000
0001
,
1000
0010
0000
0010
0100
0001
0000
0001
1000
0100
0000
0010
0000
0100
0000
1000
,
0001
0000
0000
0100
0000
0000
0010
0000
0110
0000
0000
1010
0000
0000
1100
0000
,
0000
0000
1000
0000
0000
0100
0000
0000
0110
0000
0000
0011
0000
0000
0101
0000
,
0000
0110
0000
0000
1010
0000
0000
1100
0000
0000
0110
0000
0000
0011
0000
0000
,
1000
0001
0000
0100
0000
0010
1000
0000
2001
0000
0000
0000
3200
0000
0010
0000
,
0302
0000
0000
0000
0103
1000
0001
1000
0010
0100
0001
1000
0100
0010
0001
1000
,
0010
0100
0010
1000
0001
0010
0100
0010
0000
0100
0010
0100
0000
1000
0001
0100
,
2000
0000
0000
0000
3100
0010
0100
0001
1000
0100
0010
0100
1000
0001
0100
0010
,
0100
0000
0000
1001
0000
0000
0010
0000
0000
1001
0000
0000
1000
0000
0100
0010
,
0001
0000
0100
0010
0000
0100
0001
1000
0001
0010
0100
1000
0001
0100
0010
0001
,
0010
0100
0001
1000
0200
0000
0320
0000
0031
0000
0010
0100
0000
0010
0100
1000
,
0001
0000
0100
0010
0001
0010
0000
0100
0001
0000
0010
0100
0001
0100
0000
0010
,
0001
0000
0100
0010
0100
1000
0000
1000
0200
0000
0000
0000
0302
0000
0000
0000
,
2003
0000
0000
0000
0001
0000
0000
0000
3100
0000
0010
0001
0200
0000
0000
0000
,
0310
0000
0000
0000
0000
0000
0001
0000
0000
0000
0000
0000
0010
0000
0000
0100
0000
0000
0000
0000
0000
0010
0000
0000
1000
0000
0000
0000
0100
0000
0000
0000
0010
0000
0000
0000
0200
0000
0000
0000
0000
0000
0320
0000
0000
0000
0000
0000
,
0032
0000
0000
0000
1000
0000
0100
0000
0013
0100
1000
0001
2000
0000
3002
0000
,
0103
1000
0000
0100
0010
0000
0100
0000
0001
0000
1000
0000
0100
0000
0002
0000
,
2003
0000
0000
0000
3010
0001
1000
0001
0100
0010
1000
0001
0010
0100
1000
0001
,
0100
0010
0100
0001
1000
0100
0010
0100
0000
0010
0100
0010
0000
0001
1000
0010
,
0002
0000
0000
0000
0013
0100
0010
1000
0001
0010
0100
0010
0001
1000
0010
0100
,
0010
0000
0000
1001
0000
0000
0100
0000
0000
1001
0000
0000
0001
0000
0010
0100
,
0002
0000
0003
0000
0101
0000
0000
1100
0000
0000
1010
0000
0000
0201
0000
0000
,
2300
0000
3000
0000
1100
0000
0000
0101
0000
0000
0011
0000
0000
0010
0100
1000
,
0002
0000
0103
0020
0000
0130
0001
1000
0002
0000
0013
0200
0000
0310
0001
1000
,
0001
0100
0010
1000
0001
0100
0010
1000
0001
0010
0100
1000
0200
0000
0000
0000
,
1300
0010
0100
0001
1000
0100
0010
0100
2000
0000
0000
0000
0000
0000
0000
0000
,
0000
0000
3200
0000
,
0000
0000
2300
0000
,
0000
0000
3020
0000
,
0000
0000
2030
0000
,
0000
0000
3002
0000
,
0000
0000
2003
3200
,
0320
0032
2003
0000
,
0000
3000
1001
0000
1000
0000
1000
0000
,
0010
0000
0010
1000
0001
0000
0001
0000
,
0010
0000
0010
0001
1000
0000
1000
0000
,
0100
0000
0100
1000
0001
0000
0001
0000
,
0100
0000
0000
0000
0201
0000
0010
0000
0301
0000
1000
0000
0010
1000
0000
0000
,
0100
1000
0001
0000
0100
0001
0000
0000
0010
0001
1000
0000
0010
1000
0000
0000
,
0100
0000
0000
1000
0000
0000
0001
0000
0000
0000
0000
0000
0100
0000
0000
0000
0000
0000
0010
0000
1000
0000
0001
0000
1000
0000
0000
0001
0000
0000
0010
0000
0000
0001
0000
0000
1000
0000
0000
0010
0000
0000
0100
0000
0000
0010
0000
0000
,
1000
0001
0100
0001
1000
0100
0010
0100
1000
0100
0010
0001
1000
0100
0010
0001
,
1000
0000
0000
0000
1002
0000
0000
0000
1003
0000
0001
0000
0010
0100
0000
0001
,
0000
0100
0010
0100
0000
0100
1000
0001
1000
0000
0001
0000
0100
0010
0000
0001
,
0000
0010
0100
0010
0000
0010
1000
0001
1000
0100
0010
0100
0000
0100
1000
0001
,
1000
0010
0100
1000
0000
1000
0100
0001
1000
0100
0010
0100
0000
0000
1100
0000
,
0000
0000
0000
1001
0000
0000
0000
0000
0000
0001
0000
0000
0100
0000
0000
0010
0000
0000
0100
0000
0000
0001
0000
0000
1000
0000
0000
0000
0000
0000
0100
0000
0000
0000
0000
0000
0010
0000
0000
0000
0000
0000
0100
0000
1000
0000
0001
0000
,
1000
0010
0100
0000
0010
1000
0001
1000
0100
0010
0001
0010
0001
1000
0010
1000
,
0010
0000
0100
0000
0001
0000
1000
0000
0000
0001
0000
0000
0010
0000
0000
0100
0000
0000
1000
0000
0000
0001
0000
0000
1000
0000
0000
0010
0000
0000
0000
0000
0000
1000
0000
0000
0001
0000
0000
0000
0000
0000
1000
0000
0000
0010
0000
0000
,
0000
0010
0100
0000
1000
0000
0100
0000
0001
1000
0000
0001
0100
0000
0001
0010
,
0000
0010
0100
0000
0001
0000
0100
0000
2000
0000
0000
0000
3010
0100
0000
1000
,
0000
0100
0010
0100
0000
0100
0001
1000
0001
0000
1000
0000
0100
0010
0000
1000
,
0000
0010
0100
0010
0000
0010
0001
1000
0001
0100
0010
0100
0000
0100
0001
1000
,
0001
0010
0100
0001
0000
0001
0100
1000
0001
0100
0010
0100
0000
0000
0101
0000
,
0000
0000
0000
1001
0000
0000
0000
0000
0000
1000
0000
0000
0100
0000
0000
0010
0000
0000
0100
0000
0000
1000
0000
0000
0001
0000
0000
0000
0000
0000
0100
0000
0000
0000
0000
0000
0010
0000
0000
0000
0000
0000
0100
0000
0001
0000
1000
0000
,
0001
0010
0100
0000
0010
0001
1000
0001
0100
0010
1000
0010
1000
0001
0010
0001
,
0010
0000
0100
0000
1000
0000
0001
0000
0000
1000
0000
0000
0010
0000
0000
0100
0000
0000
0001
0000
0000
1000
0000
0000
0001
0000
0000
0010
0000
0000
0000
0000
0000
0001
0000
0000
1000
0000
0000
0000
0000
0000
0001
0000
0000
0010
0000
0000
,
0000
0010
0100
0000
0001
0000
0100
0000
1000
0001
0000
1000
0100
0000
1000
0010
,
0000
0010
0100
0000
1000
0100
0010
0100
0001
0000
1000
0000
0100
0010
0000
1000
,
0000
0010
0100
0010
0000
0010
0001
1000
0001
0100
0010
1000
0001
0100
0010
1000
,
0001
0010
0100
1000
0002
0000
0000
0000
1003
0000
0010
0000
0100
0000
0020
0000
,
0000
0000
0130
0001
2000
0000
0000
0000
,
0020
0000
0000
3030
0010
0000
1100
0000
,
0100
0000
0000
1000
0000
0000
0010
0000
0000
0000
0100
0000
0001
0000
1000
0100
,
0010
0100
0000
1000
0000
0100
0000
0000
1100
0000
0000
0000
1010
0000
0000
0000
,
0010
0000
0000
1000
0000
0000
0100
0000
0000
0000
0010
0000
0100
0000
0000
0000
,
0100
1000
0001
0100
0000
0001
0000
0001
0100
0000
0000
0000
0011
0000
0000
0000
,
0011
0000
0000
0101
0000
0000
0210
0000
0000
0000
0310
0000
1000
0000
0001
0010
,
0100
0010
0000
1000
0000
0010
0000
0000
0011
0000
0000
0000
0101
0000
0000
0000
,
0100
0000
0000
0001
0000
0000
0010
0000
0000
0000
0100
0000
1000
0000
0010
0000
,
0001
0000
0000
0010
0000
0000
0100
0000
0001
0000
0000
0000
0010
0000
0000
0000
,
0100
0000
0000
0000
1000
0000
0001
1000
0001
0000
0000
0000
0100
0000
0000
0000
,
0010
0000
0000
0000
1000
0000
0001
1000
0001
0000
0000
0000
0010
0000
0000
0000
,
0100
0000
0000
0000
1000
0000
0001
1000
0001
0100
0000
0100
0010
1000
0000
1000
,
0001
0010
0100
0010
0000
0100
1000
0001
0100
0010
0000
0100
0000
0100
0001
1000
,
0100
0010
0000
0100
0000
0100
1000
0001
0010
0100
0000
0010
0000
0010
0001
1000
,
0010
0000
0000
0100
0000
0000
0000
0000
0000
0010
0000
0000
1000
0000
0000
0100
0000
0000
0010
0000
0000
0001
0000
0000
1000
0000
0000
0010
0000
0000
0100
0000
0000
0001
0000
0000
1000
0000
0000
0010
0000
0000
0100
0000
0001
0000
1000
0000
,
0001
0000
0000
0010
0000
0000
0100
0000
0000
1000
0000
0000
0001
0000
0000
0010
0000
0000
0100
0000
1000
0000
0001
0000
1000
0000
0000
0010
0000
0000
0100
0000
0000
0001
0000
0000
1000
0000
0000
0001
0000
0000
1000
0000
0000
0000
0000
0000
,
2001
3200
0000
0000
,
0000
0000
0000
0000
,
0300
0000
0000
0000
;
