#VERSION:0.83;
#TITLE:nuRaves;
#SUBTITLE:;
#ARTIST:dj VERTIKAYA;
#TITLETRANSLIT:;
#SUBTITLETRANSLIT:;
#ARTISTTRANSLIT:;
#GENRE:;
#ORIGIN:;
#CREDIT:;
#BANNER:;
#BACKGROUND:;
#PREVIEWVID:;
#JACKET:;
#CDIMAGE:;
#DISCIMAGE:;
#LYRICSPATH:;
#CDTITLE:;
#MUSIC:nuRaves.ogg;
#OFFSET:-0.033000;
#SAMPLESTART:18.725168;
#SAMPLELENGTH:15.000000;
#SELECTABLE:YES;
#BPMS:0.000=154.000;
#STOPS:144.000=0.390;
#DELAYS:;
#WARPS:;
#TIMESIGNATURES:0.000=4=4;
#TICKCOUNTS:0.000=4;
#COMBOS:0.000=1;
#SPEEDS:0.000=1.000=0.000=0;
#SCROLLS:0.000=1.000;
#FAKES:;
#LABELS:0.000=Song Start;
#BGCHANGES:;
#KEYSOUNDS:;
#ATTACKS:
;

//---------------dance-single - ----------------
#NOTEDATA:;
#CHARTNAME:;
#STEPSTYPE:dance-single;
#DESCRIPTION:;
#CHARTSTYLE:;
#DIFFICULTY:Medium;
#METER:12;
#RADARVALUES:0.539468,0.527797,0.470009,0.089140,0.024311,466.000000,408.000000,58.000000,11.000000,0.000000,0.000000,0.000000,0.000000,0.000000,0.539468,0.527797,0.470009,0.089140,0.024311,466.000000,408.000000,58.000000,11.000000,0.000000,0.000000,0.000000,0.000000,0.000000;
#CREDIT:;
#NOTES:
0000
0000
0000
0000
,
0000
0000
0000
0000
,
1000
0000
0001
0000
,
0110
1001
0110
1001
,
1000
0000
1000
0000
0100
0010
0100
0000
,
0001
0100
1000
1000
,
0001
0000
0100
0000
0010
0100
0010
0000
,
0101
0010
1100
0010
,
0001
1000
0001
0000
1000
0001
1000
0000
,
0010
0100
0001
0000
0010
0100
1000
0000
,
0001
0100
0001
0100
0010
1000
0010
1000
,
0001
0002
1000
2000
0000
0000
3003
0000
,
0011
0010
0010
0010
,
1100
0100
0100
0100
,
1010
0000
0011
0000
1000
0001
0100
0000
,
1100
0101
0011
1010
,
0011
0000
0110
0000
0001
0010
0100
0000
,
1010
0000
0110
0000
1000
0010
0100
0000
,
1001
0000
0101
0000
1000
0001
0100
0000
,
1001
0101
0011
1010
,
0001
1000
0100
1000
0001
1000
0100
0000
,
1000
0010
0100
0010
1000
0010
0100
0000
,
0010
0100
0001
1000
0100
0010
0001
0000
,
1100
0101
1010
0011
,
1000
0100
0010
0001
0010
0100
1000
0000
,
0001
0100
0010
1000
0010
0100
0001
0000
,
0010
0001
0100
0010
1000
0100
1000
0000
,
1100
0000
0000
0100
0000
0000
0100
0000
0011
0000
0000
0010
0000
0000
0010
0000
,
0001
0100
0001
0000
0100
0000
0100
0000
,
0010
1000
0001
0000
1000
0001
0010
0000
,
0100
0010
0100
1000
0010
0001
0010
1000
,
0100
0100
0100
0000
0010
0010
0010
0000
,
1001
0000
0001
0000
0100
0010
0100
0000
,
0001
0010
0100
0000
1000
0010
0100
0000
,
0001
1000
0001
1000
0100
0010
0100
0010
,
0001
1000
0010
0100
0001
0001
0001
0000
,
0000
0100
0010
0000
1001
0000
0001
0010
,
0100
0000
0101
0000
1100
0000
1000
0010
,
0100
0000
1100
0000
0101
0000
0001
0100
,
0010
1001
0110
2002
,
0000
0000
3003
0000
0000
0000
0001
1000
,
0100
0000
0101
0000
1100
0000
1000
0100
,
0010
0000
0001
0100
0010
0000
1010
0000
,
0011
1100
0101
1000
,
1000
1000
1000
0001
,
0001
0001
0001
0010
,
0010
0100
0100
1000
,
1000
0000
0001
0000
0001
0000
0100
0001
,
0100
0001
0100
0001
0100
0000
0010
1000
,
0010
1000
0010
1000
0010
0000
1000
0100
,
0010
0001
0100
0010
1000
0001
2000
0000
,
0100
0000
0100
0100
3100
0000
1001
0000
,
0001
0000
0100
0000
0100
0000
1000
0100
,
0010
0100
0001
0010
0100
0000
1000
0001
,
1000
0000
0001
0100
0001
0000
0010
0001
,
0010
0000
0100
1000
0100
0010
0001
0100
,
0010
0000
1000
0010
0100
0000
1000
0100
,
0010
0000
1000
0001
0100
0001
0010
0100
,
1000
0000
0010
0100
0001
0000
1100
0000
,
0101
0000
0011
0000
1010
0000
0001
0010
,
0001
0000
1000
0010
1000
0000
0001
0010
,
0100
1000
0010
0100
0001
0000
1000
0100
,
1000
0000
0001
0100
0001
0000
1000
0100
,
0010
0001
0100
0010
1000
0000
1010
0000
,
0001
1000
1000
0100
0010
0000
0011
0000
,
1000
0001
0001
0100
0010
0000
1010
0000
,
0001
0000
0000
0000
1100
0000
0000
0000
0001
0000
0000
0000
2000
0000
0000
0100
,
0000
0000
0100
0000
3002
0000
0000
0100
0000
0000
0100
0000
2003
0000
0000
0010
,
0000
0000
0010
0000
3002
0000
0000
0010
0000
0000
0010
0000
1003
0000
0000
0000
,
1000
0000
1000
0100
1000
0100
1000
0000
,
1000
0000
1000
0010
1000
0000
0001
0000
,
0001
0000
0001
0100
0001
0100
0001
0000
,
0110
1000
0110
0001
,
0001
0000
0001
0010
0100
0100
1000
0000
,
1000
0000
1000
0010
0100
0100
0001
0000
,
0110
1000
0110
0002
,
0203
0000
1300
0001
0010
1000
0000
0000
;

//---------------dance-single - ----------------
#NOTEDATA:;
#CHARTNAME:;
#STEPSTYPE:dance-single;
#DESCRIPTION:;
#CHARTSTYLE:;
#DIFFICULTY:Challenge;
#METER:15;
#RADARVALUES:0.768684,0.870259,0.324144,0.145865,0.644236,664.000000,624.000000,40.000000,18.000000,0.000000,0.000000,0.000000,0.000000,0.000000,0.768684,0.870259,0.324144,0.145865,0.644236,664.000000,624.000000,40.000000,18.000000,0.000000,0.000000,0.000000,0.000000,0.000000;
#CREDIT:;
#NOTES:
0000
0000
0000
0000
,
0000
0000
0000
0000
,
1100
0000
0101
0000
,
1000
0000
0100
0000
0001
0000
0100
0000
1000
0001
1000
0001
0100
0010
0100
0010
,
1000
0000
0001
1000
0010
0100
0000
0001
,
1000
0000
0000
0000
0100
0000
0010
0000
0001
1000
0001
0000
0100
0000
0000
0000
,
0110
0000
1000
0001
0100
0010
0000
1000
,
0001
0000
0000
0000
0010
0000
0100
0000
1000
0001
1000
0000
0010
0000
0100
0000
,
0001
0000
0001
0000
1000
0100
0000
0000
1000
0000
1000
0000
0001
0100
0000
0000
,
1001
0000
0001
0000
0010
0100
0000
0000
1001
0000
1000
0000
0010
0100
0000
0000
,
0001
0010
1000
0010
0001
0100
1000
0100
,
0001
0000
0000
0010
0000
0000
0001
0000
0000
0010
0000
0000
0001
0000
0000
0010
0000
0000
0001
0000
0000
0010
0000
0000
0100
0000
1000
0000
0001
0000
0100
0000
0000
0000
0010
0000
0000
0000
0000
0000
1000
0000
0000
0000
0000
0000
1000
0000
,
0002
2003
3002
2003
,
3002
0010
2003
0010
3002
0100
2003
0100
,
3001
0000
0000
1000
0000
0000
0010
0000
0000
0100
0000
0000
0001
0000
0000
1000
0000
0000
0100
0000
0010
0100
0000
0000
,
0201
0001
0010
1300
,
0001
0000
0000
1000
0000
0000
0010
0000
0000
0100
0000
0000
1000
0000
0000
0001
0000
0000
0010
0000
0100
0010
0000
0000
,
1000
0000
0000
0001
0000
0000
0010
0000
0000
0100
0000
0000
0001
0000
0000
1000
0000
0000
0010
0000
0100
0010
0000
0000
,
0001
0000
0000
1000
0000
0000
0010
0000
0000
0100
0000
0000
0001
0000
0000
1000
0000
0000
0010
0000
0100
0010
0000
0000
,
0021
0000
0001
0000
0100
0000
1030
0001
,
1000
0000
0000
0000
0000
0100
0000
0000
1000
0000
0000
0000
0000
0100
0000
0000
0010
0000
0000
0000
0000
0000
0000
0000
0001
0000
0000
0000
0000
0000
0000
0000
1000
0000
0000
0000
0000
0000
0000
0000
0010
0000
0000
0000
0000
0000
0000
0000
0100
0000
0000
0000
0000
0000
0000
0000
0001
0000
0000
0000
0000
0000
0000
0000
,
0001
0000
0000
0000
0000
0100
0000
0000
0001
0000
0000
0000
0000
0100
0000
0000
0010
0000
0000
0000
0000
0000
0000
0000
1000
0000
0000
0000
0000
0000
0000
0000
0001
0000
0000
0000
0000
0000
0000
0000
0010
0000
0000
0000
0000
0000
0000
0000
0100
0000
0000
0000
0000
0000
0000
0000
1000
0000
0000
0000
0000
0000
0000
0000
,
1000
0000
0000
0000
0000
0001
0000
0000
1000
0000
0000
0000
0000
0001
0000
0000
0010
0000
0000
0000
0000
0000
0000
0000
0100
0000
0000
0000
0000
0000
0000
0000
0001
0000
0000
0000
0000
0000
0000
0000
0100
0000
0000
0000
0000
0000
0000
0000
0010
0000
0000
0000
0000
0000
0000
0000
0100
0000
0000
0000
0000
0000
0000
0000
,
1100
0000
0000
0000
0000
0000
0000
0000
0000
0000
0000
0000
0000
0000
0000
0000
0101
0000
0000
0000
0000
0000
0000
0000
0000
0000
0000
0000
0000
0000
0000
0000
1010
0000
0000
0000
0000
0000
0000
0000
0000
0000
0000
0000
0000
0000
0000
0000
0011
0000
0000
0000
0000
0000
0000
0000
0010
0000
0000
0000
0000
0100
0000
0000
,
0010
0000
0000
0000
0000
0100
0000
0000
1000
0000
0000
0000
0000
0001
0000
0000
1000
0000
0000
0000
0000
0000
0000
0000
0001
0000
0000
0000
0000
0000
0000
0000
0100
0000
0000
0000
0000
0000
0000
0000
0010
0000
0000
0000
0000
0000
0000
0000
1000
0000
0000
0000
0000
0000
0000
0000
0001
0000
0000
0000
0000
0010
0000
0000
,
0001
0000
0000
0000
0000
1000
0000
0000
0100
0000
0000
0000
0000
1000
0000
0000
0100
0000
0000
0000
0000
0000
0000
0000
0010
0000
0000
0000
0000
0000
0000
0000
0001
0000
0000
0000
0000
0000
0000
0000
1000
0000
0000
0000
0000
0000
0000
0000
0010
0000
0000
0000
0000
0000
0000
0000
0100
0000
0000
0000
0000
0001
0000
0000
,
0100
0000
0000
0000
0000
0010
0000
0000
1000
0000
0000
0000
0000
0010
0000
0000
1000
0000
0000
0000
0000
0000
0000
0000
0001
0000
0000
0000
0000
0000
0000
0000
0010
0000
0000
0000
0000
0000
0000
0000
0100
0000
0000
0000
0000
0000
0000
0000
1000
0000
0000
0000
0000
0000
0000
0000
0001
0000
0000
0000
0000
0000
0000
0000
,
1100
0000
0000
0000
0000
0001
1000
0000
0000
0010
0000
0000
0101
0000
0000
0000
0000
1000
0001
0000
0000
0010
0000
0000
,
0110
0000
0001
1000
0100
0010
0000
0010
,
0001
0000
0001
0000
1000
0000
0010
1000
0001
0100
0010
0000
1001
0000
0000
0000
,
0001
0000
0010
0000
0100
0010
0100
0000
0001
0000
0100
0000
0010
0100
0010
0000
,
0001
0000
0100
0000
1000
0000
0100
0000
0001
0010
0000
0000
1000
0010
0000
0000
,
0110
0000
1000
0001
0100
0010
0000
0010
,
1000
0000
0001
0000
0010
0000
0100
1000
0001
0100
0010
0000
1001
0000
0000
0000
,
1000
0000
0010
0000
0100
0010
0100
0000
1000
0000
0100
0000
0010
0100
0010
0000
,
1000
0000
0100
0000
0001
0100
1000
0000
0001
0000
0100
0000
1000
0100
0001
0000
,
0000
1000
0000
0100
0010
0000
0110
0000
0011
0000
0000
0000
0001
0000
0100
0010
,
0000
0001
0000
0010
0100
0000
0110
0000
1001
0000
0000
0000
1000
0000
0001
0010
,
0000
1000
0000
0010
0100
0000
1100
0000
0110
0000
0000
0000
0001
0000
1000
0010
,
0000
0001
0000
0010
0100
0000
0101
0000
1100
0000
0000
0000
0001
0000
0000
0001
,
0000
0000
0001
0000
0100
0010
0100
0001
0100
0010
0100
0001
1000
0000
0100
0010
,
0000
1000
0000
0001
0100
0000
0110
0000
1100
0000
0000
0000
0001
0000
0100
0010
,
0100
0000
1000
0000
0001
0000
0010
0100
0010
0000
1000
0000
0001
0000
0001
0000
,
1000
0000
0000
1000
0000
0000
0100
0000
0000
0100
0000
0000
0010
0000
0000
0010
0000
0000
0001
0000
0000
0000
0000
0100
,
0001
0000
0000
0100
0000
0000
0000
0000
0000
0010
0000
0000
0000
0000
0010
0000
0000
0000
1000
0000
0000
0000
0000
0100
,
1000
0000
0000
0100
0000
0000
0000
0000
0000
0010
0000
0000
0000
0000
0010
0001
0000
0000
1000
0000
0000
0000
0000
0010
,
1000
0000
0000
0010
0000
0000
0000
0000
0000
0100
0000
0000
0000
0000
0001
0000
0000
0000
0010
0000
0000
0000
0000
0001
,
0010
0000
0000
0001
0000
0000
0000
0000
0000
0100
0000
0000
0000
0000
0010
1000
0000
0001
1000
0000
0000
0100
0000
0000
,
0010
0001
1000
0010
0100
0001
1000
0010
,
0100
0000
1000
0000
0001
0000
0010
0000
0100
0000
0001
0000
1000
0001
1000
0001
,
1000
0001
1000
0001
0010
0100
0010
0100
0010
0100
0010
0100
2000
0000
0000
0000
,
0001
0000
0001
0000
0000
0000
3100
0000
0100
0000
0100
0000
0010
0001
0010
0100
0000
1000
0001
0000
0000
0000
0000
0000
,
0001
0000
1000
0000
1000
0000
0101
1100
,
0001
0100
0010
0100
2000
0000
3200
0000
0302
0000
0003
0000
1000
0000
0001
0000
,
1000
0000
0010
0000
1000
0000
0100
0010
0000
0010
0100
1000
0001
0000
1000
0000
,
0001
0000
0010
0000
0001
0000
1000
0001
0000
0001
0100
0010
1000
0000
0001
0000
,
1000
0000
0010
0000
1000
0000
0001
1000
0000
1000
0100
0010
0100
0000
1000
0000
,
0010
0000
0100
0000
0001
0000
1000
0001
0000
0001
0100
0010
0100
0000
0001
0000
,
1000
0000
0010
0000
1000
0000
0100
0010
0000
0010
0001
1000
0010
0000
0000
0000
,
0110
0000
0000
0010
1000
0000
1000
0001
0100
0000
0002
0000
0013
0000
0001
0000
,
1000
0000
0001
0000
0100
0000
0010
1000
0000
1000
0010
0000
1000
0001
1000
0000
,
0100
1000
0100
0000
0010
0000
0001
0100
0000
0001
0100
0000
0010
1000
0001
0000
,
1000
0001
0100
0000
0010
1000
0000
0100
0000
0010
0001
0000
1100
0000
0000
0000
,
0011
0000
0000
0000
1010
0000
0000
0000
0101
0000
0000
0000
0001
0000
0010
0100
,
0010
0000
1000
0000
0001
0000
0100
0010
0100
0000
1000
0000
0001
0000
1000
0010
,
1000
0000
0001
0000
1000
0000
0010
0100
0010
0000
0100
0000
0001
1000
0001
0000
,
1000
0010
1000
0000
0001
0100
0001
0000
1000
0100
1000
0000
0002
0000
0000
0010
,
0000
0000
0010
0000
2003
0000
0000
0100
0000
0000
0100
0000
3002
0000
0000
0100
,
0000
0000
0100
0000
1003
0000
0010
0000
0100
0001
0100
0001
1000
0000
1000
0000
,
0000
0000
0000
1000
0000
0000
0000
0000
0100
0000
0000
0010
0000
0000
0100
0010
0000
0001
0000
0000
0000
0001
0000
0000
,
0000
0000
0000
0001
0000
0000
0000
0000
1000
0000
0000
0001
0000
0000
1000
0001
0000
0100
0000
0000
0000
0100
0000
0000
,
0000
0000
0000
0100
0000
0000
0000
0000
0010
0000
0000
1000
0000
0000
1000
0010
0000
0000
1010
0000
0000
0000
0000
0000
,
0101
0000
0011
0000
1100
0000
0000
1000
,
0000
0000
0000
0100
0000
0000
0000
0000
0001
0000
0000
0100
0000
0000
1000
0100
0000
0000
0000
0000
0000
0010
0000
0000
,
0000
0000
0000
0001
0000
0000
0000
0000
1000
0000
0000
0010
0000
0000
0001
0010
0000
0000
0010
0000
0000
0100
0000
0000
,
0001
0000
0010
0000
0100
0000
1000
0000
0001
0000
0100
0000
0001
0000
0000
0101
,
0000
0000
0000
1100
0000
0000
1000
0000
0000
0001
0000
0000
0010
0000
0100
0010
0000
0100
0000
0000
0000
0000
0000
0000
;

//---------------dance-single - ----------------
#NOTEDATA:;
#CHARTNAME:;
#STEPSTYPE:dance-single;
#DESCRIPTION:;
#CHARTSTYLE:;
#DIFFICULTY:Easy;
#METER:8;
#RADARVALUES:0.334563,0.402951,0.129658,0.145865,0.000000,289.000000,273.000000,16.000000,18.000000,0.000000,0.000000,0.000000,0.000000,0.000000,0.334563,0.402951,0.129658,0.145865,0.000000,289.000000,273.000000,16.000000,18.000000,0.000000,0.000000,0.000000,0.000000,0.000000;
#CREDIT:;
#NOTES:
0000
0000
0000
0000
,
0000
0000
0000
0000
,
1000
0000
0001
0000
,
1000
0100
0020
0000
,
0031
0001
0100
0010
,
1000
1000
0100
0010
,
0001
0001
0100
0010
,
1000
0001
1000
0001
,
0101
1000
1100
0001
,
0101
0010
1100
0010
,
0001
0100
0010
1000
,
1001
0110
2002
3003
,
2000
0000
0000
3000
,
0002
0000
0000
0003
,
1000
0100
0010
0100
,
1000
1000
0001
0010
,
0001
0100
0010
0100
,
0001
0010
0100
0010
,
0001
1000
0010
0100
,
0001
0001
1000
0010
,
1000
0100
1000
1000
,
0001
0100
0001
0001
,
1000
0100
1000
0001
,
0010
0010
0100
0010
,
0001
1000
0100
0100
,
1000
0001
0100
0100
,
0001
1000
0100
1000
,
2002
3003
0220
0330
,
0100
1000
0010
0010
,
0100
0001
0010
0010
,
0100
1000
0100
0010
,
0001
0010
0200
0300
,
0010
0001
0100
0100
,
0010
1000
0100
0100
,
0010
0001
0100
1000
,
0100
0001
0010
0100
,
0000
0100
1001
0001
,
0100
0010
1001
1000
,
0100
0010
0110
0001
,
0100
0010
0110
2000
,
0000
0000
3000
0001
,
0010
1000
0010
0001
,
0001
1000
1000
0010
,
0010
0010
0010
0100
,
0100
0001
0001
1000
,
1000
0100
0100
0010
,
0010
0001
0001
1000
,
1000
0010
0010
0100
,
0100
0100
0100
0100
,
0100
0100
0100
0100
,
0100
0100
0100
1001
,
0110
2002
3003
0002
,
0000
0000
0003
1000
,
1000
2000
3000
0001
,
0100
0010
0100
0001
,
0001
1000
0010
1000
,
0100
0010
0100
1000
,
0010
0100
0010
1000
,
0001
0010
0100
1000
,
1000
0000
0001
0000
0001
0010
0001
0000
,
0010
0100
1000
0010
,
0100
0001
0100
0010
,
1000
0100
0010
0001
,
0010
0100
0100
1000
,
0010
0001
0010
0100
,
0001
0010
0100
1000
,
0001
0100
0100
0020
,
0000
0230
0000
0302
,
0000
0000
0003
1000
,
1000
0100
0010
0001
,
0001
0010
0100
1000
,
1000
0100
0010
0001
,
0010
1000
0010
0001
,
0001
0100
0010
1000
,
1000
0010
0100
0001
,
0001
1000
1000
0100
,
0010
0010
0100
0000
;

//---------------dance-single - ----------------
#NOTEDATA:;
#CHARTNAME:;
#STEPSTYPE:dance-single;
#DESCRIPTION:;
#CHARTSTYLE:;
#DIFFICULTY:Beginner;
#METER:4;
#RADARVALUES:0.178279,0.278966,0.024311,0.000000,0.000000,154.000000,151.000000,3.000000,0.000000,0.000000,0.000000,0.000000,0.000000,0.000000,0.178279,0.278966,0.024311,0.000000,0.000000,154.000000,151.000000,3.000000,0.000000,0.000000,0.000000,0.000000,0.000000,0.000000;
#CREDIT:;
#NOTES:
0000
0000
0000
0000
,
0000
0000
0000
0000
,
0000
0000
0000
0000
,
0000
0000
0000
0000
,
1000
0000
1000
0000
,
0001
0000
0001
0000
,
1000
0000
1000
0000
,
0010
0000
0100
0000
,
0001
0000
0001
0000
,
0001
0000
0001
0000
,
1000
1000
1000
1000
,
0001
0000
0010
0000
,
0100
0000
0000
0000
,
0010
0000
0000
0000
,
0001
0000
1000
0000
,
0010
0010
0100
0001
,
0001
0000
0000
0000
,
1000
0000
0000
0000
,
1000
0000
0001
0000
,
0010
0010
0100
1000
,
1000
0000
0100
0000
,
1000
0000
0001
0000
,
1000
0000
0010
0000
,
0100
0100
0100
0000
,
0001
0000
0100
0000
,
0001
0000
1000
0000
,
0001
0000
0010
0000
,
0100
0100
0100
0000
,
1000
0000
0100
0000
,
0010
0000
0100
0000
,
1000
0000
0100
0000
,
0010
0000
0001
0000
,
0001
0000
0100
0000
,
0010
0000
0100
0000
,
0001
0000
0100
0000
,
0010
0000
1000
1000
,
0000
0001
0000
0010
,
0000
0100
0000
1000
,
0000
0001
0000
0100
,
0000
0010
0000
1001
,
0000
0000
0000
1000
,
0000
0001
0000
0010
,
0000
0010
0000
0100
,
0100
0100
0000
1001
,
0000
0000
0000
0000
,
0000
0000
0000
0110
,
0000
0000
0000
0000
,
0000
0000
0000
0001
,
1000
0001
1000
0100
,
0010
0100
0010
0001
,
1000
0001
1000
0010
,
0010
0010
0000
0100
,
0000
0000
0000
0010
,
0000
0000
0000
1000
,
0000
0001
0000
0010
,
0100
0010
0001
0001
,
0000
0000
0000
1000
,
0000
0000
0000
0001
,
0000
1000
0000
0010
,
0100
0010
1000
1000
,
0000
0100
0000
0010
,
0000
0001
0000
1000
,
0000
0010
0000
0100
,
0000
0001
0000
0001
,
0000
0010
0000
0100
,
0000
1000
0000
0001
,
0000
0100
0000
0010
,
0000
0010
0000
0010
,
0000
0000
0000
0000
,
1000
0000
1000
0000
,
0001
0000
0001
0000
,
1000
0000
1000
0010
,
0000
0100
0000
0000
,
0001
0000
0001
0000
,
1000
0000
1000
0000
,
0001
0000
0001
0010
,
0000
0100
0100
0000
;

//---------------dance-single - ----------------
#NOTEDATA:;
#CHARTNAME:;
#STEPSTYPE:dance-single;
#DESCRIPTION:;
#CHARTSTYLE:;
#DIFFICULTY:Hard;
#METER:14;
#RADARVALUES:0.673756,0.683775,0.259315,0.145865,0.429491,582.000000,550.000000,32.000000,18.000000,0.000000,0.000000,0.000000,0.000000,0.000000,0.673756,0.683775,0.259315,0.145865,0.429491,582.000000,550.000000,32.000000,18.000000,0.000000,0.000000,0.000000,0.000000,0.000000;
#CREDIT:;
#NOTES:
// measure 0
0000
0000
0000
0000
,  // measure 1
0000
0000
0000
0000
,  // measure 2
1001
0000
0110
0000
,  // measure 3
1001
0000
0000
0000
0110
0000
0000
0000
1000
0000
1000
0001
0000
0100
0000
0010
,  // measure 4
1000
0000
1000
0001
0100
0010
0000
0100
,  // measure 5
0001
0000
0001
1000
0100
0010
0100
0000
,  // measure 6
1000
0000
1000
0001
0100
0010
0000
0100
,  // measure 7
0001
0000
0000
0001
0000
0000
0100
0000
1000
0000
0000
1000
0000
0100
0000
0000
,  // measure 8
0001
0001
0100
0001
0100
0100
0010
0100
,  // measure 9
0010
0010
1000
0010
1000
1000
0001
1000
,  // measure 10
0001
0010
0100
0010
1000
0010
0100
0010
,  // measure 11
0001
0000
0000
0001
0000
0000
0001
0000
0000
0001
0000
0000
1000
0000
0100
1000
0000
0001
0000
0000
0100
0000
0000
0100
,  // measure 12
0020
0000
0000
0000
0000
0000
0000
0000
0030
0000
0200
0000
0000
0302
0000
0000
,  // measure 13
0023
0000
0000
0000
0000
0000
0000
0000
0030
0000
0200
0000
0000
2300
0000
0000
,  // measure 14
3010
0100
0001
0100
0010
1000
0100
0010
,  // measure 15
0200
1000
0001
1300
,  // measure 16
0001
0000
0000
0100
0000
0000
0010
0000
0000
0001
0000
0000
0010
0000
0000
1000
0000
0000
0000
0000
0100
0000
0000
0000
,  // measure 17
1000
0000
0000
0100
0000
0000
0010
0000
0000
1000
0000
0000
0010
0000
0000
0001
0000
0000
0000
0000
0100
0000
0000
0000
,  // measure 18
0001
0000
0000
1000
0000
0000
0010
0000
0000
0100
0000
0000
0001
0000
0000
0010
0000
0000
0000
0000
0100
0000
0000
0000
,  // measure 19
1100
0000
1001
0000
0101
0000
0110
0010
,  // measure 20
1000
0000
0000
0000
0000
0000
0000
0000
0001
0000
0000
0000
0000
0000
0000
0000
0100
0000
0000
0000
0000
0000
0000
0000
0001
0000
0000
0000
0000
1000
0000
0000
0001
0000
0000
0000
0000
0000
0000
0000
0010
0000
0000
0000
0000
0000
0000
0000
0100
0000
0000
0000
0000
0000
0000
0000
1000
0000
0000
0000
0000
0000
0000
0000
,  // measure 21
0001
0000
0000
0000
0000
0000
0000
0000
1000
0000
0000
0000
0000
0000
0000
0000
0100
0000
0000
0000
0000
0000
0000
0000
1000
0000
0000
0000
0000
0001
0000
0000
1000
0000
0000
0000
0000
0000
0000
0000
0010
0000
0000
0000
0000
0000
0000
0000
0100
0000
0000
0000
0000
0000
0000
0000
0001
0000
0000
0000
0000
0000
0000
0000
,  // measure 22
1000
0000
0000
0000
0000
0000
0000
0000
0001
0000
0000
0000
0000
0000
0000
0000
0100
0000
0000
0000
0000
0000
0000
0000
0010
0000
0000
0000
0000
0100
0000
0000
0010
0000
0000
0000
0000
0000
0000
0000
1000
0000
0000
0000
0000
0000
0000
0000
0100
0000
0000
0000
0000
0000
0000
0000
0010
0000
0000
0000
0000
0000
0000
0000
,  // measure 23
0001
0000
0000
0000
0000
0000
0000
0000
0010
0000
0000
0000
0000
0000
0000
0000
1000
0000
0000
0000
0000
0000
0000
0000
0010
0000
0000
0000
0000
0000
0000
0000
0001
0000
0000
0000
0000
0000
0000
0000
0010
0000
0000
0000
0000
0000
0000
0000
1000
0000
0000
0000
0000
0000
0000
0000
0010
0000
0000
0000
0000
0100
0000
0000
,  // measure 24
0010
0000
0000
0000
0000
0000
0000
0000
0001
0000
0000
0000
0000
0000
0000
0000
0100
0000
0000
0000
0000
0000
0000
0000
0001
0000
0000
0000
0000
1000
0000
0000
0001
0000
0000
0000
0000
0000
0000
0000
0010
0000
0000
0000
0000
0000
0000
0000
0100
0000
0000
0000
0000
0000
0000
0000
1000
0000
0000
0000
0000
0000
0000
0000
,  // measure 25
0010
0000
0000
0000
0000
0000
0000
0000
1000
0000
0000
0000
0000
0000
0000
0000
0100
0000
0000
0000
0000
0000
0000
0000
1000
0000
0000
0000
0000
0001
0000
0000
1000
0000
0000
0000
0000
0000
0000
0000
0010
0000
0000
0000
0000
0000
0000
0000
0100
0000
0000
0000
0000
0000
0000
0000
0001
0000
0000
0000
0000
0000
0000
0000
,  // measure 26
0100
0000
0000
0000
0000
0000
0000
0000
0010
0000
0000
0000
0000
1000
0000
0000
0010
0000
0000
0000
0000
0000
0000
0000
0100
0000
0000
0000
0000
0001
0000
0000
0100
0000
0000
0000
0000
0000
0000
0000
0001
0000
0000
0000
0000
0000
0000
0000
0010
0000
0000
0000
0000
0000
0000
0000
0100
0000
0000
0000
0000
0000
0000
0000
,  // measure 27
1000
0000
0000
0000
0000
1000
0100
0000
0000
0010
0000
0000
0001
0000
0000
0000
0000
0001
0100
0000
0000
0010
0000
0000
,  // measure 28
1010
0000
1000
0001
0100
0000
0001
0000
0000
0000
0011
0000
0000
0000
1010
0000
,  // measure 29
0001
0000
0001
1000
0100
0000
1000
0000
0000
0000
1100
0000
0000
0000
0101
0000
,  // measure 30
0001
0000
0100
0000
0010
0000
0100
0001
1000
0000
0200
0000
0300
0000
0010
0000
,  // measure 31
0100
0000
1000
0000
0010
0000
0100
0001
1000
0000
0000
0000
1001
0000
0000
0000
,  // measure 32
0101
0000
0001
0100
0010
0000
0100
0000
0000
0000
0101
0000
0000
0000
1010
0000
,  // measure 33
1000
0000
1000
0100
0010
0000
0100
0000
0000
0000
1100
0000
0000
0000
0011
0000
,  // measure 34
1000
0000
0100
0000
0010
0100
0010
0000
0001
0000
0002
0000
0003
0010
0100
0000
,  // measure 35
1000
0000
0010
0000
0100
0010
0100
0000
0001
0000
0100
0000
0100
0000
0100
0000
,  // measure 36
0000
0001
0000
1000
0100
0000
0100
0000
0110
0000
0000
0000
0010
0000
0100
1000
,  // measure 37
0000
0001
0000
0100
0010
0000
0010
0000
0110
0000
0000
0000
1000
0000
0001
0010
,  // measure 38
0000
0100
0000
1000
0001
0000
0001
0000
0011
0000
0000
0000
0001
0000
1000
0010
,  // measure 39
0000
0100
0000
0001
1000
0000
1000
0000
1010
0000
0010
0000
0200
0000
0000
0000
,  // measure 40
0000
0000
0000
0000
0000
0001
0000
0001
0000
0001
0000
0000
0301
0000
0100
0010
,  // measure 41
0000
1000
0000
0001
0010
0000
0100
0000
1001
0000
0000
0000
0001
0000
0010
0000
,  // measure 42
1000
0001
0100
1000
0010
0100
0001
0000
,  // measure 43
0101
0000
0000
0000
0000
0000
1001
0000
0000
0000
0000
0000
1100
0000
0000
0000
0000
0000
1000
0000
0000
0000
0000
0100
,  // measure 44
0010
0000
0000
0100
0000
0000
0000
0000
0000
1000
0000
0000
0000
0000
1000
0000
0000
0000
0001
0000
0000
0000
0000
0100
,  // measure 45
0010
0000
0000
0100
0000
0000
0000
0000
0000
0001
0000
0000
0000
0000
0001
0000
0000
0000
1000
0000
0000
0000
0000
0100
,  // measure 46
0010
0000
0000
0001
0000
0000
0000
0000
0000
1000
0000
0000
0000
0000
1000
0000
0000
0000
0001
0000
0000
0000
0000
0100
,  // measure 47
0010
0000
0000
1000
0000
0000
0000
0000
0000
0001
0000
0000
0000
0000
0001
0010
0000
0100
1000
0000
0000
0100
0000
0000
,  // measure 48
0010
0001
1000
0100
0010
0100
1000
0010
,  // measure 49
0100
0000
0001
0000
1000
0000
0010
0000
0100
0000
0010
0000
1000
0010
1000
0000
,  // measure 50
0001
0100
0001
0000
1000
0100
1000
0000
0001
0010
0001
0000
1000
0000
0000
0000
,  // measure 51
1000
0000
0000
0000
0000
0100
1000
0000
0001
0000
0010
0000
0100
0000
0000
0100
0000
0000
0220
0000
0000
0000
0000
0000
,  // measure 52
0000
0000
0000
0000
0330
0000
0100
1000
,  // measure 53
0001
1000
0001
1000
0010
0000
0100
0000
1001
0000
0000
0000
0001
0000
0100
0000
,  // measure 54
0001
0000
1000
0000
0010
0000
0100
0001
0000
0100
0010
0000
1000
0000
0100
0000
,  // measure 55
1000
0000
0001
0000
0010
0000
0100
1000
0000
1000
0010
0000
1000
0000
0001
0000
,  // measure 56
1000
0000
0010
0000
0100
0000
0001
1000
0000
0001
0100
0000
0001
0000
1000
0000
,  // measure 57
0001
0000
0010
0000
0100
0000
1000
0001
0000
0001
0010
0000
0100
0000
1000
0000
,  // measure 58
0001
0000
0100
0000
0010
0000
1000
0001
0000
0010
0001
0000
0010
0000
0100
0000
,  // measure 59
0001
0000
0100
0000
1000
0000
1000
0001
1000
0000
0020
0000
1030
0000
0001
0000
,  // measure 60
0100
0000
0010
0000
1000
0000
1000
0100
0000
0100
0010
0000
0001
0000
0010
0000
,  // measure 61
1000
0000
0010
0000
0001
0000
0001
1000
0000
0001
1000
0000
0010
0000
1000
0000
,  // measure 62
0001
0000
0100
0000
0001
1000
0000
0010
0000
0010
1000
0000
0010
0000
0100
0001
,  // measure 63
0000
0000
0010
0000
0010
0000
0100
2000
0000
0000
0000
0000
3001
0000
0100
0000
,  // measure 64
0010
0000
1000
0000
0100
0010
0100
0010
0000
0000
0001
0000
1000
0000
0010
0000
,  // measure 65
0100
0000
0001
0000
0100
0000
0100
0010
0000
0000
1000
0000
0001
0000
0100
0000
,  // measure 66
1000
0000
0100
0000
0001
1000
0001
0000
1000
0000
0100
0000
0020
0000
0000
0000
,  // measure 67
0000
0230
0000
2300
0000
0002
0000
0000
,  // measure 68
0000
0000
0000
3003
0000
0110
1000
0100
,  // measure 69
0010
0000
0000
0000
0000
0000
0100
0000
1000
0000
0000
1000
0000
0000
0000
0001
0000
0000
0001
0000
0000
0100
0000
0000
,  // measure 70
0010
0000
0000
0000
0000
0000
0100
0000
0001
0000
0000
0001
0000
0000
0000
1000
0000
0000
1000
0000
0000
0010
0000
0000
,  // measure 71
0100
0000
0000
0000
0000
0000
0010
0000
1000
0000
0000
1000
0000
0000
0001
0010
0000
0000
0100
0000
0000
0000
0000
0100
,  // measure 72
0000
0000
0000
1000
0000
0000
0010
0000
0000
0000
0000
0010
0000
0000
0100
0000
0000
0000
0001
0000
0000
0001
0000
0000
,  // measure 73
0100
0100
0001
0100
1000
0100
0001
0001
,  // measure 74
0010
0010
0001
0010
1000
0010
0100
1000
,  // measure 75
0001
0000
0010
0000
0001
0000
0100
0000
0010
0000
1000
0000
0001
0000
0000
0011
,  // measure 76
0000
0000
0000
1001
0000
0000
1000
0000
0000
0100
0000
0000
0010
0000
0100
0010
0000
0100
0000
0000
0000
0000
0000
0000
;
