#VERSION:0.83;
#TITLE:never stop my beat;
#SUBTITLE:;
#ARTIST:DJ TORA & Kizuna AI;
#TITLETRANSLIT:;
#SUBTITLETRANSLIT:;
#ARTISTTRANSLIT:;
#GENRE:;
#ORIGIN:;
#CREDIT:;
#BANNER:;
#BACKGROUND:;
#PREVIEWVID:;
#JACKET:;
#CDIMAGE:;
#DISCIMAGE:;
#LYRICSPATH:;
#CDTITLE:;
#MUSIC:never stop my beat.ogg;
#OFFSET:-0.647000;
#SAMPLESTART:50.804523;
#SAMPLELENGTH:15.428577;
#SELECTABLE:YES;
#BPMS:0.000=140.000;
#STOPS:;
#DELAYS:;
#WARPS:;
#TIMESIGNATURES:0.000=4=4;
#TICKCOUNTS:0.000=4;
#COMBOS:0.000=1;
#SPEEDS:0.000=1.000=0.000=0;
#SCROLLS:0.000=1.000;
#FAKES:;
#LABELS:0.000=Song Start;
#BGCHANGES:;
#KEYSOUNDS:;
#ATTACKS:
;

//---------------dance-single - ----------------
#NOTEDATA:;
#CHARTNAME:;
#STEPSTYPE:dance-single;
#DESCRIPTION:;
#CHARTSTYLE:;
#DIFFICULTY:Hard;
#METER:15;
#RADARVALUES:0.634355,0.807647,0.023249,0.333230,0.740081,573.000000,570.000000,3.000000,43.000000,0.000000,0.000000,0.000000,0.000000,0.000000,0.634355,0.807647,0.023249,0.333230,0.740081,573.000000,570.000000,3.000000,43.000000,0.000000,0.000000,0.000000,0.000000,0.000000;
#CREDIT:Kingly;
#NOTES:
0000
0000
0000
0000
,
0000
0000
0000
0000
,
0000
0000
0000
0000
,
0000
0000
0000
0000
,
0000
0000
0000
0000
,
0000
0000
0000
0000
,
1000
0000
0001
0000
0010
0100
0000
1000
0000
0010
0000
0000
1000
0000
0001
0000
,
0010
0000
0100
0000
1000
0001
0000
0010
0000
0001
0000
0000
0100
0000
0010
0000
,
1000
0000
0100
0000
1000
0001
0000
0100
0000
0010
0000
0000
1000
0000
0100
0000
,
2000
0000
3001
0100
0020
0000
2030
0000
,
0002
0000
3000
0020
,
0000
0000
0000
0000
0003
0000
0200
0030
,
0000
2000
0000
0000
0000
0000
0000
0000
,
3300
0000
0000
0000
0000
0000
0000
0001
,
0010
0000
0100
1000
0100
0000
0010
0000
0001
0000
1000
0010
1000
0000
0100
0000
,
0010
0100
0001
0100
1000
0001
0100
0001
,
0010
0000
0100
1000
0100
0000
0010
0000
0001
0000
1000
0010
2000
0000
0100
0000
,
3001
0100
0002
0010
1003
0010
0100
0001
,
0010
0000
0100
1000
0100
0000
0010
0000
0001
0000
0100
0010
0200
0000
1000
0000
,
0310
1000
0200
0001
0310
0001
2000
0010
,
3002
0000
0000
0203
0020
0000
0330
0000
,
1000
0000
0100
0000
1000
0001
0100
0001
0010
0000
0100
0000
1000
0010
0100
0001
,
1000
0000
0100
0000
1000
0000
0200
0000
1000
0000
0310
0002
0000
0000
0003
0000
,
1000
0000
0010
0000
0100
0000
0010
0000
1000
0000
0001
0020
0000
0000
0030
0000
,
0001
0000
0100
0000
0001
0000
0200
0000
0001
0000
0310
2000
0000
0000
3000
0000
,
0001
0000
0010
0000
0001
0000
0100
0000
0010
0000
1000
0002
0000
0000
0003
0000
,
1000
0000
0001
0100
0001
0000
1000
0100
1000
0000
0001
0100
0001
0000
1000
0010
,
0100
0000
0001
1000
0100
0000
0010
0001
1000
0000
0010
0100
0001
0000
1000
0010
,
0100
0001
0100
0001
1000
0100
1000
0100
0010
0001
0010
0001
1000
0010
1000
0010
,
0100
0000
0100
0000
0001
0000
0000
1000
0100
0010
0001
1000
0010
0000
0100
0000
,
1001
0000
0001
0010
0000
0100
1000
0100
0000
0010
0001
0010
0000
0001
1000
0000
,
0010
0000
0100
0001
0000
1000
0100
1000
0000
0001
0100
0001
0000
1000
0010
0000
,
0100
0000
0001
1000
0000
0100
0010
0100
0000
1000
0001
1000
0000
0010
0100
0000
,
0001
0000
1000
0000
0010
1000
0000
0100
0000
0010
0000
0100
0001
0000
0100
0000
,
0010
0000
0001
1000
0000
0001
0100
0010
0000
1000
0010
0100
0000
0001
1000
0000
,
0100
0000
0010
0001
0000
0100
0001
1000
0000
0100
1000
0001
0000
0100
0010
0000
,
1000
0000
0001
0010
0000
0100
1000
0010
0000
0100
0001
0010
0000
0001
1000
0000
,
0001
0100
0001
0000
1000
0000
0001
0010
0001
0000
0100
0000
0010
1000
0100
1000
,
0001
0000
1000
0200
0000
1000
0001
0000
0000
0001
1000
0000
0000
0310
0001
0000
,
1000
0000
0001
0200
0000
0010
1000
0000
0000
0010
0001
0000
0000
0301
0010
0000
,
0100
0000
1000
0020
0000
1000
0001
0000
0000
0001
1000
0000
0000
0130
0001
0000
,
1000
0000
0100
0000
0010
0002
0000
0100
0000
1003
0000
0100
0010
0000
0100
0000
,
1000
0000
0001
0200
0000
0010
1000
0000
0000
1000
0001
0000
0000
0310
1000
0000
,
0001
0000
0010
0200
0000
1000
0001
0000
0000
0010
1000
0000
0000
0310
0001
0000
,
1000
0000
0100
0020
0000
0001
1000
0000
0000
0100
0001
0000
0000
0130
1000
0000
,
0001
0000
1000
0000
0001
0100
0000
0010
0000
1000
0000
0001
0020
0000
0100
0000
,
0032
0000
0000
0100
2003
0000
0000
3100
,
0010
0001
0100
0001
0020
0000
0000
0100
,
0032
0000
0000
0100
2003
0000
0000
3001
,
0010
0100
1000
0001
0100
0000
0020
0000
,
1030
0000
0001
0100
0001
0000
1000
0100
1000
0000
0001
0010
0001
0000
1000
0010
,
0100
0000
0001
1000
0100
0000
0010
0001
1000
0000
0010
1000
0100
0000
0010
0001
,
1000
0010
1000
0010
0100
0001
0100
0001
1000
0100
1000
0100
0010
0001
0010
0002
,
2000
0000
0000
3003
0000
0000
0000
0000
0000
0000
0000
0000
0000
0000
0000
0000
,
0010
0000
0000
0000
0010
0000
0100
0000
0010
0100
0000
0000
0110
0000
0000
0000
,
1000
0001
0010
0000
0100
1000
0000
0001
0100
0001
0010
0000
0100
0000
0000
0000
,
1000
0000
0001
0100
0001
1000
0000
0100
0000
0010
0001
1000
0010
0000
0000
0000
,
0100
0000
0001
0010
0001
0000
1000
0010
0100
0001
1000
0000
0100
0000
0010
0001
,
0100
0001
1000
0100
0010
0000
0100
0000
1000
0000
0001
0000
0200
0000
0010
0000
,
0301
0000
0000
0000
1000
0000
0001
0100
0001
0000
0010
0000
0100
0000
0000
0000
,
1001
0000
0000
0000
1000
0100
1000
0000
0001
0100
0010
1000
0002
0000
0010
0000
,
1003
0000
0000
0000
0010
0000
0100
0001
0100
0010
1000
0000
0001
0000
0000
0000
,
0010
0100
1000
0001
0100
0000
0010
1000
0001
0010
0001
0010
0100
1000
0100
1000
,
0001
0000
0000
1000
0010
0000
0100
0001
1000
0100
0000
1000
0010
0000
0100
0000
,
0001
1000
0001
0000
0010
0001
0000
1000
0010
1000
0000
0001
0100
0000
0010
0000
,
1000
0001
0100
0001
0010
0000
0100
0000
1000
0000
0010
1000
0001
0000
0000
0000
,
0010
0100
1000
0100
0010
0001
1000
0000
0010
0100
0001
0100
0010
0000
0000
0000
,
1000
0000
0001
0010
0100
0010
0001
0010
0100
0000
1000
0000
0010
0000
0000
0000
,
1000
0000
0001
0010
0001
1000
0010
0000
0200
0000
0001
0000
0310
0000
0000
0000
,
1000
0000
0001
0010
0100
1000
0000
0100
0010
0000
0000
0000
0001
0100
0010
1000
,
0000
0000
0001
0100
0010
0000
0100
0000
2000
0000
0000
0000
3100
0000
0002
0000
,
2000
0000
0000
0000
0000
0000
0000
3003
;

//---------------dance-single - ----------------
#NOTEDATA:;
#CHARTNAME:;
#STEPSTYPE:dance-single;
#DESCRIPTION:;
#CHARTSTYLE:;
#DIFFICULTY:Medium;
#METER:12;
#RADARVALUES:0.493756,0.584848,0.023249,0.108493,0.166615,446.000000,443.000000,3.000000,14.000000,0.000000,0.000000,0.000000,0.000000,0.000000,0.493756,0.584848,0.023249,0.108493,0.166615,446.000000,443.000000,3.000000,14.000000,0.000000,0.000000,0.000000,0.000000,0.000000;
#CREDIT:Kingly;
#NOTES:
0000
0000
0000
0000
,
0000
0000
0000
0000
,
0000
0000
0000
0000
,
0000
0000
0000
0000
,
0000
0000
0000
0000
,
0000
0000
0000
0000
,
1000
0000
0001
0100
0001
0000
0010
0000
,
0100
0000
1000
0010
1000
0000
0001
0000
,
0010
0000
0100
1000
0100
0000
0010
0000
,
0002
0000
1003
0010
0100
0000
0002
0000
,
2000
0000
0000
0000
,
0000
0000
0000
0000
,
0000
0000
0000
0000
,
3003
0000
0000
0000
0000
0000
0000
1000
,
0100
1000
0100
0010
0001
0010
0001
1000
,
0010
0100
0010
1000
0001
1000
0100
0010
,
0001
0010
0001
1000
0010
1000
0010
0100
,
0001
0010
0001
1000
0010
0100
0010
1000
,
0001
1000
0001
0010
0100
0010
0100
1000
,
0010
1000
0001
0010
0100
1000
0100
0010
,
0001
0010
0001
1000
0010
1000
0010
0100
,
0000
0001
0010
0001
2000
0000
3010
0100
,
0010
0000
1000
0000
0010
0000
1000
0000
0010
0000
1000
0001
0000
0000
0000
0000
,
0100
0000
0000
0000
0010
0000
1000
0000
0100
0000
1000
0100
0000
0000
0000
0000
,
0010
0000
0001
0000
0010
0000
0001
0000
0010
0000
0001
1000
0000
0000
0000
0000
,
0100
0000
0000
0000
0010
0000
0001
0000
0100
0000
0001
0100
0000
0000
0000
0000
,
0010
1000
0010
1000
0001
0010
0001
0010
,
0100
1000
0100
1000
0001
0100
0001
0100
,
0010
0000
0010
0000
1000
0000
1000
0000
0001
0000
0001
0000
1000
0001
1000
0001
,
1000
0000
0100
0000
0010
0000
0000
0001
0100
0000
0001
0000
1000
0000
0100
0000
,
0010
0000
0001
0000
1000
0010
0000
0000
1000
0000
0000
0100
0000
0000
1000
0000
,
0010
0000
1000
0000
0001
0010
0000
0000
0001
0000
0000
0100
0000
0000
0001
0000
,
0010
0000
0100
0000
1000
0001
0000
0000
1000
0000
0000
0010
0000
0000
0100
0000
,
0001
0000
1000
0000
0001
0010
0000
0100
0000
0000
1000
0000
0010
0000
1000
0000
,
0001
0000
0010
0000
0001
1000
0000
0000
0010
0000
0000
0100
0000
0000
0001
0000
,
1000
0000
0100
0000
0010
0001
0000
0000
0100
0000
0000
0001
0000
0000
1000
0000
,
0100
0000
0010
0000
0100
1000
0000
0000
0001
0000
0000
0100
0000
0000
0010
0000
,
1000
0000
0100
0000
1000
0000
0001
0100
0001
0000
0010
0000
0100
0000
1000
0000
,
0001
0100
0001
0100
0010
1000
0010
1000
,
0001
0010
0001
0010
0100
1000
0100
1000
,
0001
0100
0010
1000
0100
1000
0001
0100
,
0010
1000
0100
1000
0001
0100
1000
0100
,
0010
1000
0100
1000
0001
0010
0100
1000
,
0001
0100
0001
0010
0100
1000
0100
0001
,
0100
0010
0001
0100
0001
1000
0010
0100
,
0001
0000
1000
0000
0000
0001
0000
1000
0000
0000
0100
0000
0010
0000
0001
0000
,
2000
0000
0000
3001
0020
0000
0000
0130
,
1000
0001
0100
0001
0020
0000
0000
0130
,
2000
0000
0000
3001
0200
0000
0000
0310
,
1000
0100
1000
0001
0100
0000
0010
1000
,
0001
0010
0001
0010
0100
1000
0100
1000
,
0001
0100
0001
0100
0010
1000
0010
1000
,
0001
0000
0001
0000
0010
0000
0010
0000
0100
0000
0100
0000
1000
0001
1000
0002
,
2000
0000
0000
3003
0000
0000
0000
0000
0000
0000
0000
0000
0000
0000
0000
0000
,
1001
0000
0000
0000
0001
0000
0010
0000
0100
1000
0000
0000
1001
0000
0000
0000
,
0001
0000
0100
0000
0010
1000
0000
0010
1000
0000
0001
0000
0010
0000
0000
0000
,
0100
1000
0100
0010
0001
0100
0001
0000
,
1000
0000
0010
0000
0100
0000
0001
0000
1000
0100
1000
0000
0001
0000
0000
0000
,
0100
0010
1000
0100
1000
0001
0100
0010
,
1000
0000
0001
0010
0100
1000
0100
0000
,
0110
0000
0000
0000
0001
0000
1000
0000
0010
0000
1000
0001
1000
0000
0100
0000
,
0010
0000
0001
0100
0001
1000
0010
0000
,
0100
0001
0100
0000
0010
0000
1000
0000
0001
0010
0001
0000
1000
0001
1000
0001
,
1000
0000
0010
0000
0100
0000
0010
0000
1000
0001
0000
1000
0001
0000
0000
0000
,
0010
0000
0100
0000
1000
0000
0100
0000
0010
0001
0000
0010
0001
0000
0000
0000
,
1000
0010
1000
0000
0001
0000
0010
0000
0100
0000
1000
0000
0001
0000
0000
0000
,
0100
0010
0100
0001
1000
0100
0010
0000
,
0001
0000
1000
0010
1000
0000
0100
0000
0010
0000
0000
0000
0001
0000
0000
0000
,
1000
0010
0100
0010
1000
0001
0010
0000
,
0100
0000
1000
0000
0100
0000
0000
0000
0010
0000
0000
0000
0001
1000
0001
0100
,
0000
0001
1000
0100
0002
0000
0103
2000
,
0002
0000
0000
0000
0000
0000
0000
3003
;

//---------------dance-single - ----------------
#NOTEDATA:;
#CHARTNAME:;
#STEPSTYPE:dance-single;
#DESCRIPTION:;
#CHARTSTYLE:;
#DIFFICULTY:Easy;
#METER:8;
#RADARVALUES:0.328802,0.362049,0.030998,0.100744,0.000000,297.000000,293.000000,4.000000,13.000000,0.000000,0.000000,0.000000,0.000000,0.000000,0.328802,0.362049,0.030998,0.100744,0.000000,297.000000,293.000000,4.000000,13.000000,0.000000,0.000000,0.000000,0.000000,0.000000;
#CREDIT:Kingly;
#NOTES:
0000
0000
0000
0000
,
0000
0000
0000
0000
,
0000
0000
0000
0000
,
0000
0000
0000
0000
,
0000
0000
0000
0000
,
0000
0000
0000
0000
,
1000
0100
1000
1100
,
0001
0100
0001
0101
,
1000
0010
1000
1010
,
0001
0000
0010
0100
0010
0000
0002
0000
,
2000
0000
0000
0000
,
0000
0000
0000
0000
,
0000
0000
0000
0000
,
3003
0000
0000
0000
0000
0000
0000
1000
,
0001
0000
0000
1000
0001
0000
0000
1000
,
0100
0000
0010
0000
0001
0000
0000
0001
,
1000
0000
0000
0001
1000
0000
0000
0001
,
0100
0000
0000
0010
1000
0000
0000
0001
,
0010
0000
0000
0001
0010
0000
0000
0100
,
1000
0000
0000
0100
1000
0000
0000
0010
,
0100
0000
0000
0001
1000
0000
0000
0000
,
0000
0001
0010
0100
1000
0000
0002
0000
,
0100
0000
0103
0000
0100
0010
0100
0000
,
0001
0010
0100
2000
,
0100
0000
3100
0000
0100
0010
0100
0000
,
1000
0010
0100
0001
,
1000
1000
0100
0100
,
0010
0010
0001
0001
,
1000
0100
1000
0000
0001
0100
0001
0000
,
0010
0100
0010
0000
0002
0000
2003
0000
,
3010
0000
0100
0000
0001
1000
0001
0000
,
0010
0000
0100
0000
1000
0001
1000
0000
,
0001
0000
0100
0000
0010
1000
0010
0000
,
1000
0000
0100
0000
0010
0001
0010
0000
,
0100
0000
1000
0000
0001
0100
0001
0000
,
0100
0000
0001
0000
1000
0100
1000
0000
,
0010
0000
0100
0000
0001
0010
0001
0000
,
1000
0000
0010
0100
0001
0000
1000
0000
,
0100
0000
0010
0000
0001
0010
0001
0000
,
0100
0000
0010
0000
1000
0010
1000
0000
,
0001
0000
0010
0000
0100
1000
0100
0000
,
1000
0000
0010
0000
0100
0001
0100
0000
,
0010
0000
1000
0000
0001
0010
0001
0000
,
0010
0000
0001
0000
1000
0010
1000
0000
,
0100
0000
0010
0000
0001
1000
0001
0000
,
0200
0000
0000
0000
0000
0000
0000
0310
,
1000
0000
0000
0010
1000
0000
0000
0001
,
0010
0100
1000
0001
0010
0000
0000
0010
,
0001
0000
0000
0010
0001
0000
0000
1000
,
0010
0100
0001
1000
0010
0000
2000
0000
,
3001
0001
0100
0100
,
0010
0010
1000
1000
,
0001
0010
0001
0000
1000
0010
1000
0000
,
2002
0000
0000
3003
0000
0000
0000
0000
0000
0000
0000
0000
0000
0000
0000
0000
,
0001
0000
0001
0010
0100
0000
2000
0000
,
3001
0100
0001
0000
1000
0100
1000
0000
,
0001
0000
0100
0000
0010
1000
0010
0000
,
0100
0000
0001
0000
1000
0100
1000
0000
,
0001
0100
0001
0000
0010
0100
0010
0000
,
0001
0000
1000
0000
0010
0100
0010
0000
,
1000
0000
0001
0010
0001
0000
0100
0010
,
0100
0000
0001
1000
0001
0000
0010
0000
,
0100
1000
0100
0000
0010
0001
0010
0000
,
0100
0000
1000
0000
0001
0100
0001
0000
,
0010
0100
0010
0000
0100
1000
0100
0000
,
0010
0001
1000
0010
,
0100
0001
0100
0000
0010
1000
0010
0000
,
0100
0000
0001
1000
0001
0000
0010
0000
,
0100
1000
0100
0000
0010
0001
0010
0000
,
0001
0000
1000
0010
1000
0000
0001
0010
,
0001
0000
0100
0000
0010
0000
1000
0002
,
2000
0000
0000
0000
0000
0000
0000
3003
;

//---------------dance-single - ----------------
#NOTEDATA:;
#CHARTNAME:;
#STEPSTYPE:dance-single;
#DESCRIPTION:;
#CHARTSTYLE:;
#DIFFICULTY:Beginner;
#METER:3;
#RADARVALUES:0.184882,0.250649,0.038748,0.061996,0.000000,167.000000,162.000000,5.000000,8.000000,0.000000,0.000000,0.000000,0.000000,0.000000,0.184882,0.250649,0.038748,0.061996,0.000000,167.000000,162.000000,5.000000,8.000000,0.000000,0.000000,0.000000,0.000000,0.000000;
#CREDIT:Kingly;
#NOTES:
// measure 0
0000
0000
0000
0000
,  // measure 1
0000
0000
0000
0000
,  // measure 2
0000
0000
0000
0000
,  // measure 3
0000
0000
0000
0000
,  // measure 4
0000
0000
0000
0000
,  // measure 5
0000
0000
0000
0000
,  // measure 6
1000
0000
1000
0000
,  // measure 7
0001
0000
0001
0000
,  // measure 8
0010
0000
0010
0000
,  // measure 9
0100
0000
0000
0000
,  // measure 10
2002
0000
0000
0000
,  // measure 11
0000
0000
0000
0000
,  // measure 12
0000
0000
0000
0000
,  // measure 13
3003
0000
0000
0000
,  // measure 14
1000
0000
1000
0000
,  // measure 15
0001
0000
0010
0000
,  // measure 16
0100
0000
0100
0000
,  // measure 17
1000
0000
0010
0000
,  // measure 18
0100
0000
0100
0000
,  // measure 19
0001
0000
1000
0000
,  // measure 20
0100
0000
0100
0000
,  // measure 21
0000
0010
0002
0000
,  // measure 22
1003
0000
1000
0000
,  // measure 23
0010
0000
0010
0000
,  // measure 24
0100
0000
0100
0000
,  // measure 25
0001
0000
0001
0000
,  // measure 26
1000
0000
0100
0000
,  // measure 27
0010
0000
0001
0000
,  // measure 28
1000
0100
0010
0001
,  // measure 29
2000
0000
0000
0000
,  // measure 30
3001
0100
0001
0000
,  // measure 31
1000
0100
1000
0000
,  // measure 32
0001
0010
0001
0000
,  // measure 33
1000
0010
1000
0000
,  // measure 34
0100
0010
0100
0000
,  // measure 35
1000
0001
1000
0000
,  // measure 36
0001
0100
0001
0000
,  // measure 37
1000
0100
0010
0001
,  // measure 38
1000
0100
0010
0000
,  // measure 39
0001
0100
0010
0000
,  // measure 40
1000
0001
0010
0000
,  // measure 41
0001
1000
0010
0000
,  // measure 42
0100
0001
1000
0000
,  // measure 43
0100
1000
0001
0000
,  // measure 44
0100
0001
0010
0000
,  // measure 45
0220
0000
0000
0330
,  // measure 46
1000
0000
0001
0000
,  // measure 47
0010
0100
0010
0000
,  // measure 48
0001
0000
1000
0000
,  // measure 49
0010
0100
0010
0000
,  // measure 50
1000
0000
1000
0000
,  // measure 51
0001
0000
0001
0000
,  // measure 52
1000
0010
0100
0001
,  // measure 53
1001
0000
0000
0000
,  // measure 54
0001
0001
1000
1001
,  // measure 55
0001
0000
0010
0100
,  // measure 56
1000
0000
0001
0100
,  // measure 57
0001
0000
1000
0100
,  // measure 58
0010
0000
0001
0100
,  // measure 59
0010
0000
1000
0001
,  // measure 60
1000
0000
0100
0010
,  // measure 61
0001
0000
1000
0010
,  // measure 62
1000
0001
1000
0001
,  // measure 63
0010
0000
0100
1000
,  // measure 64
0100
0000
0010
0001
,  // measure 65
0010
0000
0001
0100
,  // measure 66
0001
0000
1000
0100
,  // measure 67
1000
0001
0100
0000
,  // measure 68
0010
0000
1000
0001
,  // measure 69
1000
0000
0100
0010
,  // measure 70
0001
1000
0001
1000
,  // measure 71
2002
0000
0000
0000
0000
0000
0000
3003
;
