#TITLE:neoMAX;
#SUBTITLE:;
#ARTIST:DM Ashura;
#TITLETRANSLIT:;
#SUBTITLETRANSLIT:;
#ARTISTTRANSLIT:;
#GENRE:DDREI TournaMix 4;
#CREDIT:;
#BANNER:neoMAX BN.png;
#BACKGROUND:neoMAX BG.png;
#LYRICSPATH:;
#CDTITLE:;
#MUSIC:neoMAX.mp3;
#OFFSET:-0.060000;
#SAMPLESTART:93.241997;
#SAMPLELENGTH:14.980000;
#LASTBEATHINT:667.999939;
#SELECTABLE:YES;
#BPMS:0.000000=340.000000
,368.000000=680.000000
,376.000000=510.000000
,380.000000=340.002014
,381.000000=255.003006
,382.000000=170.003006
,382.250000=127.503006
,382.500000=85.002998
,397.500000=110.002998
,398.000000=127.503006
,398.500000=155.003006
,399.000000=170.003006
,432.000000=208.003006
,436.000000=260.002991
,440.000000=320.002014
,444.000000=340.002014
,636.250000=290.002991
,636.500000=255.003006
,636.750000=210.003006
,637.000000=170.003006
,637.250000=140.003006
,637.500000=120.003006
,637.750000=100.002998
,638.000000=85.001999
,639.000000=110.001999
,639.250000=130.001999
,639.500000=150.001999
,639.750000=170.001999
,640.000000=190.001999
,640.250000=210.001999
,640.500000=230.001999
,640.750000=250.001999
,644.000000=340.001007
;
#STOPS:382.500000=0.680000
;
#BGCHANGES:;
#KEYSOUNDS:;
#ATTACKS:;

//---------------dance-single - ----------------
#NOTES:
     dance-single:
     :
     Hard:
     15:
     0.675613,1.320319,0.373743,0.237183,0.179684,658.000000,606.000000,52.000000,33.000000,0.000000,0.000000,0.675613,1.320319,0.373743,0.237183,0.179684,658.000000,606.000000,52.000000,33.000000,0.000000,0.000000:
// measure 0
0000
0000
0000
0000
,  // measure 1
0000
0000
0000
0000
,  // measure 2
0000
0000
0000
0000
,  // measure 3
0000
0000
0000
0000
,  // measure 4
0011
0000
0000
1100
0000
0000
1000
0001
,  // measure 5
0000
0001
1000
0000
1000
0000
0100
0000
,  // measure 6
1100
0000
0000
0011
0000
0000
0100
0000
,  // measure 7
1001
0000
0000
0010
0000
0010
0100
0010
,  // measure 8
0100
0000
0000
0110
0000
0000
1000
0000
,  // measure 9
0000
1100
0000
0000
1001
0000
0010
0000
,  // measure 10
1100
0000
0000
0101
0000
0000
0000
0001
,  // measure 11
1000
0001
0000
0101
0000
0000
0010
0000
,  // measure 12
1001
0000
0000
0100
0000
0000
0001
0000
,  // measure 13
1000
0100
1000
0001
,  // measure 14
0100
0001
1000
0100
,  // measure 15
1000
0000
0100
0010
0100
0000
0010
0000
,  // measure 16
0001
0000
0000
1001
0000
0000
1001
0000
,  // measure 17
1000
0100
1000
0100
1000
0100
1000
0000
,  // measure 18
0001
0010
0001
0010
0001
0010
0001
0000
,  // measure 19
1000
0100
0010
0001
0100
0010
0100
0000
,  // measure 20
0001
0000
1000
0000
0100
0010
0000
0010
,  // measure 21
0100
0000
0100
0000
0010
0001
0000
0001
,  // measure 22
0010
0000
0010
0000
0100
1000
0000
1000
,  // measure 23
0100
1100
0011
0000
,  // measure 24
1000
0000
0001
0000
0100
0010
0000
0010
,  // measure 25
0100
0000
0001
0000
0010
0100
0000
0100
,  // measure 26
0010
0000
0100
0000
1000
0100
0000
0010
,  // measure 27
0001
0000
1000
0001
1000
0001
1000
0001
,  // measure 28
1000
0000
0100
0000
0000
0100
0000
1000
,  // measure 29
0100
0000
0010
0000
0000
0010
0000
0001
,  // measure 30
0010
0000
0100
0000
0000
1000
0100
0010
,  // measure 31
0001
0010
0100
1100
,  // measure 32
1000
0000
0001
0000
0000
0100
0000
0001
,  // measure 33
0100
0000
0010
0000
0000
1000
0000
0010
,  // measure 34
1000
0000
0010
0000
1000
0100
0000
0010
,  // measure 35
0001
1000
0100
0011
,  // measure 36
0001
0000
0010
0000
0000
0010
0100
0010
,  // measure 37
0100
0000
1000
0000
0000
0100
0010
0100
,  // measure 38
0010
0000
0001
0000
0000
0010
0100
0010
,  // measure 39
0100
1000
0001
1000
,  // measure 40
0001
0000
1000
0000
0010
0100
0000
0100
,  // measure 41
0010
0000
1000
0000
0100
0010
0000
0010
,  // measure 42
0100
0000
0010
0000
0001
0010
0000
0100
,  // measure 43
1000
0001
1000
0100
,  // measure 44
0020
0000
0000
0100
,  // measure 45
0000
0000
0001
0000
,  // measure 46
0032
0000
1000
2003
,  // measure 47
0000
0100
3200
0000
,  // measure 48
2300
0000
0001
0001
,  // measure 49
0000
0001
0001
0000
,  // measure 50
3200
0000
0010
0320
,  // measure 51
0000
0000
0130
0000
,  // measure 52
2001
0000
0000
0100
,  // measure 53
0000
0000
0001
0000
,  // measure 54
3020
0000
0000
0230
,  // measure 55
0000
0001
0302
0000
,  // measure 56
0013
0100
0010
0100
,  // measure 57
1000
0100
1000
0100
,  // measure 58
0010
0001
0010
0001
0010
0001
0010
0000
,  // measure 59
0100
1000
0100
1000
0100
1000
0100
0000
,  // measure 60
1000
0001
1000
0000
,  // measure 61
0000
1100
0000
0011
,  // measure 62
0000
1000
0100
1000
,  // measure 63
0020
0000
0130
0000
,  // measure 64
0001
1000
0001
0000
1000
0000
0000
0000
,  // measure 65
0000
0101
0000
1010
,  // measure 66
0000
1000
0010
0100
,  // measure 67
0020
0000
0130
0000
,  // measure 68
0010
1000
0010
0000
,  // measure 69
0000
1100
0000
0101
,  // measure 70
0000
0001
0010
0100
,  // measure 71
2000
0000
3100
0000
,  // measure 72
0010
0001
0010
0000
,  // measure 73
0000
0011
0000
1100
,  // measure 74
0000
1000
0100
0020
,  // measure 75
0001
0000
0031
0000
,  // measure 76
0010
0000
0000
0000
0001
0000
1000
0001
,  // measure 77
1000
0000
0000
0200
0000
0000
0301
0000
,  // measure 78
0010
0000
0000
2000
0000
0000
3001
0000
,  // measure 79
0000
0000
0000
0000
0000
0000
1000
0010
,  // measure 80
1000
0000
0000
0000
0000
0000
0001
1000
,  // measure 81
0001
0000
0000
0020
0000
0000
1030
0000
,  // measure 82
0100
0000
0000
0002
0000
0000
1003
0000
,  // measure 83
0000
0000
0000
0000
0001
0000
1000
0100
,  // measure 84
0010
0000
0000
0000
0110
0000
0100
0010
,  // measure 85
0001
0000
0000
1001
0000
0000
0100
0000
,  // measure 86
0101
0000
0000
1001
0000
0000
1100
0000
,  // measure 87
0000
0000
0000
0000
0000
0000
1000
0001
,  // measure 88
0100
0001
1000
0010
,  // measure 89
0001
0010
1000
0001
,  // measure 90
1000
0100
0010
0001
,  // measure 91
1000
0001
1000
0001
1000
0000
0000
0000
,  // measure 92
2002
0000
0000
0000
,  // measure 93
0000
0000
0000
0000
,  // measure 94
0000
0000
0000
0000
,  // measure 95
0000
0000
0000
0000
0000
0000
0000
0000
0000
0000
0000
0000
0000
0000
0000
0000
0000
0000
0000
0000
0000
3003
0000
0000
0010
0000
0000
0000
1000
0000
0100
0000
,  // measure 96
0010
0000
0000
0100
0000
0000
0010
0000
0001
0000
0000
1000
0000
0000
0100
0000
0000
0000
0010
0000
0001
0000
0100
0000
0010
0000
0000
0000
0000
0000
1000
0000
,  // measure 97
0001
0000
0000
0100
0000
0000
0010
0000
0200
0000
0000
0000
0000
0000
0000
0000
0300
0000
0000
0000
0001
0000
0010
0000
0100
0000
0000
0000
1000
0000
0100
0000
,  // measure 98
0001
0000
0000
0100
0000
0000
0010
0000
0001
0000
0000
0001
0000
0000
0001
0000
0000
0000
0010
0000
0100
0000
1000
0000
0001
0000
0000
0000
0000
0000
0100
0010
,  // measure 99
0100
0000
0000
0010
0000
0000
2000
0000
0002
0000
0000
0000
0000
0000
0000
0000
0000
0000
0000
0000
0000
0000
0000
0000
3003
0000
0000
0000
0000
0000
0000
0000
,  // measure 100
0010
0000
0000
0000
0001
0000
0100
0000
0010
0000
0000
0010
0000
0000
0010
0000
,  // measure 101
2000
0000
0000
0100
0000
0000
3002
0000
0103
0000
0000
0000
0000
0000
0001
1000
,  // measure 102
0001
0000
0000
0010
0000
0000
0010
0000
0100
0000
0000
1000
0000
0000
1000
0000
,  // measure 103
0100
0000
0000
0010
0000
0000
0010
0000
0000
0000
0000
0000
0000
0000
0000
0000
,  // measure 104
0010
0000
0000
0100
0000
0000
1000
0000
0010
0000
0000
0100
0000
0000
0001
0000
,  // measure 105
0010
0000
0000
0001
0000
0000
0010
0000
0100
0000
0000
1000
0000
0000
0100
0000
,  // measure 106
1000
0100
0010
0001
0010
0100
1000
0100
0010
0001
0010
0100
,  // measure 107
0020
0000
0000
0000
,  // measure 108
0001
0000
0000
0000
0000
1000
0000
0000
,  // measure 109
0000
0000
0000
0000
0000
0000
0000
0000
0100
0000
0000
0000
0000
0000
0000
0000
0000
0000
0000
0000
0000
0100
0000
0000
0000
0000
0000
0000
0000
0000
0000
0000
,  // measure 110
0000
0100
0000
0000
0000
0000
0000
0000
0000
0000
0000
0000
0000
0000
0000
0000
,  // measure 111
0031
0000
1000
0100
,  // measure 112
0010
0000
0000
0011
0000
0000
0100
0000
,  // measure 113
2000
0000
0000
0001
0000
0000
3001
0000
,  // measure 114
0000
0001
0100
0010
,  // measure 115
1000
0000
0000
0100
,  // measure 116
0010
0000
0000
1001
0000
0000
0100
0000
,  // measure 117
0010
0000
0000
0000
,  // measure 118
0000
0000
1000
0001
,  // measure 119
0010
0000
0100
1000
,  // measure 120
0010
0000
0000
0101
0000
0000
0010
0000
,  // measure 121
1000
0000
0000
0010
0000
0000
0100
0000
,  // measure 122
0001
0010
0100
0001
,  // measure 123
0100
0000
0000
0000
0000
0000
1000
0001
,  // measure 124
1000
0000
0000
0110
0000
0000
0001
0000
,  // measure 125
1000
0000
0000
0000
,  // measure 126
0000
0000
0010
0010
,  // measure 127
0001
0000
0010
0010
,  // measure 128
1000
0000
0000
0110
0000
0000
0002
0000
,  // measure 129
0103
0000
0000
0110
0000
0000
1001
0000
,  // measure 130
0000
0000
0000
0000
0000
0000
0001
0100
,  // measure 131
0010
0000
0000
1001
0000
0000
1000
0000
,  // measure 132
0100
0000
0000
0011
0000
0000
1000
0000
,  // measure 133
0100
0000
0000
0010
0000
0000
0001
0000
,  // measure 134
0000
0000
0000
0000
,  // measure 135
0101
0000
0000
1001
0000
0000
1100
0000
,  // measure 136
1001
0000
0000
0110
0000
0000
1010
0000
,  // measure 137
1001
0000
0000
0010
0000
0000
0001
0000
,  // measure 138
0100
0000
0000
0010
0000
0000
1001
0000
,  // measure 139
1000
0100
1000
0100
,  // measure 140
0010
0001
0010
0001
,  // measure 141
1000
0010
1000
0010
1000
0010
1000
0010
,  // measure 142
0100
0001
0100
0001
0100
0001
0100
0001
,  // measure 143
1000
0100
0000
0100
0010
0000
0100
0000
,  // measure 144
0010
0001
0000
0001
0010
0000
0100
0000
,  // measure 145
0100
1000
0000
1000
0100
0000
0100
0010
,  // measure 146
0001
0010
0000
0010
0100
0000
0010
0000
,  // measure 147
0001
1000
0000
1000
0001
1000
0010
0000
,  // measure 148
0010
0100
0000
0100
0001
0000
0001
0000
,  // measure 149
1000
0100
0000
0010
0001
0000
0001
0000
,  // measure 150
0010
0100
1000
0000
0001
0000
1000
0000
,  // measure 151
0001
0010
0000
0100
1000
0000
0001
0000
,  // measure 152
1000
0010
0100
0000
0001
0000
0001
0000
,  // measure 153
1000
0100
1000
0000
0010
0000
0100
0000
,  // measure 154
0001
0010
0001
0000
1000
0000
0001
0000
,  // measure 155
1000
0010
1000
0010
,  // measure 156
0100
0001
0100
0001
,  // measure 157
1000
0001
1000
0001
1000
0000
0010
0100
,  // measure 158
0010
0100
0010
0000
0100
0000
0010
0000
,  // measure 159
0220
0000
0000
0000
,  // measure 160
0000
0000
0000
0330
,  // measure 161
0001
0000
0010
0000
0100
0000
0000
0000
0000
0000
0000
0000
,  // measure 162
1000
0000
0100
0000
0010
0000
0000
0000
0000
0000
0000
0000
,  // measure 163
0001
0000
0100
0000
0010
0000
1000
0000
0010
0000
0100
0000
,  // measure 164
2002
0000
0000
0000
,  // measure 165
0000
0000
0000
0000
,  // measure 166
0000
0000
0000
0000
,  // measure 167
3003
0000
0000
0000
;

//---------------dance-single - ----------------
#NOTES:
     dance-single:
     :
     Medium:
     13:
     0.530838,1.140276,0.251558,0.179684,0.111404,517.000000,482.000000,35.000000,25.000000,0.000000,0.000000,0.530838,1.140276,0.251558,0.179684,0.111404,517.000000,482.000000,35.000000,25.000000,0.000000,0.000000:
// measure 0
0000
0000
0000
0000
,  // measure 1
0000
0000
0000
0000
,  // measure 2
0000
0000
0000
0000
,  // measure 3
0000
0000
0000
0000
,  // measure 4
1001
0000
0000
0100
0000
0000
0001
0000
,  // measure 5
0000
1000
0000
0000
0001
0000
0000
0000
,  // measure 6
1001
0000
0000
0100
0000
0000
0010
0000
,  // measure 7
0110
0000
0000
1000
0000
0000
0100
0000
,  // measure 8
0110
0000
0000
0010
0000
0000
0001
0000
,  // measure 9
0000
1000
0000
0000
0001
0000
0010
0000
,  // measure 10
0011
0000
0000
0001
0000
0000
0000
0010
,  // measure 11
0100
0000
0000
0110
0000
0000
0000
0000
,  // measure 12
1100
0000
0000
0100
0000
0000
0010
0000
,  // measure 13
0001
0010
0001
1000
,  // measure 14
0001
0000
0000
0001
0000
0000
0001
0000
,  // measure 15
1000
0100
1100
0000
,  // measure 16
0011
0000
0000
0001
0000
0000
1000
0000
,  // measure 17
0100
1000
0100
0000
1000
0100
1000
0000
,  // measure 18
0001
0010
0001
0000
0010
0001
0010
0000
,  // measure 19
0001
0000
0000
1000
0000
0000
0001
0000
,  // measure 20
1000
0000
0100
0000
0010
0000
0000
0010
,  // measure 21
0100
0000
1000
0000
0001
0010
0000
0000
,  // measure 22
0010
0000
0001
0000
1000
0010
0000
0000
,  // measure 23
0010
1000
1001
0000
,  // measure 24
0001
0000
0100
0000
0010
1000
0000
0000
,  // measure 25
0010
0000
1000
0000
0100
0010
0000
0000
,  // measure 26
0001
0000
1000
0000
0001
0010
0000
0100
,  // measure 27
1000
0001
1000
0001
,  // measure 28
1000
0000
0100
0000
0000
0100
0000
0000
,  // measure 29
0100
0000
0010
0000
0000
0010
0000
0000
,  // measure 30
0010
0000
0001
0000
0000
0001
0000
0000
,  // measure 31
1000
0001
0100
0010
,  // measure 32
1000
0000
0001
0000
0000
0001
0000
0000
,  // measure 33
0001
0000
1000
0000
0000
1000
0000
0000
,  // measure 34
1000
0000
0100
0000
0000
0010
0000
0000
,  // measure 35
0100
1000
0010
0100
,  // measure 36
0001
0000
1000
0000
0000
0010
0000
0000
,  // measure 37
1000
0000
0001
0000
0000
0010
0000
0010
,  // measure 38
0100
0000
1000
0000
0000
0100
0000
0100
,  // measure 39
0010
0001
1000
0001
,  // measure 40
1000
0000
0100
0000
0000
0100
0000
0000
,  // measure 41
0100
0000
0010
0000
0000
0010
0000
0000
,  // measure 42
0010
0000
0001
0000
0000
0001
0000
0000
,  // measure 43
0001
1000
0100
0000
,  // measure 44
0020
0000
0000
0000
,  // measure 45
0000
0000
0000
0000
,  // measure 46
0032
0000
0000
2003
,  // measure 47
0000
0000
3200
0000
,  // measure 48
2300
0000
0000
0000
,  // measure 49
0000
0000
0000
0000
,  // measure 50
3200
0000
0000
0320
,  // measure 51
0000
0000
0130
0000
,  // measure 52
2000
0000
0000
0000
,  // measure 53
0000
0000
0000
0000
,  // measure 54
3020
0000
0000
0230
,  // measure 55
0000
0000
0302
0000
,  // measure 56
1003
0100
1000
0100
,  // measure 57
0010
0001
0010
0001
,  // measure 58
1000
0100
1000
0100
1000
0000
0100
0000
,  // measure 59
0010
0001
0010
0001
0010
0000
0100
0000
,  // measure 60
1000
0001
1000
0000
,  // measure 61
0000
0001
0000
1100
,  // measure 62
0000
1000
0100
0020
,  // measure 63
0001
0000
0031
0000
,  // measure 64
0001
1000
0001
0000
,  // measure 65
0000
1000
0000
0101
,  // measure 66
0000
0001
0100
0020
,  // measure 67
1000
0000
1030
0000
,  // measure 68
1000
0001
1000
0000
,  // measure 69
0000
0001
0000
1010
,  // measure 70
0000
1000
0010
0200
,  // measure 71
0001
0000
0301
0000
,  // measure 72
0001
1000
0001
0000
,  // measure 73
0000
1000
0000
0011
,  // measure 74
0000
1000
0100
0020
,  // measure 75
0001
0000
0031
0000
,  // measure 76
0010
0000
0100
1000
,  // measure 77
0100
0000
0000
0010
0000
0000
0001
0000
,  // measure 78
1000
0000
0000
0001
0000
0000
0100
0000
,  // measure 79
0000
0000
0000
0001
,  // measure 80
0001
0000
0000
1000
,  // measure 81
1000
0000
0000
0010
0000
0000
0100
0000
,  // measure 82
0001
0000
0000
1000
0000
0000
0010
0000
,  // measure 83
0000
0000
0000
0000
0000
0000
1000
0001
,  // measure 84
1000
0000
0000
0001
,  // measure 85
0010
0000
0000
0010
0000
0000
0010
0000
,  // measure 86
0100
0000
0000
1100
0000
0000
1000
0000
,  // measure 87
0000
0000
0000
0000
0000
0000
1000
0001
,  // measure 88
1000
0001
0010
0001
,  // measure 89
1000
0001
0100
0001
,  // measure 90
1000
0100
0010
0001
,  // measure 91
1000
0001
1001
0000
,  // measure 92
0220
0000
0000
0000
,  // measure 93
0000
0000
0000
0000
,  // measure 94
0000
0000
0000
0000
,  // measure 95
0000
0000
0000
0000
0000
0000
0000
0000
0000
0000
0330
0000
1000
0000
0001
0010
,  // measure 96
0100
0000
0000
1000
1000
0000
0000
0001
0000
0100
0010
0100
0010
0000
0000
0001
,  // measure 97
0001
0000
0000
1000
0020
0000
0000
0000
0030
0000
1000
0010
0100
0000
0001
0100
,  // measure 98
0010
0000
0000
0100
0100
0000
0000
0001
0000
0010
0100
0010
0100
0000
0000
0010
,  // measure 99
0010
0100
2002
0000
0000
0000
3003
0000
,  // measure 100
0010
0000
0000
0000
1000
0000
0100
0000
0010
0000
0000
0001
0000
0000
0100
0000
,  // measure 101
0010
0000
0000
1001
0000
0000
0100
0000
0000
0000
0000
0000
0000
0000
0000
0000
,  // measure 102
0001
0000
0000
0001
0000
0000
0001
0000
1000
0000
0000
1000
0000
0000
1000
0000
,  // measure 103
0100
0000
0000
0100
0000
0000
0010
0000
0000
0000
0000
0000
0000
0000
0000
0000
,  // measure 104
0011
0000
0000
0100
0000
0000
0000
0000
1100
0000
0000
0010
0000
0000
0000
0000
,  // measure 105
0101
0000
0000
0010
0000
0000
0000
0000
1010
0000
0000
0100
0000
0000
0000
0000
,  // measure 106
0001
0000
0010
0000
0100
0000
1000
0000
0100
0000
0001
0000
,  // measure 107
0020
0000
0000
0000
,  // measure 108
0000
0000
0000
0000
,  // measure 109
0000
0000
0000
0000
,  // measure 110
0000
0000
0000
0000
,  // measure 111
0130
0000
0001
1000
,  // measure 112
0001
0000
0000
0100
0000
0000
0001
0000
,  // measure 113
1000
0000
0000
1000
0000
0000
1000
0000
,  // measure 114
0000
0010
0100
0010
,  // measure 115
0100
0000
0000
0100
,  // measure 116
0010
0000
0000
1001
0000
0000
0010
0000
,  // measure 117
0100
0000
0000
0000
,  // measure 118
0000
0000
1000
0100
,  // measure 119
0010
0000
0001
0100
,  // measure 120
0010
0000
0000
0010
0000
0000
0010
0000
,  // measure 121
0100
0000
0000
0100
0000
0000
0100
0000
,  // measure 122
0000
0001
0010
0100
,  // measure 123
1000
0000
0000
0001
,  // measure 124
0001
0000
0000
0110
0000
0000
1000
0000
,  // measure 125
0001
0000
0000
0000
,  // measure 126
0000
0000
1000
0100
,  // measure 127
0010
0000
0001
1000
,  // measure 128
0010
0000
0000
0100
0000
0000
0001
0000
,  // measure 129
1000
0000
0000
0001
0000
0000
1000
0000
,  // measure 130
0000
0000
0000
0100
,  // measure 131
0010
0000
0000
1001
0000
0000
0010
0000
,  // measure 132
0100
0000
0000
1000
0000
0000
0100
0000
,  // measure 133
0010
0000
0000
0010
0000
0000
0010
0000
,  // measure 134
0000
0000
0000
0000
,  // measure 135
0001
0000
0000
0011
0000
0000
0010
0000
,  // measure 136
0100
0000
0000
0110
0000
0000
0010
0000
,  // measure 137
0100
0000
0000
1100
0000
0000
1000
0000
,  // measure 138
0100
0000
0000
1100
0000
0000
1000
0000
,  // measure 139
0100
0000
0000
0011
0000
0000
0001
0000
,  // measure 140
0010
0000
0000
1100
0000
0000
1001
0000
,  // measure 141
0001
0100
0001
0100
,  // measure 142
0010
1000
0010
1000
,  // measure 143
0001
0000
0000
0001
0010
0000
0010
0000
,  // measure 144
0100
0000
0000
0100
1000
0000
1000
0000
,  // measure 145
0100
0000
0000
0100
0010
0000
0010
0000
,  // measure 146
0001
0000
0000
0001
0100
0000
0100
0000
,  // measure 147
0010
0000
0000
0010
0100
0000
0100
0000
,  // measure 148
0001
0000
0000
0001
1000
0000
1000
0000
,  // measure 149
0100
0000
0000
0100
0010
0000
0010
0000
,  // measure 150
0100
0000
0000
0100
1000
0000
1000
0000
,  // measure 151
0100
0000
0000
0100
1000
0000
1000
0000
,  // measure 152
0001
0000
0000
0001
0010
0000
0100
0000
,  // measure 153
0010
0000
0000
0010
0100
0000
0100
0000
,  // measure 154
0010
0000
0000
0010
0001
0000
0001
0000
,  // measure 155
1000
0100
1000
0100
,  // measure 156
0010
0001
0010
0001
,  // measure 157
1000
0001
1000
0000
0001
0000
0100
0010
,  // measure 158
0100
0010
0100
0010
,  // measure 159
0220
0000
0000
0000
,  // measure 160
0000
0000
0000
0330
,  // measure 161
0001
0000
0000
0000
0001
0000
0000
0000
0000
0000
0000
0000
,  // measure 162
1000
0000
0000
0000
1000
0000
0000
0000
0000
0000
0000
0000
,  // measure 163
0010
0000
0010
0000
0000
0000
0100
0000
0100
0000
0000
0000
,  // measure 164
2002
0000
0000
0000
,  // measure 165
0000
0000
0000
0000
,  // measure 166
0000
0000
0000
0000
,  // measure 167
3003
0000
0000
0000
;

//---------------dance-single - ----------------
#NOTES:
     dance-single:
     :
     Easy:
     9:
     0.387091,0.600145,0.258745,0.201246,0.000000,377.000000,341.000000,36.000000,28.000000,0.000000,0.000000,0.387091,0.600145,0.258745,0.201246,0.000000,377.000000,341.000000,36.000000,28.000000,0.000000,0.000000:
// measure 0
0000
0000
0000
0000
,  // measure 1
0000
0000
0000
0000
,  // measure 2
0000
0000
0000
0000
,  // measure 3
0000
0000
0000
0000
,  // measure 4
1000
0000
0000
0100
0000
0000
0010
0000
,  // measure 5
0000
0100
0000
0000
1000
0000
0000
0000
,  // measure 6
0001
0000
0000
0100
0000
0000
0010
0000
,  // measure 7
0100
0000
0000
0001
0000
0000
0100
0000
,  // measure 8
0010
0000
0000
1001
0000
0000
0000
0000
,  // measure 9
0000
0000
0000
0000
,  // measure 10
1000
0000
0000
1000
0000
0000
0000
0000
,  // measure 11
0001
0000
0000
0001
0000
0000
0000
0000
,  // measure 12
0001
0000
0000
1010
0000
0000
0000
0000
,  // measure 13
1000
0000
0001
0000
,  // measure 14
1000
0001
1000
0000
,  // measure 15
0001
1000
0001
0000
,  // measure 16
0010
0000
0000
0110
0000
0000
0000
0000
,  // measure 17
0010
0001
0010
0000
,  // measure 18
0001
0000
0000
0001
0000
0000
0001
0000
,  // measure 19
1000
0000
0000
1000
0000
0000
0000
0000
,  // measure 20
0001
0100
0010
0000
,  // measure 21
0100
0010
1000
0000
,  // measure 22
0001
1000
0001
0010
,  // measure 23
0100
1000
1100
0000
,  // measure 24
1000
0100
0010
0000
,  // measure 25
0100
0010
0100
0000
,  // measure 26
1000
0001
1000
0100
,  // measure 27
0010
0001
0011
0000
,  // measure 28
1000
0000
1000
0000
,  // measure 29
0001
0000
0001
0000
,  // measure 30
0100
0000
0100
0000
,  // measure 31
0010
0000
0010
0000
,  // measure 32
1000
0100
1000
0100
,  // measure 33
0010
0001
0010
0001
,  // measure 34
1000
0100
0010
0001
,  // measure 35
0100
0010
1000
0001
,  // measure 36
0100
0000
0100
0000
,  // measure 37
0010
0000
0010
0000
,  // measure 38
1000
0000
1000
0000
,  // measure 39
0001
0000
0001
0000
,  // measure 40
0010
0001
0010
0001
,  // measure 41
1000
0100
1000
0100
,  // measure 42
1000
0100
0010
0001
,  // measure 43
0100
0010
0100
0000
,  // measure 44
0200
0000
0000
0000
,  // measure 45
0000
0000
0000
0000
,  // measure 46
0302
0000
0000
0023
,  // measure 47
0000
0000
0230
0000
,  // measure 48
2300
0000
0000
0000
,  // measure 49
0000
0000
0000
0000
,  // measure 50
3002
0000
0000
0023
,  // measure 51
0000
0000
0032
0000
,  // measure 52
2003
0000
0000
0000
,  // measure 53
0000
0000
0000
0000
,  // measure 54
3020
0000
0000
0230
,  // measure 55
0000
0000
0302
0000
,  // measure 56
1003
0000
1000
0000
,  // measure 57
0001
0000
0001
0010
,  // measure 58
1000
0001
1000
0001
,  // measure 59
0100
0010
0110
0000
,  // measure 60
1000
0000
0001
0000
,  // measure 61
0000
0100
0000
0100
,  // measure 62
0000
0001
0010
0000
,  // measure 63
0020
0000
0130
0000
,  // measure 64
0001
0000
1000
0000
,  // measure 65
0000
0010
0000
0010
,  // measure 66
0000
0100
0001
0000
,  // measure 67
0020
0000
0130
0000
,  // measure 68
1000
0000
0001
0000
,  // measure 69
0000
1000
0000
1000
,  // measure 70
0000
0001
0100
0000
,  // measure 71
0020
0000
0130
0000
,  // measure 72
0001
0000
1000
0000
,  // measure 73
0000
0001
0000
0001
,  // measure 74
0000
1000
0100
0000
,  // measure 75
0020
0000
0130
0000
,  // measure 76
0010
0000
0000
0001
,  // measure 77
1000
0000
0000
0001
,  // measure 78
0010
0000
0000
0110
,  // measure 79
0000
0000
0000
0000
,  // measure 80
1001
0000
0000
0000
,  // measure 81
0100
0000
0000
0010
,  // measure 82
0001
0000
0000
0110
,  // measure 83
0000
0000
0000
0000
,  // measure 84
1001
0000
0000
0000
,  // measure 85
0010
0000
0000
0100
,  // measure 86
1000
0000
0000
1001
,  // measure 87
0000
0000
0000
0000
,  // measure 88
1001
0000
0000
0000
,  // measure 89
0010
0000
0100
0000
,  // measure 90
0010
0000
0100
0000
,  // measure 91
0010
0000
0100
0000
,  // measure 92
2002
0000
0000
0000
,  // measure 93
0000
0000
0000
0000
,  // measure 94
0000
0000
0000
0000
,  // measure 95
0000
0000
0000
0000
0000
3003
0100
0000
,  // measure 96
0010
0001
0000
1001
,  // measure 97
0010
0100
0000
1000
,  // measure 98
1000
0001
0000
0100
,  // measure 99
0010
2002
0000
3003
,  // measure 100
0100
1001
0010
1001
,  // measure 101
0100
0000
0000
0100
0000
0000
0000
0000
,  // measure 102
0010
1001
0100
1001
,  // measure 103
0010
0000
0000
0010
0000
0000
0000
0000
,  // measure 104
1001
0000
1001
0000
,  // measure 105
0110
0000
0110
0000
,  // measure 106
0001
0010
0100
1000
,  // measure 107
0020
0000
0000
0000
,  // measure 108
0000
0000
0000
0000
,  // measure 109
0000
0000
0000
0000
,  // measure 110
0000
0000
0000
0000
,  // measure 111
0130
0000
0000
0001
,  // measure 112
1000
0000
0000
0000
,  // measure 113
0010
0000
0000
1001
,  // measure 114
0000
0000
0100
0000
,  // measure 115
1000
0000
0000
0000
,  // measure 116
0101
0000
0010
0000
,  // measure 117
1001
0000
0000
0000
,  // measure 118
0000
0000
1000
0000
,  // measure 119
0001
0000
0100
0000
,  // measure 120
0001
0000
0100
0000
,  // measure 121
0010
0000
0000
1001
,  // measure 122
0000
1000
0010
0100
,  // measure 123
0001
0000
0000
0000
,  // measure 124
1000
0000
0000
0001
0000
0000
1000
0000
,  // measure 125
0001
0000
0000
0000
,  // measure 126
0000
0000
1000
0100
,  // measure 127
0010
0000
0001
0010
,  // measure 128
0100
0000
0000
0000
,  // measure 129
0110
0000
0000
1001
,  // measure 130
0000
0000
0000
0000
,  // measure 131
0001
0000
0000
0001
0000
0000
0000
0000
,  // measure 132
1000
0000
0000
1000
0000
0000
0000
0000
,  // measure 133
0010
0000
0000
0010
0000
0000
0010
0000
,  // measure 134
0000
0000
0000
0000
,  // measure 135
0001
0000
1001
0000
,  // measure 136
1000
0000
1001
0000
,  // measure 137
0010
0000
0110
0000
,  // measure 138
0100
0000
0110
0000
,  // measure 139
0001
0100
0001
0100
,  // measure 140
0010
1000
0010
1000
,  // measure 141
0001
1000
0001
1000
,  // measure 142
0001
0000
1001
0000
,  // measure 143
0010
0000
0000
0010
0100
0000
0000
0000
,  // measure 144
0100
0000
0000
0100
1000
0000
0000
0000
,  // measure 145
1000
0000
0000
1000
0001
0000
0000
0000
,  // measure 146
0001
0000
0000
0001
0100
0000
0000
0000
,  // measure 147
0100
0000
0000
0100
0010
0000
0000
0000
,  // measure 148
0010
0000
0000
0010
0100
0000
0000
0000
,  // measure 149
0100
0000
0000
0100
0001
0000
0000
0000
,  // measure 150
0001
0000
0000
0001
1000
0000
0000
0000
,  // measure 151
1000
0000
0000
1000
0100
0000
0000
0000
,  // measure 152
0100
0000
0000
0100
0010
0000
0000
0000
,  // measure 153
0010
0000
0000
0010
0001
0000
0000
0000
,  // measure 154
0001
0000
0000
0001
1000
0000
0000
0000
,  // measure 155
0001
1000
0001
1000
,  // measure 156
0010
0100
0010
0100
,  // measure 157
0001
1000
0001
1000
,  // measure 158
0010
0000
1001
0000
,  // measure 159
0200
0000
0000
0000
,  // measure 160
0000
0000
0000
0300
,  // measure 161
0002
0000
0000
0000
0003
0000
0000
0000
0000
0000
0000
0000
,  // measure 162
2000
0000
0000
0000
3000
0000
0000
0000
0000
0000
0000
0000
,  // measure 163
0020
0000
0000
0000
0030
0000
0200
0000
0000
0000
0300
0000
,  // measure 164
2002
0000
0000
0000
,  // measure 165
0000
0000
0000
0000
,  // measure 166
0000
0000
0000
0000
,  // measure 167
3003
0000
0000
0000
;

//---------------dance-single - ----------------
#NOTES:
     dance-single:
     :
     Beginner:
     5:
     0.231023,0.412555,0.150935,0.079061,0.000000,225.000000,204.000000,21.000000,11.000000,0.000000,0.000000,0.231023,0.412555,0.150935,0.079061,0.000000,225.000000,204.000000,21.000000,11.000000,0.000000,0.000000:
// measure 0
0000
0000
0000
0000
,  // measure 1
0000
0000
0000
0000
,  // measure 2
0000
0000
0000
0000
,  // measure 3
0000
0000
0000
0000
,  // measure 4
0100
0000
0000
0000
,  // measure 5
0000
0000
0000
0000
,  // measure 6
0010
0000
0000
0000
,  // measure 7
0100
0000
0000
0000
,  // measure 8
1001
0000
0000
0000
,  // measure 9
0000
0000
0000
0000
,  // measure 10
0010
0000
0000
0000
,  // measure 11
0100
0000
0000
0000
,  // measure 12
1001
0000
0000
0000
,  // measure 13
1000
0000
0100
0000
,  // measure 14
1000
0000
0100
0000
,  // measure 15
0010
0000
0001
0000
,  // measure 16
0010
0000
0001
0000
,  // measure 17
1000
0000
0001
0000
,  // measure 18
1000
0000
0001
0000
,  // measure 19
2002
0000
3003
0000
,  // measure 20
0001
0000
0000
0000
,  // measure 21
0001
0000
0000
0000
,  // measure 22
0001
0000
0000
0000
,  // measure 23
0000
0000
0000
0000
,  // measure 24
1000
0000
0000
0000
,  // measure 25
1000
0000
0000
0000
,  // measure 26
2000
0000
0002
0000
,  // measure 27
0000
0000
3003
0000
,  // measure 28
1000
0000
0000
0000
,  // measure 29
1000
0000
0000
0000
,  // measure 30
1000
0000
0000
0000
,  // measure 31
0100
0000
0110
0000
,  // measure 32
0001
0000
0000
0000
,  // measure 33
0001
0000
0000
0000
,  // measure 34
0001
0000
0000
0000
,  // measure 35
0010
0000
0110
0000
,  // measure 36
1000
0000
0000
0000
,  // measure 37
1000
0000
0000
0000
,  // measure 38
1000
0000
0000
0000
,  // measure 39
0010
0000
0110
0000
,  // measure 40
0001
0000
0000
0000
,  // measure 41
0001
0000
0000
0000
,  // measure 42
0001
0000
0000
0000
,  // measure 43
0100
0000
0110
0000
,  // measure 44
0200
0000
0000
0000
,  // measure 45
0000
0000
0000
0300
,  // measure 46
0001
0000
0000
1000
,  // measure 47
0000
0000
0100
0000
,  // measure 48
0020
0000
0000
0000
,  // measure 49
0000
0000
0000
0030
,  // measure 50
0100
0000
0000
1000
,  // measure 51
0000
0000
0001
0000
,  // measure 52
0200
0000
0000
0000
,  // measure 53
0000
0000
0000
0300
,  // measure 54
0001
0000
0000
0100
,  // measure 55
0000
0000
0010
0000
,  // measure 56
0100
0000
0100
0000
,  // measure 57
0010
0000
0010
0000
,  // measure 58
1000
0001
1000
0001
,  // measure 59
1000
0000
0001
0000
,  // measure 60
1000
0000
0000
0000
,  // measure 61
0000
0001
0000
1000
,  // measure 62
0000
0020
0000
0000
,  // measure 63
0000
0000
0130
0000
,  // measure 64
0001
0000
0000
0000
,  // measure 65
0000
1000
0000
0001
,  // measure 66
0000
0200
0000
0000
,  // measure 67
0000
0000
0310
0000
,  // measure 68
1000
0000
0000
0000
,  // measure 69
0000
0001
0000
1000
,  // measure 70
0000
0200
0000
0000
,  // measure 71
0000
0000
0310
0000
,  // measure 72
0001
0000
0000
0000
,  // measure 73
0000
1000
0000
0001
,  // measure 74
0000
0020
0000
0000
,  // measure 75
0000
0000
0130
0000
,  // measure 76
0010
0000
0000
0000
,  // measure 77
0100
0000
0000
0000
,  // measure 78
1000
0000
0000
0001
,  // measure 79
0000
0000
0000
0000
,  // measure 80
0010
0000
0000
0000
,  // measure 81
0100
0000
0000
0000
,  // measure 82
0010
0000
0000
0001
,  // measure 83
0000
0000
0000
0000
,  // measure 84
1001
0000
0000
0000
,  // measure 85
0100
0000
0000
0000
,  // measure 86
0010
0000
0000
0100
,  // measure 87
0000
0000
0000
0000
,  // measure 88
0010
0000
0000
0000
,  // measure 89
0010
0000
0000
0000
,  // measure 90
0100
0000
0000
0000
,  // measure 91
0100
0000
0000
0000
,  // measure 92
1001
0000
0000
0000
,  // measure 93
0000
0000
0000
0000
,  // measure 94
0000
0000
0000
0000
,  // measure 95
0000
0000
0000
0001
,  // measure 96
0000
1000
0000
0010
,  // measure 97
0000
0100
0000
0001
,  // measure 98
0001
0000
0000
1000
,  // measure 99
1000
1001
0000
0000
,  // measure 100
0001
0000
0001
0000
,  // measure 101
0100
0000
1000
0000
,  // measure 102
0010
0000
0010
0000
,  // measure 103
1000
0000
0100
0000
,  // measure 104
0001
0000
0001
0000
,  // measure 105
1000
0000
1000
0000
,  // measure 106
1000
0100
0010
0001
,  // measure 107
0010
0000
0000
0000
,  // measure 108
0000
0000
0000
0000
,  // measure 109
0000
0000
0000
0000
,  // measure 110
0000
0000
0000
0000
,  // measure 111
0100
0000
0000
0000
,  // measure 112
0100
0000
0000
0000
,  // measure 113
1000
0000
0000
0000
,  // measure 114
0000
0000
0000
0000
,  // measure 115
0001
0000
0000
0000
,  // measure 116
1000
0000
0000
0000
,  // measure 117
0001
0000
0000
0000
,  // measure 118
0000
0000
0000
0000
,  // measure 119
0110
0000
0000
0000
,  // measure 120
1001
0000
0000
0000
,  // measure 121
0001
0000
0000
0010
,  // measure 122
0000
0000
0000
0000
,  // measure 123
0100
0000
0000
0000
,  // measure 124
1000
0000
0001
0000
,  // measure 125
1000
0000
0000
0000
,  // measure 126
0000
0000
0000
0000
,  // measure 127
0001
0000
0000
0000
,  // measure 128
1000
0000
0000
0000
,  // measure 129
0100
0000
0010
0000
,  // measure 130
0001
0000
0000
0000
,  // measure 131
1000
0000
0000
0000
,  // measure 132
0001
0000
0000
0000
,  // measure 133
0100
0000
0010
0000
,  // measure 134
1000
0000
0000
0000
,  // measure 135
0001
0000
0001
0000
,  // measure 136
1000
0000
1000
0000
,  // measure 137
0010
0000
0010
0000
,  // measure 138
0100
0000
0100
0000
,  // measure 139
0001
0000
0010
0000
,  // measure 140
0100
0000
1000
0000
,  // measure 141
0100
0000
0010
0000
,  // measure 142
0001
0000
1001
0000
,  // measure 143
0010
0000
0000
0000
,  // measure 144
0100
0000
1001
0000
,  // measure 145
0100
0000
0000
0000
,  // measure 146
0010
0000
1001
0000
,  // measure 147
0010
0000
0000
0000
,  // measure 148
1000
0000
0110
0000
,  // measure 149
0001
0000
0000
0000
,  // measure 150
0001
0000
0110
0000
,  // measure 151
1000
0000
0000
0000
,  // measure 152
0100
0000
1001
0000
,  // measure 153
0010
0000
0000
0000
,  // measure 154
0010
0000
1001
0000
,  // measure 155
0100
0000
0100
0000
,  // measure 156
0010
0000
0010
0000
,  // measure 157
0001
0000
1000
0000
,  // measure 158
0001
0000
1000
0000
,  // measure 159
1001
0000
0000
0000
,  // measure 160
0000
0000
0000
0000
,  // measure 161
0001
0000
0000
0000
,  // measure 162
1000
0000
0000
0000
,  // measure 163
0010
0000
0100
0000
,  // measure 164
1001
0000
0000
0000
;
