#TITLE:interlinked;
#SUBTITLE:;
#ARTIST:kiraku;
#TITLETRANSLIT:;
#SUBTITLETRANSLIT:;
#ARTISTTRANSLIT:;
#GENRE:;
#CREDIT:;
#MUSIC:interlinked.ogg;
#BANNER:;
#BACKGROUND:;
#CDTITLE:;
#SAMPLESTART:99.431;
#SAMPLELENGTH:15.469;
#SELECTABLE:YES;
#OFFSET:-0.052;
#BPMS:0.000=128.000;
#STOPS:70.000=0.469
,103.000=0.234
,118.500=0.234
,212.000=0.469
;
#BGCHANGES:;
#FGCHANGES:;

//--------------- dance-single - kaya ----------------
#NOTES:
     dance-single:
     kaya:
     Easy:
     5:
     0,0,0,0,0:
0000
0000
0000
0000
,
0000
0000
0000
0000
,
0000
0000
0000
0000
,
0000
0000
0000
0000
,
0000
0000
0000
0000
,
0000
0000
0000
0000
,
0000
1000
0000
1000
,
0000
0001
0000
0001
,
0000
0010
0000
0010
,
0000
0100
0000
1001
,
1000
0000
0010
0100
,
0000
0000
0001
1000
,
0001
0000
0000
0100
,
0000
0010
0000
0000
0000
0000
0000
0000
,
1000
1000
1000
0000
,
0001
0001
0001
0000
,
0010
0010
0010
0000
,
0100
0100
0100
0000
,
1000
0100
0001
0100
,
1000
0100
0001
0010
,
1000
0010
0001
0010
,
1000
0000
0001
1000
0001
0000
0100
0000
,
0010
1000
0010
0100
,
0010
1000
0010
0100
,
0001
1000
0001
0100
,
0001
0000
1000
0100
1000
0000
0001
0000
,
0000
1000
0000
0100
0000
1000
0000
0010
,
0000
1000
0000
0100
0000
0010
0000
0001
,
0000
0100
0000
0001
0000
0010
0000
0001
,
0000
1000
0001
1000
0000
0001
0000
0000
,
0100
0010
0100
0001
,
0100
0010
1000
0010
,
0100
0010
1000
0001
,
1001
0000
1000
1000
,
1000
0000
0001
0001
,
0001
0000
0100
0100
,
0100
0000
0010
0010
,
0010
0000
1000
1000
,
1000
0000
0001
0001
,
0001
0000
0010
0010
,
0010
0000
0100
0100
,
0110
0000
1000
0010
,
1000
0100
1000
0000
0001
0000
0010
0000
,
0001
0100
0001
0000
1000
0000
0001
0000
,
0100
0010
0100
0000
0001
0000
0001
0000
,
1001
0000
0001
0100
,
0010
0100
0010
0000
1000
0000
0100
0000
,
0010
0100
0010
0000
0001
0000
0100
0000
,
0010
0100
0010
0000
1000
0000
0001
0000
,
1001
0000
0001
0000
,
0000
0000
1000
0000
,
0000
0000
1001
1001
,
0110
0110
1001
0000
,
0000
1000
0100
0001
,
0100
1000
0100
0001
,
0100
1000
0010
0001
,
0010
0000
1000
0000
0010
0000
1000
0001
,
1000
0001
0100
0010
,
1000
0001
0100
0010
,
1000
0100
0010
0001
,
1000
0000
0110
0000
0000
1001
0000
0000
,
0000
0001
1000
0001
,
0001
1000
0001
1000
,
1000
0010
0100
0010
,
0010
0000
0100
0010
0100
0000
0110
0000
,
1001
0000
1001
0001
,
0001
1000
0100
1000
,
1000
0010
0100
0001
,
1000
0100
0010
1001
,
0000
0000
1000
0000
,
1000
0000
0001
0000
,
0001
0110
0000
0000
;

//--------------- dance-single - kaya ----------------
#NOTES:
     dance-single:
     kaya:
     Medium:
     10:
     0,0,0,0,0:
0000
0000
0000
0000
,
0000
0000
0000
0000
,
0000
0000
0000
0000
,
0000
0000
0000
0000
,
0000
0000
0000
0000
,
0000
0000
0000
0000
,
1000
0100
0001
0100
,
1000
0100
0001
0100
,
1000
0010
0001
0010
,
1000
0001
0000
0110
,
1001
0000
0000
0000
1000
0010
0100
0001
,
0000
0000
0010
0010
,
0002
0000
0000
0000
0000
0000
0100
0103
,
0000
0010
0000
0000
0000
0000
1001
0000
,
1000
0100
1000
0000
0100
0000
0100
0000
,
0010
0100
0010
0000
0001
0010
0001
0000
,
1000
0001
0100
0000
0001
1000
0100
0000
,
1000
0001
0100
0000
0000
0000
1000
0000
,
0101
0000
1000
0001
0100
0000
0100
0010
,
1000
0000
1000
0001
0010
0000
0010
0100
,
1000
0000
1000
0010
0100
0000
0100
0001
,
2000
0001
3001
1000
,
0101
0000
1000
0000
0001
0010
0100
0000
,
0011
0000
1000
0000
0001
1000
0100
0000
,
1010
0001
0011
1000
,
1100
0000
0001
0100
0010
1000
0001
0001
,
0000
0001
0010
0100
0000
0100
1000
0001
,
0000
0001
1000
0010
0000
0010
1000
0100
,
0000
0100
0010
0100
0000
0100
1000
0001
,
0000
1001
0000
0001
1000
0010
0010
0000
,
0010
1000
0001
0000
1000
0100
0010
0000
,
0010
0001
0100
0010
1000
0100
1000
0000
,
0001
0100
0001
0000
1000
0010
0100
0000
,
0101
0000
1000
0100
,
1000
0100
0001
0010
,
0001
0010
1000
0010
,
1000
0010
0001
0100
,
0001
0100
1000
0100
,
0001
0100
1000
0010
,
0001
0010
1000
0001
,
0100
0010
1000
0100
,
0110
0000
1001
0000
1000
0001
0100
0001
,
1000
0001
0100
0000
0001
1000
0010
1000
,
0010
0100
0001
0000
1000
0001
0010
0001
,
1000
0001
0010
0000
0100
1000
0010
0100
,
0001
1000
1000
0000
0010
1000
0100
1000
,
0010
0100
0001
0000
0010
0001
0100
0010
,
1000
0100
0010
0000
0010
0100
1000
0100
,
0010
0001
1000
0000
1100
0000
0011
0000
,
0110
0000
0000
0000
1000
0000
0001
0000
1000
0000
0000
1000
0000
0000
1000
0000
,
0000
1000
0000
0000
0010
0100
0000
0000
0001
0000
0000
0001
0000
0000
0001
0000
,
0000
0001
0000
0000
0010
0100
0000
0000
1000
0000
0001
0000
0100
0000
0010
0000
,
1000
0001
1000
0001
2000
0002
0000
0000
0000
0000
0000
0000
,
3003
0000
0010
0000
1001
0000
1000
0100
,
0010
0000
0010
0001
1000
0000
1000
0010
,
0100
0000
0101
0000
1010
0000
0001
0010
,
0100
0000
0000
0000
0001
0000
0100
0000
1000
0000
0000
0000
1000
0001
1000
0000
,
0010
0010
0100
0000
1001
0000
1000
0010
,
0100
0000
0001
1000
0001
0000
0100
0001
,
1000
0000
1100
0010
0001
0000
0100
0010
,
1000
0000
2200
0000
3300
0011
0000
0000
,
1000
0000
0001
1000
0000
0000
0000
0000
0001
0000
0000
0001
0000
1000
0000
0000
,
0100
0000
0000
0100
0000
0010
0000
0000
0001
0000
0000
0001
0000
1000
0000
0000
,
0010
0000
0000
0010
0000
0100
0000
0000
0001
0000
0000
0001
0000
1000
0000
0000
,
0100
0000
0000
0100
0000
1000
0000
0000
0010
0000
0000
0010
0100
0000
0000
1000
,
0100
0000
0000
0000
0011
0000
0000
0000
1100
0000
0000
0001
0000
1000
0000
0000
,
0100
0000
0000
0100
0000
0001
0000
0000
0100
0000
0000
0010
0000
0001
0000
0000
,
1000
0000
0000
0001
0000
0100
0000
0000
0010
0000
0000
1000
0000
0100
0000
0000
,
0010
0000
0000
0001
0000
1000
0000
0000
0010
0000
0000
0000
0110
0000
0000
0000
,
0000
1000
1000
0100
,
0100
0001
0001
0010
,
0010
1001
0000
0000
;

//--------------- dance-single - kaya ----------------
#NOTES:
     dance-single:
     kaya:
     Hard:
     13:
     0,0,0,0,0:
0000
0000
0000
0000
,
0000
0000
0000
0000
,
0000
0000
0000
0000
,
0000
0000
0000
0000
,
0000
0000
0000
0000
,
0000
0000
0000
0000
,
1000
0100
0001
0100
,
1000
0100
0001
0100
,
1000
0010
0001
0010
,
1000
0000
0000
0000
0000
0000
0001
0000
0000
0000
0000
0000
0000
0000
0010
0100
0000
0000
0010
0000
0000
0000
0000
0000
,
1001
0000
0000
0000
1000
0001
0100
0010
,
0000
0000
0010
1000
,
0002
0000
0100
0000
0000
0000
1003
0010
,
0000
0100
0000
0000
0000
0000
1001
0000
,
0002
0000
0100
0000
0100
0000
0103
0010
,
2000
0000
3100
0010
0002
0000
0103
0010
,
2000
0001
0000
0000
3100
0000
0000
0010
0002
1000
0000
0000
0103
0000
0000
0010
,
2000
0001
0000
0000
3100
0000
0000
0000
0000
0000
0000
0000
0010
0100
0000
0000
,
1001
0000
0000
0001
0000
1000
0000
0000
0100
0000
0000
0100
0000
0010
0000
0000
,
0001
0000
0000
0001
0000
1000
0000
0000
0010
0000
0000
0010
0000
0100
0000
0000
,
0001
0000
0000
0001
0000
0010
0000
0000
0100
0000
0000
0100
0000
1000
0000
0001
,
0000
0000
0000
0000
0000
0000
0000
0000
0000
0001
0000
0000
1000
0000
0000
0000
1000
0000
0020
0000
0000
0000
0000
0000
0230
0000
0000
0000
0000
0000
0302
0000
0000
0000
0000
0000
1003
0000
0000
0010
0000
0000
0000
0000
0000
0000
0000
0000
,
0101
0000
0000
1000
0000
0001
0000
0000
0010
0000
0010
0100
0000
1000
0000
0000
,
0011
0000
0000
0010
0000
0100
0000
0000
1000
0000
1000
0001
0000
0100
0000
0000
,
0110
0000
0000
1000
0000
0100
0000
0000
0110
0000
0000
0001
0000
1000
0000
0000
,
1001
0000
0000
0001
1000
0010
0000
0010
0100
0000
1000
0100
0020
0030
1001
0000
,
0000
0001
0000
0010
0000
0100
1000
0000
0000
1000
0000
0001
0000
0100
0010
0000
,
0000
0010
0000
1000
0000
0001
0010
0000
0000
0100
0000
1000
0000
0001
0100
0000
,
0000
1000
0000
0100
0000
0010
1000
0000
0000
0001
0000
0010
0000
0100
0001
0000
,
0000
0100
0010
0001
0000
0001
1000
0000
0010
0000
0200
0300
1001
0000
0000
1000
,
0000
0001
0000
0100
0010
0000
0000
0010
0000
1000
0000
0001
0010
0000
0000
1000
,
0000
0010
0000
0100
0010
0000
0001
1000
0001
0100
0000
0000
1010
0000
0000
0001
,
1000
0010
0000
0000
0101
0000
0000
0001
1000
0100
0000
0000
1100
0000
0000
0000
,
2002
3003
0002
0010
,
1000
0100
2003
0100
,
0001
0010
3200
0010
,
0001
1000
0320
1000
,
0031
0001
1000
0001
2000
0000
0001
0000
,
0010
0100
3002
1000
,
0010
0100
0023
1000
,
0001
0230
0001
1000
,
0310
0000
0100
0000
1000
0000
0001
0000
0000
0000
0000
0000
1000
0000
0000
0010
0000
0000
0001
0000
0000
0010
0000
0000
,
0100
0000
0000
0000
0000
0010
0000
0000
0100
0000
0000
0000
0000
0000
0000
0000
0001
0000
0000
0000
0000
0000
0000
0000
0000
0000
0000
0000
0000
0000
0000
0000
0010
0000
0000
0000
0000
0000
0000
0000
0001
0000
0000
0000
0000
0000
0000
0000
1000
0000
0000
0000
0000
0000
0000
0000
0100
0000
0000
0000
0000
0000
0000
0000
,
0010
0000
0000
0000
0000
0001
0000
0000
1000
0000
0000
0000
0000
0100
0000
0000
0010
0000
0000
0000
0000
0000
0000
0000
0000
0000
0000
0000
0000
0000
0000
0000
0001
0000
0000
0000
0000
0000
0000
0000
0010
0000
0000
0000
0000
0000
0000
0000
1000
0000
0000
0000
0000
0000
0000
0000
0010
0000
0000
0000
0000
0000
0000
0000
,
0100
0000
0000
0000
0000
0010
0000
0000
0100
0000
0000
0000
0000
0000
0000
0000
1000
0000
0000
0000
0000
0000
0000
0000
0000
0000
0000
0000
0000
0000
0000
0000
0010
0000
0000
0000
0000
0000
0000
0000
1000
0000
0000
0000
0000
0000
0000
0000
0001
0000
0000
0000
0000
0000
0000
0000
0100
0000
0000
0000
0000
0000
0000
0000
,
0010
0000
0000
0000
0000
1000
0000
0000
0001
0000
0000
0000
0000
0100
0000
0000
0010
0000
0000
0000
0000
0000
0000
0000
0010
0000
0000
0000
0000
0000
0000
0000
1000
0000
0000
0000
0000
0000
0000
0000
0001
0000
0000
0000
0000
0000
0000
0000
0010
0000
0000
0000
0000
0000
0000
0000
0001
0000
0000
0000
0000
0000
0000
0000
,
1000
0000
0000
0000
0000
0100
0000
0000
1000
0000
0000
0000
0000
0000
0000
0000
0001
0000
0000
0000
0000
0000
0000
0000
0000
0000
0000
0000
0000
0000
0000
0000
0010
0000
0000
0000
0000
0000
0000
0000
0100
0000
0000
0000
0000
0000
0000
0000
1000
0000
0000
0000
0000
0000
0000
0000
0001
0000
0000
0000
0000
0000
0000
0000
,
0100
0000
0000
0000
0000
0010
0000
0000
0100
0000
0000
0000
0000
0001
0000
0000
1000
0000
0000
0000
0000
0000
0000
0000
0000
0000
0000
0000
0000
0000
0000
0000
0010
0000
0000
0000
0000
0000
0000
0000
1000
0000
0000
0000
0000
0000
0000
0000
0001
0000
0000
0000
0000
0000
0000
0000
0100
0000
0000
0000
0000
0000
0000
0000
,
0001
0000
0000
0000
0000
0010
0000
0000
0001
0000
0000
0000
0000
0000
0000
0000
0100
0000
0000
0000
0000
0000
0000
0000
0010
0000
0000
0000
0000
0000
0000
0000
1000
0000
0000
0000
0000
0000
0000
0000
0010
0000
0000
0000
0000
0000
0000
0000
0100
0000
0000
0000
0000
0000
0000
0000
0000
0000
0000
0000
0000
0000
0000
0000
,
1001
0000
0000
0000
0001
0000
0001
0000
2000
0000
0000
0010
0000
0000
0001
0000
,
0000
0000
0000
0000
3100
0000
0000
0000
0000
0000
0000
0000
0000
1000
0000
0000
0100
0000
0000
0000
0000
0010
0000
0000
0000
0000
0000
0000
0000
0000
0000
0000
0002
0000
0000
0000
0000
0000
0000
0000
0000
0000
0000
0000
0010
0000
0000
0000
0000
0000
0000
0000
0000
0000
0000
0000
1000
0000
0000
0000
0000
0000
0000
0000
,
0000
0000
0000
0000
0103
0000
0000
0000
0000
0000
0000
0000
0000
0001
0000
0000
0100
0000
0000
0000
0000
0010
0000
0000
0000
0000
0000
0000
0000
1000
0000
0000
0001
0000
0000
0000
0000
0000
0000
0000
0100
0000
0000
0000
0000
0000
0000
0000
0010
0000
0000
0000
0000
0000
0000
0000
1000
0000
0000
0000
0000
0000
0000
0000
,
0001
0010
0001
1000
0010
2000
0002
0000
0000
0000
0000
0000
,
3003
0000
0000
0000
0010
0000
0000
0000
1001
0000
0000
1000
0000
0001
0000
0001
,
0100
0000
0000
0010
0000
1000
0000
0100
0010
0000
0000
0001
0000
0100
0000
0100
,
0010
0000
0000
1000
0000
0001
0000
1000
0100
0000
0000
0010
0000
0100
0000
0100
,
1000
0000
0000
0001
0000
1000
0000
0001
0100
0000
0000
1000
0100
0010
0100
0010
,
2000
0000
3200
0000
0310
0001
0000
0000
1001
0000
0000
0001
0000
1000
0000
0100
,
0010
0000
0100
0001
0000
0100
0000
0000
0110
0000
0000
1000
0000
0001
0000
0100
,
0010
0000
0100
1000
0100
0010
0000
0000
1100
0000
0000
0100
0010
0001
0000
0000
,
0101
0000
0000
1000
0020
0000
0000
0000
0000
0000
0001
0000
0000
0000
0000
0000
,
1030
0000
0001
0100
0010
0000
0000
0000
1000
0000
0010
1000
0000
1000
0000
0100
,
0010
0000
0001
1000
0000
0001
0000
0100
0001
0000
0010
0001
0000
0001
0000
0100
,
0010
0000
1000
0001
0000
0010
0000
0100
1000
0000
0001
0100
0000
0100
0000
0010
,
1000
0000
0001
1000
0000
0100
0000
0010
0001
0000
1000
0000
0010
0100
1000
0000
,
1000
0100
0001
0000
0020
0000
0130
0000
1001
0000
0000
0001
0000
1000
0000
0100
,
0010
0000
0001
1000
0000
0010
0000
1000
0001
0000
0100
0001
0000
0010
0000
0100
,
1000
0000
0001
1000
0100
1000
0000
0000
1010
0000
0000
0001
0100
0001
0000
0000
,
0011
0000
0000
0010
0100
1000
0000
0000
1001
0000
0000
1000
0010
0000
0000
0000
,
0001
0010
0000
0010
1000
0000
0000
0000
2000
0000
0000
0000
0100
0000
0000
0000
,
3200
0001
0302
0010
,
0013
1001
0000
0000
;
