#TITLE:goldenslaughterer;
#SUBTITLE:;
#ARTIST:zts;
#TITLETRANSLIT:;
#SUBTITLETRANSLIT:;
#ARTISTTRANSLIT:;
#GENRE:GOTHIC TRANCE;
#CREDIT:;
#BANNER:goldenslaughterer.png;
#BACKGROUND:goldenslaughterer-bg.png;
#LYRICSPATH:;
#CDTITLE:cdtitle.png;
#MUSIC:goldenslaughterer.ogg;
#OFFSET:-0.001000;
#SAMPLESTART:72.161003;
#SAMPLELENGTH:15.000000;
#SELECTABLE:YES;
#BPMS:0.000000=133.000000
,96.000000=66.500000
,112.000000=133.000000
,209.000000=66.500000
,229.000000=133.000000
;
#STOPS:
;
#BGCHANGES:;
#KEYSOUNDS:;
#ATTACKS:;

//---------------dance-single - Daff_4K----------------
#NOTES:
     dance-single:
     Daff_4K:
     Beginner:
     2:
     0.082961,0.115525,0.021246,0.000000,0.000000,82.000000,79.000000,3.000000,0.000000,0.000000,0.000000,0.082961,0.115525,0.021246,0.000000,0.000000,82.000000,79.000000,3.000000,0.000000,0.000000,0.000000:
// measure 0
0000
0000
0000
0000
,  // measure 1
0000
0000
0000
0000
,  // measure 2
0000
0000
0000
0000
,  // measure 3
0000
0000
0000
0000
,  // measure 4
0010
0000
0000
0000
,  // measure 5
0010
0000
0000
0000
,  // measure 6
0100
0000
0000
0000
,  // measure 7
0100
0000
0000
0000
,  // measure 8
1000
0000
1000
0000
,  // measure 9
1000
0000
0000
0000
,  // measure 10
0001
0000
0001
0000
,  // measure 11
0001
0000
0000
0000
,  // measure 12
0100
0000
0100
0000
,  // measure 13
0100
0000
0000
0000
,  // measure 14
0010
0000
0010
0000
,  // measure 15
1000
0000
0000
0000
,  // measure 16
0001
0000
0001
0000
,  // measure 17
0001
0000
0000
0000
,  // measure 18
1000
0000
1000
0000
,  // measure 19
1000
0000
0000
0000
,  // measure 20
0100
0000
0100
0000
,  // measure 21
0100
0000
0000
0000
,  // measure 22
0010
0000
0000
0000
,  // measure 23
0001
0000
0000
0000
,  // measure 24
1001
0000
0000
0000
,  // measure 25
0000
0000
0000
0000
,  // measure 26
1000
0000
0000
0000
,  // measure 27
0001
0000
0000
0000
,  // measure 28
0100
0000
0100
0000
,  // measure 29
0100
0000
0000
0000
,  // measure 30
0010
0000
0010
0000
,  // measure 31
0010
0000
0000
0000
,  // measure 32
1000
0000
1000
0000
,  // measure 33
1000
0000
0000
0000
,  // measure 34
0001
0000
0001
0000
,  // measure 35
0001
0000
0000
0000
,  // measure 36
1000
0000
0000
0000
,  // measure 37
0001
0000
0001
0000
,  // measure 38
0001
0000
0000
0000
,  // measure 39
0100
0000
0000
0000
,  // measure 40
0001
0000
0000
0000
,  // measure 41
1000
0000
1000
0000
,  // measure 42
1000
0000
0000
0000
,  // measure 43
0100
0000
0000
0000
,  // measure 44
0010
0000
0010
0000
,  // measure 45
0010
0000
0000
0000
,  // measure 46
0001
0000
0000
0000
,  // measure 47
1000
0000
0000
0000
,  // measure 48
0010
0000
0010
0000
,  // measure 49
0010
0000
0000
0000
,  // measure 50
1000
0000
0000
0000
,  // measure 51
0001
0000
0000
0000
,  // measure 52
0000
1001
0000
0000
,  // measure 53
0000
0000
0000
0000
,  // measure 54
0000
1000
0000
0000
,  // measure 55
0000
0001
0000
0000
,  // measure 56
0000
0100
0000
0000
,  // measure 57
0000
0001
0000
0001
,  // measure 58
0000
0001
0000
0000
,  // measure 59
0000
1000
0000
1000
,  // measure 60
0000
1000
0000
0000
,  // measure 61
0000
0100
0000
0100
,  // measure 62
0000
0100
0000
0000
,  // measure 63
0000
0010
0000
0010
,  // measure 64
0000
0010
0000
0000
,  // measure 65
0000
1001
0000
0000
;

//---------------dance-single - Daff_4K----------------
#NOTES:
     dance-single:
     Daff_4K:
     Easy:
     5:
     0.174015,0.231050,0.021246,0.276198,0.000000,172.000000,169.000000,3.000000,39.000000,0.000000,0.000000,0.174015,0.231050,0.021246,0.276198,0.000000,172.000000,169.000000,3.000000,39.000000,0.000000,0.000000:
// measure 0
0000
0000
0000
0000
,  // measure 1
0000
0000
0000
0000
,  // measure 2
0000
0000
0000
0000
,  // measure 3
0000
0000
0000
0000
,  // measure 4
0000
1000
0000
1000
,  // measure 5
0000
0001
0000
0001
,  // measure 6
0000
0010
0000
0100
,  // measure 7
0000
1000
0001
1000
,  // measure 8
0002
0000
0203
0000
,  // measure 9
0320
0000
2030
0000
,  // measure 10
3002
0000
0023
0000
,  // measure 11
0130
1000
0001
1000
,  // measure 12
0020
0000
0230
0000
,  // measure 13
0302
0000
2003
0000
,  // measure 14
3200
0000
0320
0000
,  // measure 15
0031
0100
0010
0010
,  // measure 16
2000
0000
3200
0000
,  // measure 17
0320
0000
0032
0000
,  // measure 18
2003
0000
3020
0000
,  // measure 19
0130
0001
1000
0001
,  // measure 20
0020
0000
0230
0000
,  // measure 21
2300
0000
3002
0000
,  // measure 22
0103
0100
0010
0010
,  // measure 23
1000
0100
0010
0001
,  // measure 24
2002
0000
0000
0000
,  // measure 25
3003
0000
0000
0000
,  // measure 26
1000
0000
1000
0000
,  // measure 27
0001
0000
0001
0000
,  // measure 28
2000
0100
0000
3100
,  // measure 29
0020
0001
0000
0031
,  // measure 30
2000
0010
0000
3010
,  // measure 31
0200
0001
0000
0301
,  // measure 32
0002
0100
0000
0103
,  // measure 33
0020
1000
0000
1030
,  // measure 34
0002
0010
0000
0013
,  // measure 35
0100
1000
0001
1000
,  // measure 36
0001
0000
0100
0000
,  // measure 37
1000
0100
0001
0000
,  // measure 38
0001
0010
1000
0000
,  // measure 39
0010
0010
0001
0001
,  // measure 40
1000
0000
0100
0000
,  // measure 41
0001
0100
1000
0000
,  // measure 42
1000
0010
0001
0000
,  // measure 43
0010
0010
1000
1000
,  // measure 44
0001
0010
0100
0000
,  // measure 45
1000
0010
0100
0000
,  // measure 46
0001
0001
1000
1000
,  // measure 47
0100
0010
0001
1000
,  // measure 48
0010
0100
0001
0000
,  // measure 49
0010
0100
1000
0000
,  // measure 50
0010
0010
0100
0100
,  // measure 51
0001
1000
0001
1000
,  // measure 52
0000
2002
0000
0000
,  // measure 53
0000
0000
0000
0000
,  // measure 54
3003
0002
0000
2003
,  // measure 55
0000
3020
0000
0230
,  // measure 56
0000
0302
0000
2000
,  // measure 57
3003
1000
0100
0001
,  // measure 58
0000
0001
0010
1000
,  // measure 59
0000
0001
0100
1000
,  // measure 60
0000
1000
0010
0001
,  // measure 61
0000
0100
0100
0001
,  // measure 62
1000
0100
0100
1000
,  // measure 63
0001
0100
0100
0010
,  // measure 64
0010
1000
0001
1000
,  // measure 65
0001
1001
0000
0000
;

//---------------dance-single - Daff_4K----------------
#NOTES:
     dance-single:
     Daff_4K:
     Medium:
     8:
     0.314643,0.346575,0.205378,0.311608,0.000000,311.000000,282.000000,29.000000,44.000000,0.000000,0.000000,0.314643,0.346575,0.205378,0.311608,0.000000,311.000000,282.000000,29.000000,44.000000,0.000000,0.000000:
// measure 0
0000
0000
0000
0000
,  // measure 1
0000
0000
0000
0000
,  // measure 2
0000
0000
0000
0000
,  // measure 3
0000
0000
0000
0000
,  // measure 4
1000
0000
1001
0000
0001
0100
0010
0000
,  // measure 5
1000
0000
1001
0000
0001
0010
0100
1000
,  // measure 6
0001
0000
1001
0000
1000
0100
0010
0000
,  // measure 7
0001
0000
1001
0000
1000
0010
0100
0001
,  // measure 8
2000
0100
3002
0100
,  // measure 9
2003
0010
3002
0010
,  // measure 10
2003
0100
3002
0010
,  // measure 11
0203
0010
0301
1000
,  // measure 12
0002
0100
2003
0100
,  // measure 13
3002
0010
2003
0010
,  // measure 14
3002
0100
2003
0010
,  // measure 15
3200
0000
0010
0000
1300
0000
0001
1000
,  // measure 16
0002
0100
2003
0010
,  // measure 17
3002
0010
2003
0100
,  // measure 18
3020
0100
2030
0001
,  // measure 19
3200
0010
1300
0001
,  // measure 20
2000
0100
3002
0010
,  // measure 21
2003
0010
3002
0100
,  // measure 22
0023
1000
0100
0001
,  // measure 23
0230
0001
1300
0001
,  // measure 24
2001
0000
0010
0000
0100
0100
3200
0000
,  // measure 25
0020
0000
0000
0330
,  // measure 26
1002
0000
0010
0000
0100
0100
0203
0000
,  // measure 27
0020
0000
0000
0330
,  // measure 28
1000
0000
1100
0000
0100
0000
0010
0001
,  // measure 29
1000
0000
1001
0000
0001
0000
0100
0010
,  // measure 30
1000
0000
1001
0000
0001
0000
0010
0100
,  // measure 31
1000
0000
1010
0000
0010
0100
0001
1000
,  // measure 32
0001
0000
0101
0000
0100
0000
0010
1000
,  // measure 33
0001
0000
1001
0000
1000
0000
0100
0010
,  // measure 34
0001
0000
1001
0000
1000
0000
0010
0100
,  // measure 35
0002
1000
1000
1003
,  // measure 36
0001
0000
0100
0010
0100
0000
0001
1000
,  // measure 37
0001
0000
0011
0000
1100
0000
1000
0001
,  // measure 38
1000
0000
1010
0000
0101
0000
0001
1000
,  // measure 39
0001
0000
0010
0100
1000
0000
0001
0000
,  // measure 40
1000
0000
0100
0010
0100
0000
1000
0001
,  // measure 41
1000
0000
1010
0000
0101
0000
0001
1000
,  // measure 42
0001
0000
0011
0000
1100
0000
1000
0001
,  // measure 43
1000
0000
0010
0100
0001
0000
1000
0000
,  // measure 44
0001
0010
0001
0000
1000
0100
1000
0000
,  // measure 45
0001
0100
0010
0000
1000
0100
0010
0000
,  // measure 46
0001
0000
1000
0000
0010
0100
0010
0000
,  // measure 47
1000
0001
1000
0000
0100
0010
0001
0000
,  // measure 48
1000
0010
1000
0000
0001
0100
0001
0000
,  // measure 49
1000
0100
0010
0000
0001
0100
0010
0000
,  // measure 50
1000
0000
0001
0000
0010
0100
0010
0000
,  // measure 51
0001
1000
0001
0000
0100
0010
1000
0000
,  // measure 52
0001
2002
0003
0200
,  // measure 53
3000
0020
0300
0002
,  // measure 54
0030
0200
0003
0020
,  // measure 55
0300
2000
0030
0002
,  // measure 56
3000
2000
0000
0000
,  // measure 57
3003
0000
1001
0000
0001
0100
0001
0000
,  // measure 58
1000
0100
1000
0000
0010
0010
0100
0000
,  // measure 59
0001
0000
1001
0000
1000
0100
1000
0000
,  // measure 60
0001
0100
0001
0000
0010
0010
0100
0000
,  // measure 61
1000
0000
1001
0000
0001
0100
0001
0000
,  // measure 62
1000
0100
1000
0000
0001
0010
0001
0000
,  // measure 63
1000
0010
1000
0000
0001
0010
0100
0000
,  // measure 64
1000
0010
0100
0000
0110
0000
1001
0000
,  // measure 65
0110
1001
0000
0000
;

//---------------dance-single - Daff_4K----------------
#NOTES:
     dance-single:
     Daff_4K:
     Hard:
     11:
     0.436049,0.600731,0.304526,0.424920,0.145181,431.000000,388.000000,43.000000,60.000000,0.000000,0.000000,0.436049,0.600731,0.304526,0.424920,0.145181,431.000000,388.000000,43.000000,60.000000,0.000000,0.000000:
0000
0000
0000
0000
,
0000
0000
0000
0000
,
0000
0000
0000
0000
,
0000
0000
0000
0000
,
1010
0000
0101
0000
0001
0010
0100
0000
,
1100
0000
0000
0000
0011
0000
0000
0000
0001
1000
0000
0000
1001
0000
0000
0000
,
0011
0000
1100
0000
1000
0010
0100
0000
,
0101
0000
1010
0000
1000
0001
0010
0100
,
2000
0000
3010
0100
0002
0000
1003
0000
,
0021
0000
0130
1000
0001
0100
0010
0000
,
2010
0000
3100
0010
0002
0000
1003
0000
,
0201
0000
0310
1000
0100
0001
0100
1000
,
0002
0000
0013
0100
2000
0000
3001
0000
,
1020
0000
0130
0001
1000
0100
0010
0000
,
0012
0000
0103
0010
2000
0000
3001
0000
,
1200
0000
0000
0000
0310
0000
0001
0000
0100
0000
0010
0000
1000
0000
0001
1000
,
0002
0000
0103
0010
1000
0000
1001
0000
,
0021
0000
0130
1000
0001
0100
0010
0000
,
2010
0000
3001
0010
0100
0000
1001
0000
,
1020
0000
0130
0001
0010
1000
0010
0001
,
2000
0000
3100
0010
0001
0000
1001
0000
,
1020
0000
0130
0001
1000
0100
0010
0000
,
0012
0100
2003
0100
,
3001
0000
0100
0000
0010
0000
1000
0000
0100
0000
0010
0100
0010
0000
0001
0000
,
2001
0000
0000
0000
3020
0000
0000
0000
0230
0000
0302
0000
1003
0001
2000
0000
,
3200
0020
0000
0000
0000
0000
0330
0000
,
1002
0000
0000
0000
0023
0000
0000
0000
0230
0000
2300
0000
3001
1000
0002
0000
,
0203
0020
0000
0000
0000
0000
0330
0000
,
1010
0000
0101
0000
0001
0010
1000
0010
,
0001
0000
1100
0000
1000
0001
0100
0010
,
1000
0000
1100
0000
0010
0001
0100
0010
,
1000
0000
1001
0000
0001
1000
0100
0010
,
0011
0000
1100
0000
1000
0010
0001
0010
,
1000
0000
0101
0000
0001
1000
0100
0010
,
0001
0000
0101
0000
0010
1000
0100
0010
,
0002
0100
2000
3003
,
2001
0000
3100
0010
0002
0000
1003
0010
,
0100
0000
0000
0100
0001
0000
0000
0001
1000
0000
0000
1000
0100
0000
0010
0000
,
0001
0000
0000
0001
0100
0000
0000
0100
1000
0000
0000
1000
0100
0000
0001
0000
,
0010
0000
0100
0000
1000
0000
0010
0000
0100
0000
0000
0100
0001
0000
1000
0000
,
1002
0000
0103
0010
2000
0000
3001
0010
,
0100
0000
0000
0100
1000
0000
0000
1000
0001
0000
0000
0001
0100
0000
0010
0000
,
1000
0000
0000
1000
0100
0000
0000
0100
0001
0000
0000
0001
0100
0000
1000
0000
,
0020
0000
0000
0000
0130
0000
0001
0000
1000
0000
0100
0010
0100
0000
0010
0000
,
0001
0000
0100
0000
1000
0000
0010
0000
1000
0000
0100
0000
0001
0000
0000
0001
,
1000
0100
0010
0001
0100
0010
1000
0001
,
1000
0000
0100
0000
0001
0000
0010
0000
0001
0000
0100
0000
1000
0000
0000
1000
,
0001
0100
0010
1000
0100
0010
0001
1000
,
0001
0100
1000
0100
0001
0100
0010
0010
,
1000
0100
0001
0100
1000
0100
0010
0010
,
0001
1000
0001
1000
0001
1000
0001
1000
0010
0100
0010
0100
0010
0100
0010
0100
,
0001
0000
0000
0000
0000
0000
0000
0000
0000
0001
0000
0000
0010
0000
0000
0000
0000
0000
0000
0000
0000
0010
0000
0000
0100
0000
0000
0000
0000
0000
0000
0000
0000
0100
0000
0000
1000
0000
0000
0000
0001
0000
0000
0000
1000
0000
0000
0000
,
0001
2002
0003
0200
,
3000
0020
0300
0002
,
0030
2003
0010
3002
,
0010
2003
0100
3002
,
0100
0000
0023
0000
0230
0000
1300
0002
,
2000
3003
1002
0000
0103
0010
2000
0000
,
3001
0010
0200
0000
1300
0001
0100
0010
,
0110
0000
2001
0000
3100
0010
0002
0000
,
1003
0010
0200
0000
0301
1000
0100
0010
,
0110
0000
0000
0000
1001
0000
0000
0001
0100
0000
0010
0000
1000
0000
0000
1000
,
0100
0000
0010
0000
0001
0000
0000
0001
1000
0000
0010
0000
0100
0000
0001
0000
,
0010
0000
0100
0000
1000
0000
0000
1000
0100
0000
0010
0000
0001
0000
0000
0001
,
0100
0000
0010
0000
1000
0000
0001
1000
0001
0000
0010
0100
0010
0000
0100
0000
,
1000
0001
1001
0000
0000
0000
0000
0000
;

//---------------dance-single - Daff_4K----------------
#NOTES:
     dance-single:
     Daff_4K:
     Challenge:
     14:
     0.580724,0.670046,0.226624,0.354100,0.470953,574.000000,542.000000,32.000000,50.000000,0.000000,0.000000,0.580724,0.670046,0.226624,0.354100,0.470953,574.000000,542.000000,32.000000,50.000000,0.000000,0.000000:
0000
0000
0000
0000
,
0000
0000
0000
0000
,
0000
0000
0000
0000
,
0000
0000
0000
0000
,
1000
0000
0100
0000
0001
0000
0100
0010
0100
0000
1000
0000
0001
0000
0000
0000
,
1000
0000
0010
0000
0100
0000
0001
1000
0001
0000
1000
0000
0100
0000
0010
0000
,
0001
0000
0100
0000
1000
0000
0100
0010
0100
0000
0001
0000
1000
0000
0000
0000
,
0001
0000
0010
0000
0100
0000
1000
0001
1000
0000
0001
0000
0100
0000
0010
1000
,
0002
0000
0010
1000
0203
0000
1000
0010
,
0302
0000
0000
0000
0100
0000
1000
0000
0013
0001
0000
0001
0100
0000
0010
0000
,
2000
0000
0100
0001
3020
0000
0001
0100
,
1030
0000
0100
0000
0001
0000
0100
0000
1000
0000
0010
0100
0010
0000
0100
0000
,
0002
0000
0010
0100
2003
0000
0010
0001
,
3200
0000
0000
0000
0001
0000
0010
0000
1300
0100
0000
0100
0010
0000
0001
0000
,
2000
0000
0100
0001
3020
0000
1000
0100
,
0031
0000
0010
0100
0010
0000
1000
0000
0100
0000
0010
0000
0001
0000
1000
0001
,
2000
0000
0010
0001
3200
0000
0001
0010
,
2300
0000
0000
0000
0100
0000
0001
0000
3010
1000
0000
1000
0100
0000
0010
0000
,
0002
0000
0100
1000
0023
0000
1000
0100
,
0031
0000
0100
0000
1000
0000
0100
0000
0001
0000
0010
0100
0010
0000
0100
0000
,
2000
0000
0010
0100
3002
0000
0010
1000
,
0203
0000
0000
0000
1000
0000
0010
0000
0301
0100
0000
0100
0010
0000
1000
0000
,
0002
0000
0100
0010
2003
0000
0100
0010
,
3001
0000
1000
0000
0010
0000
0100
0000
0001
0000
0010
0100
0000
0100
1000
0000
,
1002
0000
0000
0000
0103
0000
0010
0000
1000
0000
0001
1000
0001
0000
0010
0000
1000
0000
0010
0000
0001
0000
0100
0000
0010
0000
1000
0001
2000
0000
0000
0000
,
3200
0020
0000
0300
0001
0001
0001
0031
,
2001
0000
0000
0000
3100
0000
0010
0000
0001
0000
1000
0001
1000
0000
0010
0000
0001
0000
0010
0000
1000
0000
0100
0000
0010
0000
0001
1000
0002
0000
0000
0000
,
0203
0020
0000
0300
1000
1000
1000
1030
,
1000
0000
0001
0000
0021
0000
0000
0000
0130
0000
1000
0001
0000
0001
0100
0000
,
0010
0000
1000
0000
1002
0000
0000
0000
0013
0000
0100
1000
0000
1000
0010
0000
,
0001
0000
0010
0000
2010
0000
0000
0000
3100
0000
0010
0001
0000
0001
0100
0000
,
0010
0000
1000
0000
1002
0000
0000
0000
0013
0000
0100
1000
0000
0001
1000
0000
,
0001
0000
1000
0000
1020
0000
0000
0000
0130
0000
0001
1000
0000
1000
0100
0000
,
0010
0000
0001
0000
2001
0000
0000
0000
3010
0000
0100
0001
0000
0001
0010
0000
,
1000
0000
0010
0000
0012
0000
0000
0000
0103
0000
0010
1000
0000
1000
0100
0000
,
0010
0000
0001
0000
2001
0000
0000
0000
3010
0000
0100
0010
0100
0000
0001
0000
,
1001
0000
0000
1000
0010
0000
0100
0000
0101
0000
0000
0001
0010
0000
0100
0000
,
1000
0000
0010
0100
0001
0000
1000
0100
0010
0000
0001
0100
0010
0000
1000
0000
,
0001
0000
1000
0100
0010
0000
0001
0100
0010
0000
1000
0001
0010
0000
0100
0000
,
1000
0000
1010
0000
0010
0000
0110
0000
0100
0000
0001
1000
0001
0000
1000
0000
,
1001
0000
0000
0001
0010
0000
0100
0000
1100
0000
0000
1000
0010
0000
0100
0000
,
0001
0000
0010
0100
1000
0000
0001
0100
0010
0000
1000
0100
0010
0000
0001
0000
,
1000
0000
0001
0100
0010
0000
1000
0100
0010
0000
0001
1000
0001
0000
0100
0000
,
0010
0000
1000
0100
0010
0000
0001
0100
0010
0000
1000
0001
0010
0000
0100
0000
,
1000
0000
0001
0100
0010
0000
1000
0100
0010
0000
0001
1000
0010
0000
0100
0000
,
0001
0000
1000
0100
0010
0000
0001
0100
0010
0000
1000
0001
0010
0000
0100
0000
,
1000
0000
0010
0100
0010
0000
1000
0100
1000
0000
0001
0100
0001
0000
0010
0000
,
0100
0000
1000
0010
1000
0000
0001
0010
0001
0000
0100
0010
1000
0000
0001
0000
,
1000
0000
0010
0100
0001
0000
1000
0010
0100
0000
0001
1000
0100
0000
0010
0000
,
0001
0000
0010
0100
1000
0000
0001
0010
0100
0000
1000
0001
0100
0000
0010
0000
,
1000
0001
1000
0001
0010
0100
0010
0100
1000
0010
0100
0001
0010
0100
1000
0001
,
0200
0000
0000
0000
0000
0000
0000
0000
0000
0310
0000
0000
2000
0000
0000
0000
0000
0000
0000
0000
0000
3001
0000
0000
0020
0000
0000
0000
0000
0000
0000
0000
0000
0130
0000
0000
1000
0000
0000
0000
0010
0000
0000
0000
0100
0000
0000
0000
,
0001
0000
2002
0000
0000
3003
2200
0000
,
0000
3300
0022
0000
0000
0033
2002
0000
,
0000
3003
2010
0000
3100
0010
0012
0000
,
0103
0010
1000
1000
0001
0001
0010
0010
,
0100
0000
0000
0000
0100
0000
0000
0000
1000
0000
0010
0000
0100
0000
0001
0000
0010
0000
0100
0000
1000
0000
0001
0000
0100
0010
0100
0010
0100
0010
0100
0010
,
0200
0000
0300
0000
1001
0000
0000
0001
0010
0000
0100
0000
1001
0000
0000
1000
,
0010
0000
0100
0000
1001
0000
0000
0001
0100
0000
0010
0000
1000
0000
0001
0010
,
0000
0010
0100
0000
1001
0000
0000
1000
0010
0000
0100
0000
1001
0000
0000
0001
,
0010
0000
0100
0000
1001
0000
0000
1000
0100
0000
0010
0000
0001
0000
1000
0010
,
0000
0010
0100
0000
0001
0000
0010
0000
1000
0001
0000
0001
0100
0000
1000
0010
,
0000
0100
0001
0000
1000
0000
0010
0000
0001
1000
0000
1000
0100
0000
0001
0010
,
0000
0100
1000
0000
0001
0000
0100
0010
1000
0000
0001
0000
1000
0000
0100
0010
,
0001
0000
1000
0000
0101
0000
0010
0000
1100
0000
0010
0000
1001
0000
0100
0010
,
0100
0010
0100
0000
1001
0000
0000
0000
0000
0000
0000
0000
0000
0000
0000
0000
;
