#TITLE:enchanted love;
#SUBTITLE:;
#ARTIST:linear ring;
#TITLETRANSLIT:;
#SUBTITLETRANSLIT:;
#ARTISTTRANSLIT:;
#GENRE:Future Hop / Emotional;
#CREDIT:;
#BANNER:enchanted love.png;
#BACKGROUND:enchanted love-bg.png;
#LYRICSPATH:;
#CDTITLE:cdtitle.png;
#MUSIC:enchanted love.ogg;
#OFFSET:-0.000000;
#SAMPLESTART:60.632000;
#SAMPLELENGTH:15.000000;
#SELECTABLE:YES;
#BPMS:0.000000=95.000000
;
#STOPS:
;
#BGCHANGES:0.000=enchanted love.avi=1.000=0=0=0=StretchNoLoop==CrossFade_Fastest==,
99999=-nosongbg-=1.000=0=0=0 // don't automatically add -songbackground-
;
#KEYSOUNDS:;
#ATTACKS:;

//---------------dance-single - Daff_4K----------------
#NOTES:
     dance-single:
     Daff_4K:
     Beginner:
     2:
     0.095527,0.133162,0.023058,0.000000,0.000000,87.000000,84.000000,3.000000,0.000000,0.000000,0.000000,0.095527,0.133162,0.023058,0.000000,0.000000,87.000000,84.000000,3.000000,0.000000,0.000000,0.000000:
0000
0000
0000
0000
,
0000
0000
0000
0000
,
0000
0000
0000
0000
,
0000
0000
0000
0000
,
0001
0000
0000
0000
,
0001
0000
0000
0000
,
1000
0000
0000
0000
,
1000
0000
0000
0000
,
1001
0000
0001
0000
,
0001
0000
0000
0000
,
1000
0000
1000
0000
,
1000
0000
0000
0000
,
0010
0000
0010
0000
,
0010
0000
0000
0000
,
0100
0000
0100
0000
,
0100
0000
0000
0000
,
0001
0000
1000
0000
,
0100
0000
0010
0010
,
0010
0000
0100
0100
,
0100
0000
1000
0000
,
1000
0000
0001
0000
,
0100
0000
0010
0010
,
0010
0000
1000
0000
,
0001
0000
0000
0000
,
1001
0000
0000
0000
,
1000
0000
0010
0010
,
0010
0000
1000
0000
,
0100
0000
0010
0000
,
0001
0000
1000
0000
,
0001
0000
0010
0010
,
0010
0000
0001
0000
,
0100
0000
0010
0000
,
1000
0000
1000
0000
,
0001
0000
0001
0000
,
1001
0000
1000
0000
,
0100
0000
0001
0001
,
0001
0000
0001
0000
,
0100
0100
0100
0000
,
1000
0000
0010
0000
,
0100
0000
0001
0001
,
0001
0000
0010
0000
,
0100
0000
0000
0000
,
1000
0000
0000
0000
,
1000
0000
0000
0000
,
0001
0000
0000
0000
,
0001
0000
0000
0000
,
0100
0000
0100
0000
,
0100
0000
0000
0000
,
0010
0000
0010
0000
,
0010
0000
0010
0000
;

//---------------dance-single - Daff_4K----------------
#NOTES:
     dance-single:
     Daff_4K:
     Easy:
     5:
     0.221799,0.273945,0.053803,0.584144,0.000000,202.000000,195.000000,7.000000,76.000000,0.000000,0.000000,0.221799,0.273945,0.053803,0.584144,0.000000,202.000000,195.000000,7.000000,76.000000,0.000000,0.000000:
0000
0000
0000
0000
,
0000
0000
0000
0000
,
0000
0000
0000
0000
,
0000
0000
0000
0000
,
2000
3000
0002
0003
,
0200
0300
0020
0030
,
2000
3000
0002
0003
,
0020
0030
0200
0300
,
2000
0000
3010
0000
1000
0001
1000
0000
,
0200
0000
0310
0000
0001
0001
1000
0000
,
0002
0000
0013
0000
0001
1000
0001
0000
,
0200
0320
2030
3002
,
0023
0100
0100
0130
,
2000
0001
0001
3001
,
2000
3020
0230
0302
,
0023
0000
0230
0000
1300
0001
1000
0000
,
0002
0103
2000
3100
,
0002
0000
1003
0000
0001
0010
0100
0000
,
2000
0000
3001
0000
1000
0010
0100
0000
,
0110
1001
0110
1001
,
2000
3010
0002
0013
,
1000
0001
1000
0001
0010
0100
0010
0100
,
2000
3010
0002
0013
,
2000
3200
0320
0031
,
1001
0220
0000
0330
,
2001
0000
3100
0000
0010
0001
1000
0000
,
0002
0103
2000
3100
,
0001
0000
0010
0100
0010
0001
1000
0000
,
0002
0000
0103
0000
0001
0010
0100
0000
,
2000
0000
3100
0000
1000
0010
0100
0000
,
0002
0010
0010
1003
,
2000
0010
0010
3001
,
0002
0103
2000
3100
,
0002
2003
3200
0320
,
0031
1000
0000
0100
0020
0000
0031
0000
,
0200
0000
0010
0000
0310
1000
0001
0000
,
0020
0000
0100
0000
0130
1000
0001
0000
,
2000
0000
3010
0000
0200
0000
0301
1000
,
0020
0000
0100
0000
0130
0001
1000
0000
,
0200
0000
0010
0000
0310
0001
1000
0000
,
0002
0100
2003
0100
,
3020
0100
0100
0130
,
0002
0013
2000
3010
,
0002
0103
0020
1030
,
2000
3100
0002
0103
,
2000
3010
0200
0301
,
2000
3010
0002
0013
,
2000
3100
0020
0031
,
0002
0103
2000
3100
,
0002
1003
0200
0020
,
0000
0000
0000
0000
0000
0000
0000
0000
0000
0000
0000
0330
;

//---------------dance-single - Daff_4K----------------
#NOTES:
     dance-single:
     Daff_4K:
     Medium:
     7:
     0.286582,0.352216,0.245955,0.499597,0.030744,261.000000,229.000000,32.000000,65.000000,0.000000,0.000000,0.286582,0.352216,0.245955,0.499597,0.030744,261.000000,229.000000,32.000000,65.000000,0.000000,0.000000:
0000
0000
0000
0000
,
0000
0000
0000
0000
,
0000
0000
0000
0000
,
0000
0000
0000
0000
,
2000
3010
0002
0013
,
2000
3100
0002
0103
,
2000
3010
0200
0301
,
0002
0013
0200
1300
,
1002
0000
0000
0000
0000
0000
0103
0000
0000
0000
0000
0000
0001
0000
0000
1000
0000
0001
0000
0000
0000
1000
0000
0000
,
0200
0000
0000
0000
0000
0000
0310
0000
0000
0000
0000
0000
0001
0000
0000
0100
0000
0001
0000
0000
0000
1000
0000
0000
,
2000
0000
0000
0000
0000
0000
3100
0000
0000
0000
0000
0000
1000
0000
0000
0001
0000
1000
0000
0000
0000
0001
0000
0000
,
0200
0320
2030
3002
,
0023
1000
0001
1000
,
0230
0001
1000
0001
,
1300
0010
0100
0001
0010
0100
1000
0001
,
0100
0100
0010
0010
1000
0100
0010
0001
,
2001
3100
0012
1003
,
1020
0000
0031
0000
1000
0100
0001
0000
,
0021
0000
1030
0000
0001
0100
1000
0000
,
1010
0101
0011
1100
,
1002
0103
2010
3001
,
1000
0100
0010
0100
0001
0100
1000
0000
,
1002
0103
2010
3001
,
1000
0000
0000
0100
0000
0000
0010
0000
0000
0001
0000
0000
0100
0000
0000
0010
0000
0000
1000
0000
0001
1000
0000
0000
,
0001
2002
0000
3003
,
1100
0000
0000
0000
0000
0000
0011
0000
0000
0000
0000
0000
0001
0000
0000
1000
0000
0000
0010
0000
0100
0010
0000
0000
,
0200
1000
0320
0001
,
0130
0000
0000
0001
0000
1000
0001
0000
0000
1000
0000
0000
0100
0000
0000
0010
0000
0000
0001
0000
0000
1000
0000
0000
,
1020
0000
0001
0000
1030
0100
0010
0000
,
0021
0000
1000
0000
0031
0100
0010
1000
,
0002
0010
2003
0100
,
3002
0100
2003
0010
,
3200
0001
0320
1000
,
0031
0100
0001
1000
0100
1000
0010
0100
,
0001
2001
0000
3100
0200
0010
0310
0000
,
1002
0000
0100
0000
0023
0100
0130
0000
,
2001
0000
0010
0000
3200
0010
0310
0000
,
0012
0103
2010
3100
,
1020
0000
0001
0000
0130
0001
1000
0000
,
0021
0000
1000
0000
0130
1000
0001
0000
,
2001
3010
1002
0013
,
1200
0010
0001
0310
,
2001
3010
0200
0301
,
2000
3100
0020
0031
,
1002
0103
0020
1030
,
0002
0013
0200
1300
,
1002
0000
0000
0000
0000
0000
0100
0000
0000
0000
0000
0000
0013
0000
0000
0001
0000
1000
0000
0000
0000
0000
0000
0000
,
2001
0000
0000
0000
0000
0000
0010
0000
0000
0000
0000
0000
3100
0000
0000
1000
0000
0001
0000
0000
0000
0000
0000
0000
,
0200
0310
2000
3001
,
0200
0310
0002
2000
,
0000
0000
0000
0000
0000
0000
0000
0000
0000
0000
0000
3003
;

//---------------dance-single - Daff_4K----------------
#NOTES:
     dance-single:
     Daff_4K:
     Hard:
     13:
     0.520459,0.665296,0.368933,0.584144,0.465009,474.000000,426.000000,48.000000,76.000000,0.000000,0.000000,0.520459,0.665296,0.368933,0.584144,0.465009,474.000000,426.000000,48.000000,76.000000,0.000000,0.000000:
0000
0000
0000
0000
,
0000
0000
0000
0000
,
0000
0000
0000
0000
,
0000
0000
0000
0000
,
2000
0000
0000
0000
0000
0010
0000
0000
0000
3010
0000
0000
0100
0000
0000
0001
0000
0100
0000
0000
0000
0001
0000
0000
,
0020
0000
0000
0000
0000
0100
0000
0000
0000
0130
0000
0000
1000
0000
0000
0010
0000
0100
0000
0000
0001
1000
0000
0000
,
0002
0000
0000
0000
0000
0010
0000
0000
0000
0013
0000
0000
0100
0000
0000
1000
0000
0100
0000
0000
0000
1000
0000
0000
,
0020
0000
0000
0000
0000
0100
0000
0000
0000
0130
0000
0000
0001
0000
0000
0010
0000
0100
0000
0000
1000
0001
0000
1000
,
0200
0000
0000
0310
0000
0001
0000
0000
0100
0001
0000
0100
0020
0000
0000
1030
0000
0001
0000
0000
1000
0001
0000
0010
,
0200
0000
0000
1300
0000
0001
0000
0000
1000
0001
0000
0100
0020
0000
0000
1030
0000
0100
0000
0000
0100
0010
0000
0001
,
0200
0000
0000
0310
0000
1000
0000
0000
0100
1000
0000
0100
0020
0000
0000
0031
0000
1000
0000
0000
0001
1000
0000
0010
,
0200
0000
0000
0301
0000
1000
0200
0000
0000
0310
0000
0001
2000
0000
0000
0010
0000
0000
3002
0000
0000
0103
0000
0000
,
0021
0000
0000
0000
0000
0000
1000
0000
0000
0000
0000
0000
0031
0000
0100
0001
0000
0100
0000
0000
0010
1000
0000
0000
,
1200
0000
0000
0000
0000
0000
0001
0000
0000
0000
0000
0000
1300
0000
0010
1000
0000
0010
0100
0000
0000
0001
0000
0000
,
1000
0000
0100
1000
0000
0000
0001
0000
0100
0001
0000
0000
1000
0000
0010
1000
0000
0000
0001
0000
0010
0001
0000
0000
,
0100
0000
0010
0100
0000
0010
0100
0000
0010
0100
0000
0010
1000
0001
1000
0001
1000
0001
1000
0000
0010
0100
0000
0001
,
0020
0000
0000
0130
0000
1000
0002
0000
0000
1003
0000
0000
0020
0000
0000
0130
0000
0000
0001
0000
1000
0001
0000
1000
,
0200
0000
0000
0310
0000
0000
0001
0000
0100
0010
0000
0000
1010
0000
0000
0101
0000
0000
1001
0000
0000
1000
0000
0001
,
0200
0000
0000
0310
0000
0000
1000
0000
0100
0010
0000
0000
0011
0000
0000
1100
0000
0000
0110
0000
0000
1001
0000
0000
,
0202
0000
0000
0303
0000
0000
2020
0000
0000
3030
0000
0000
1100
0000
0000
0011
0000
0000
0001
0000
0100
0010
0000
1000
,
0002
0000
0000
0013
0000
0100
2000
0000
0000
3020
0000
0000
0230
0000
0000
0301
1000
0001
1000
0000
0000
0100
0000
0000
,
0010
0000
0001
0100
0001
0100
0001
1000
0100
1000
0100
1000
0001
0000
0000
0101
0000
0000
0110
0000
0000
1010
0000
0000
,
1002
0010
0100
0010
2003
0100
0010
0100
,
3001
0000
1000
0001
0000
1000
0001
0000
1000
0001
0000
1000
0010
0100
0010
0100
0010
0100
0010
0000
1000
0001
0000
0000
,
2002
3003
0220
0000
0000
0000
0000
0330
,
2001
0000
0000
3100
0000
0010
0200
0000
0000
0301
0000
0000
1020
0000
0000
0100
0000
0000
0031
0000
0000
1001
0000
0000
,
1020
0000
0000
0130
0000
0000
0021
0000
0000
0130
0000
0000
1001
0000
0000
0110
0000
0000
1000
0000
0000
0001
0000
1000
,
0002
0000
0000
0100
0000
0000
2003
0000
0000
0100
0000
0000
3010
0000
0000
0110
0000
0000
1001
0000
0000
0001
0000
1000
,
0200
0000
0000
0001
0000
0000
0010
0000
0000
1300
0000
0000
0001
0000
0100
0010
0000
1000
0100
0000
0010
0001
0000
0000
,
0200
0000
0000
1000
0000
0000
0010
0000
0000
0301
0000
0000
1000
0000
0100
0010
0000
0001
0100
0000
0010
1000
0000
0000
,
0002
0000
0000
0010
0000
0000
1000
0000
0000
0103
0000
0000
0001
0000
0010
0001
0000
0100
0010
0000
1000
0001
0000
0000
,
2000
0000
0000
0100
0000
0000
0001
0000
0000
3010
0000
0000
1000
0000
0100
1000
0000
0010
0100
0000
0001
1000
0000
0000
,
0002
0000
0000
0100
0000
0000
0013
0000
0100
1000
0000
0001
2000
0000
0000
0010
0000
0000
3100
0000
0010
0001
0000
1000
,
0001
0000
0100
0001
0000
0100
0010
0000
1000
0010
0000
1000
0100
0010
0100
0010
0100
0010
0100
0010
0100
0010
0000
0000
,
1001
0000
0000
0101
0000
0000
1010
0000
0000
1000
0000
0001
0020
0000
0000
1000
0000
0000
0130
0000
0000
0010
0000
0000
,
0002
0000
0000
0100
0000
0000
1000
0000
0000
0013
0000
0000
0110
0000
0000
1001
0000
0000
1000
0000
0010
0100
0000
0001
,
2000
0000
0000
0100
0000
0000
0001
0000
0000
3010
0000
0000
0110
0000
0000
1001
0000
0000
0001
0000
0010
0100
0000
1000
,
0002
0100
2003
0100
3002
0010
2003
0010
,
3200
0000
0000
0001
0000
0000
0010
0000
0000
1300
0000
0000
0100
0000
0010
0100
0000
1000
0001
0000
0100
0010
0000
0000
,
0200
0000
0000
1000
0000
0000
0010
0000
0000
0301
0000
0000
0100
0000
0010
0100
0000
0001
0010
0000
0100
1000
0000
0000
,
0002
0100
0100
1000
2003
0100
0100
0001
,
3020
0100
0230
0000
0302
1000
1003
0000
,
1020
0130
1002
0013
,
2100
0000
0000
0000
0000
0000
3001
0000
0000
0000
0000
0000
1000
0000
0010
0000
0000
1000
0010
0000
0000
0100
0000
0000
,
0002
0013
2100
3010
,
1002
0013
1100
0110
,
0021
0130
2001
3010
,
0102
0000
0000
0000
0000
0000
1003
0000
0000
0000
0000
0000
0001
0000
0010
0000
0000
0001
0010
0000
0000
0100
0000
0000
,
2000
3010
0102
0013
,
2001
3010
0102
2000
,
0000
0000
0000
0000
0000
0000
0000
0000
0000
0003
0000
3000
;

//---------------dance-single - Daff_4K----------------
#NOTES:
     dance-single:
     Daff_4K:
     Challenge:
     16:
     0.692847,0.821836,0.330502,0.707121,1.037624,631.000000,588.000000,43.000000,92.000000,0.000000,0.000000,0.692847,0.821836,0.330502,0.707121,1.037624,631.000000,588.000000,43.000000,92.000000,0.000000,0.000000:
// measure 0
0000
0000
0000
0000
,  // measure 1
0000
0000
0000
0000
,  // measure 2
0000
0000
0000
0000
,  // measure 3
0000
0000
0000
0000
,  // measure 4
2000
0000
0000
3010
0000
1000
0000
0000
0010
0100
0000
0100
0002
0000
0000
1003
0000
0001
0000
0000
1000
0100
0000
0100
,  // measure 5
0020
0000
0000
0031
0000
0010
0000
0000
0001
1000
0000
1000
0020
0000
0000
0130
0000
0010
0000
0000
0100
0001
0000
1000
,  // measure 6
0002
0000
0000
0013
0000
0001
0000
0000
0010
0100
0000
0100
2000
0000
0000
3001
0000
1000
0000
0000
0001
0100
0000
0100
,  // measure 7
0020
0000
0000
1030
0000
0010
0000
0000
1000
0001
0000
0001
0020
0000
0000
0130
0000
0010
0000
0000
0100
1000
0000
0001
,  // measure 8
2000
0000
3010
0200
0000
0301
0000
0000
0010
0100
0000
0100
2000
0000
3001
0200
0000
0310
0000
0000
1000
0100
0000
0100
,  // measure 9
0020
0000
0031
2000
0000
3010
0000
0000
0100
0001
0000
0001
0020
0000
0130
2000
0000
3001
0000
0000
0100
0010
0000
1000
,  // measure 10
0002
0000
0013
0200
0000
1300
0000
0000
0010
0100
0000
0100
0002
0000
1003
0200
0000
0310
0000
0000
0001
0100
0000
0100
,  // measure 11
0020
0000
1030
0001
0000
1000
0200
0000
0310
0001
0000
1000
0002
0000
0103
0010
0000
1000
0002
0000
1003
0100
0000
0010
,  // measure 12
0002
0000
0000
0000
0000
0000
1000
0000
0000
0000
0000
0100
0000
0000
0103
0001
0000
0001
0010
0000
0100
1000
0000
0001
,  // measure 13
2000
0000
0010
0000
0000
0001
0000
0000
3100
1000
0000
1000
0010
0000
0100
0001
0000
0001
0010
0000
0100
0010
0000
0100
,  // measure 14
1000
0000
0010
1000
0000
0010
0100
0000
0001
0100
0000
0001
0010
0000
0100
0010
0000
0100
1000
0000
0001
1000
0000
0001
,  // measure 15
0100
0010
0100
0001
0010
0001
1000
0010
1000
0100
0010
0100
1000
0010
0100
0001
0010
0100
1000
0000
0010
0100
0000
0001
,  // measure 16
2000
0000
0000
3100
0000
0100
0002
0000
0000
0013
0000
0010
2000
0000
0000
3100
0010
0001
0200
0000
0320
0000
1030
0001
,  // measure 17
2000
0000
0000
3001
0000
0010
0100
0010
0001
0100
0010
2000
0200
0000
3300
0202
0000
0303
1001
0000
1000
0100
0001
0100
,  // measure 18
2000
0000
0000
3002
0000
0000
0103
0000
0100
0010
1000
0002
0020
0000
0033
2020
0000
3030
1000
0100
0010
0001
0100
0010
,  // measure 19
2000
0000
0000
3100
0000
0100
0002
0000
0000
0013
0000
0010
1000
0000
0000
0110
0000
0000
1001
0000
0001
0100
0010
1000
,  // measure 20
0200
0000
0000
0310
0000
0100
1000
0001
1000
0001
0100
0010
0200
0000
0000
0301
0010
0100
1000
0001
1000
0010
0100
0001
,  // measure 21
0020
0000
0000
0130
1000
0010
1000
0001
0010
0001
0100
0010
1000
0000
1000
0100
0000
0100
0010
0000
0010
0001
0000
0001
,  // measure 22
2000
0000
0000
3010
0000
0100
0002
0000
0010
0103
0000
0000
1002
0000
0000
0013
0000
0100
1000
0000
0010
0100
0000
0001
,  // measure 23
1000
0100
1000
0001
0100
0001
0010
0100
0010
0001
1000
0001
0100
0010
1000
0100
0010
0001
0100
0000
1000
0100
0000
0000
,  // measure 24
0220
0000
0000
0330
0000
0000
1001
0000
0000
1000
0010
1000
0001
0010
0001
1000
0010
1000
0001
0010
0001
0100
0010
1000
,  // measure 25
0001
0000
0000
1001
0000
1000
0100
0000
0001
0100
0000
0000
0110
0000
0000
1001
0000
0000
0001
0100
1000
0100
0010
0100
,  // measure 26
0002
0000
0000
0013
0000
0000
2100
0000
0000
3010
0000
0000
0110
0000
0000
1001
0000
0000
1000
0100
0010
0001
0100
0010
,  // measure 27
2000
0000
0000
3100
0000
0010
0002
0000
0000
0103
0000
0010
1000
0000
0000
1001
0000
0000
0110
0000
0000
1001
0000
0001
,  // measure 28
0200
0000
0000
1300
0100
0001
0020
0000
0000
0130
1000
0010
0001
0000
0000
0110
0000
0000
1001
0000
1000
0100
0000
0010
,  // measure 29
0002
0000
0000
0103
0000
0000
2010
0000
0000
3100
0000
0000
1001
0000
0001
0100
0000
1000
0100
0000
0001
0010
0000
0100
,  // measure 30
2000
0000
0000
0010
0000
0000
0001
0000
0000
3100
0000
0000
1000
0000
0010
0100
0000
0001
1000
0000
0100
0010
0100
0010
,  // measure 31
0002
0000
0000
0100
0000
0000
1000
0000
0000
0013
0000
0000
0001
0000
0100
0010
0000
1000
0001
0000
0010
0100
0010
0100
,  // measure 32
2000
0000
0000
0010
0000
0000
3001
1000
0001
1000
0100
0010
0002
0000
0000
0100
0000
0000
1003
0001
1000
0001
0010
0100
,  // measure 33
1000
0010
1000
0010
0100
0001
0100
0001
0010
0100
1000
0010
0100
0001
1000
0100
0010
0001
0100
0010
1000
0001
0000
0000
,  // measure 34
1001
0000
0000
1100
0000
0000
0011
0000
0001
1000
0000
1000
0020
0000
0000
0001
0000
0000
0130
0000
0010
1000
0000
1000
,  // measure 35
0200
0000
0000
0001
0000
0000
0010
0000
0000
1300
0000
0100
0010
0000
0010
0001
0000
0001
0100
1000
0100
0010
0100
0001
,  // measure 36
2000
0000
0000
0010
0000
0000
0001
0000
0000
3100
0000
1000
0010
0000
0010
0100
0000
0100
0001
0010
0100
1000
0010
0100
,  // measure 37
0002
0000
0000
0013
0000
0100
2000
0000
0000
3010
0000
0100
0001
0000
0000
0011
0000
0000
1100
0000
0000
1010
0000
0000
,  // measure 38
1002
0000
0000
0100
0000
0000
1000
0000
0000
0013
0000
0001
0100
0000
1000
0100
0000
0001
0010
0000
1000
0010
0000
0001
,  // measure 39
0200
0000
0000
1000
0000
0000
0010
0000
0000
0301
0000
0100
0010
0000
0010
1000
0000
1000
0100
0000
0100
0010
0000
0010
,  // measure 40
0002
0100
1000
0010
2003
0100
0001
0010
,  // measure 41
3200
0000
0000
0001
0000
0000
1000
0000
0000
0010
0000
0000
0320
0000
0000
1000
0000
0000
0031
0000
1000
0000
0000
0000
,  // measure 42
1002
0000
0000
0103
0000
0010
0000
0000
0000
0000
0000
0000
2010
0000
0000
3001
0000
0010
0000
0000
0000
0000
0000
0000
,  // measure 43
0210
0000
0000
1300
0000
0001
0000
0000
0000
0000
0000
0000
0001
0000
0100
0000
0000
0010
1000
0000
0000
0100
0000
0000
,  // measure 44
0120
0000
0000
0031
0000
1000
0000
0000
0000
0000
0000
0000
1020
0000
0000
0130
0000
0001
0000
0000
0000
0000
0000
0000
,  // measure 45
0021
0000
0000
0130
0000
1000
0000
0000
0000
0000
0000
0000
1020
0000
0000
0130
0000
0000
0021
0000
0000
0130
0000
0000
,  // measure 46
2001
0000
0000
3100
0000
0010
0000
0000
0000
0000
0000
0000
0012
0000
0000
1003
0000
0010
0000
0000
0000
0000
0000
0000
,  // measure 47
0210
0000
0000
0301
0000
1000
0000
0000
0000
0000
0000
0000
1000
0000
0100
0000
0000
0010
0001
0000
0000
0100
0000
0000
,  // measure 48
0120
0000
0000
1030
0000
0001
0000
0000
0000
0000
0000
0000
0021
0000
0000
0130
0000
1000
0000
0000
0000
0000
0000
0000
,  // measure 49
1020
0000
0000
0130
0000
0001
0000
0000
0000
0000
0000
0000
2001
0000
0000
3200
0000
0020
0000
0000
0000
0000
0000
0000
,  // measure 50
0000
0000
0000
0000
0000
0000
0000
0000
0000
0030
0000
0300
;
