#TITLE:being torn the sky;
#SUBTITLE:;
#ARTIST:猫叉Master+ feat. JUNE;
#TITLETRANSLIT:;
#SUBTITLETRANSLIT:;
#ARTISTTRANSLIT:;
#GENRE:;
#CREDIT:;
#BANNER:being torn the sky.png;
#BACKGROUND:being torn the sky-bg.png;
#LYRICSPATH:;
#CDTITLE:CDtitle.png;
#MUSIC:Being torn the sky.ogg;
#OFFSET:1.178000;
#SAMPLESTART:78.234001;
#SAMPLELENGTH:14.694000;
#LASTBEATHINT:0.302600;
#SELECTABLE:YES;
#BPMS:0.000000=102.000000
;
#STOPS:
;
#BGCHANGES:;
#KEYSOUNDS:;
#ATTACKS:;

//---------------dance-single - Pandemonium X----------------
#NOTES:
     dance-single:
     :
     Beginner:
     2:
     0.108770,0.168623,0.033104,0.008276,0.004138,92.000000,88.000000,4.000000,1.000000,0.000000,0.000000,0.108770,0.168623,0.033104,0.008276,0.004138,92.000000,88.000000,4.000000,1.000000,0.000000,0.000000:
// measure 0
0000
0000
0000
0000
,  // measure 1
0000
0000
0000
0000
,  // measure 2
0000
0000
0000
0000
,  // measure 3
0000
0000
0000
0000
,  // measure 4
0000
0000
0000
0000
,  // measure 5
0001
0000
0000
0000
,  // measure 6
1000
0000
0000
0000
,  // measure 7
0001
0000
0000
0000
,  // measure 8
0100
0000
0000
0000
,  // measure 9
0010
1000
0000
0000
,  // measure 10
0001
0000
0000
0000
,  // measure 11
0010
0100
0000
0000
,  // measure 12
1000
0000
0001
0000
,  // measure 13
0100
0000
0010
0000
,  // measure 14
0010
0010
0010
0000
,  // measure 15
1000
0000
0000
0000
,  // measure 16
0000
0000
0001
0000
,  // measure 17
1001
0000
0000
0001
,  // measure 18
0000
1000
0000
0010
,  // measure 19
0000
0000
0000
0100
,  // measure 20
0010
0000
1000
0000
,  // measure 21
0100
0000
0010
0000
,  // measure 22
0001
0001
0001
0000
,  // measure 23
1000
0000
0000
0000
,  // measure 24
0000
0000
0000
0000
,  // measure 25
1001
0000
0001
0000
,  // measure 26
1000
0001
1000
0000
,  // measure 27
0100
0000
0010
0000
,  // measure 28
0001
0000
0100
0000
,  // measure 29
0110
0000
0100
0100
,  // measure 30
0010
0100
0010
0100
,  // measure 31
0000
0010
0000
0000
,  // measure 32
0000
1000
0000
0000
,  // measure 33
0001
0000
0000
0000
,  // measure 34
1000
0000
1000
0000
,  // measure 35
1000
0000
0000
0000
,  // measure 36
0001
0000
0001
0000
,  // measure 37
0001
0000
0100
0010
,  // measure 38
1001
0000
0001
0000
,  // measure 39
1000
0100
0010
0001
,  // measure 40
1000
0000
0001
0000
,  // measure 41
0100
0000
0000
0000
,  // measure 42
0010
0000
0100
0000
,  // measure 43
0001
1000
0001
0000
,  // measure 44
1000
0000
0001
0000
,  // measure 45
0010
0000
0100
0010
,  // measure 46
0001
0000
1000
0000
,  // measure 47
0001
0100
0010
1000
,  // measure 48
0100
0000
0010
0000
,  // measure 49
0001
0000
1000
0000
,  // measure 50
0020
0000
0000
0000
0000
0000
0000
0000
0000
0000
0000
0000
0000
0000
0000
0030
;

//---------------dance-single - Pandemonium X----------------
#NOTES:
     dance-single:
     :
     Easy:
     6:
     0.262466,0.357883,0.215175,0.091035,0.000000,222.000000,196.000000,26.000000,11.000000,0.000000,0.000000,0.262466,0.357883,0.215175,0.091035,0.000000,222.000000,196.000000,26.000000,11.000000,0.000000,0.000000:
0000
0000
0000
0000
,
0000
0000
0000
0000
,
0000
0000
0000
0000
,
0000
0000
0000
0000
,
0000
0000
0000
0000
,
0001
1000
0010
0010
,
1000
0001
0100
0100
,
0001
1000
0010
0010
,
1001
0000
0000
0000
,
0001
0000
1010
0000
0000
0000
1000
0100
,
0000
0000
0000
0000
0000
0000
0010
0100
,
0000
1100
0000
0100
,
1000
0000
0010
0000
0100
0001
0000
0010
,
0000
0000
0000
0100
0010
0000
0000
0100
,
0010
0000
0001
0000
1000
0010
0000
0100
,
0000
0000
0000
0010
0100
0100
0001
0000
,
1000
1000
0001
0000
0010
0100
1000
0000
,
0100
0000
1100
0000
0000
0000
1000
0001
,
0100
0000
0101
0000
0001
0000
0010
0001
,
1000
1001
0000
0001
,
0100
0000
1000
0000
0100
0001
0000
1000
,
0000
0000
0000
0001
0010
0000
0000
0001
,
0100
0000
0001
0000
1000
0001
0100
0001
,
0000
0000
0000
1000
0100
0100
0010
0000
,
0001
0001
1000
0000
1001
0000
0110
0000
,
0000
0001
0000
1000
0100
0000
1000
0000
,
0010
1000
0100
1000
0010
1000
0100
0000
,
0010
0000
0100
0000
1000
1000
0001
0000
,
0100
0000
0010
0000
0100
0100
0001
0000
,
0011
0010
0001
0100
,
0001
0010
0100
0010
0001
0010
0100
0000
,
0010
0000
0001
0000
1000
0001
0100
0000
,
0001
0000
1000
0000
0100
1000
0010
0000
,
0100
0000
0000
0010
,
2000
3000
0002
0003
,
0010
0100
1000
0000
1100
0000
0100
0000
,
0020
0030
0200
0300
,
0020
0030
0001
0100
,
0110
0000
0010
1000
0001
0000
0010
0000
,
0110
1100
0101
1010
,
1001
0110
0101
1010
,
0000
0001
0010
0100
1000
0100
0010
0001
,
2000
3000
0002
0003
,
1000
0001
0010
0100
,
2100
3000
0012
0003
,
2002
3003
1000
0001
,
0100
0000
0010
0100
0001
0000
1000
0000
,
0011
0000
1000
0100
0010
0001
0100
0000
,
0001
0011
0101
1010
,
0000
0001
1000
0100
0010
0001
0010
0100
,
1000
0001
1000
0001
1000
0001
1000
0001
;

//---------------dance-single - Pandemonium X----------------
#NOTES:
     dance-single:
     :
     Medium:
     9:
     0.358231,0.400970,0.074484,0.182071,0.182071,303.000000,294.000000,9.000000,22.000000,0.000000,0.000000,0.358231,0.400970,0.074484,0.182071,0.182071,303.000000,294.000000,9.000000,22.000000,0.000000,0.000000:
0000
0000
0000
0000
,
0000
0000
0000
0000
,
0000
0000
0000
0000
,
0000
0000
0000
0000
,
0000
0000
0000
0000
,
0001
0100
0010
1000
0000
0001
0001
0000
,
0010
0100
1000
0001
0000
1000
1000
0000
,
0001
0000
1000
0000
0010
0000
0100
0000
0000
0000
0001
0000
0001
0000
0100
0010
,
0100
0000
0000
1001
0000
1001
0000
0000
,
1000
0000
0000
0000
0001
0100
0001
0000
0000
0000
0000
0000
0100
0000
0010
0000
,
1000
0000
0000
0000
0000
0000
0100
0010
,
0001
0000
0000
0000
0010
0001
0010
0000
0000
0000
0000
0000
0100
0000
0000
0000
,
0010
0000
1000
0000
0001
1000
0100
0000
,
0011
0000
0100
0001
0010
0000
0100
1000
,
0010
0000
0100
0000
0001
1000
0100
1000
,
0001
0000
1000
0000
0001
0100
0010
0000
,
0010
0000
0100
0000
1000
0000
0100
0000
0010
0100
0010
0100
0000
0000
0000
0000
,
1001
0000
0000
0000
1000
0100
1000
0000
0000
0000
0000
0000
0100
0000
1000
0000
,
0010
0000
0000
0000
0100
0001
0100
0000
0000
0000
0000
0000
0001
0000
1000
0000
,
0100
0000
0000
0000
1000
0100
0010
0000
0100
0000
0000
0000
1000
0000
0000
0000
,
0001
0000
0100
0000
0001
0010
0000
0100
,
0000
0000
1000
0001
0010
0000
0100
1000
,
0010
0000
0100
0000
0001
1000
0000
0100
,
0000
0000
0000
0000
0000
0000
0010
0001
1000
0000
0001
0000
0100
0000
0000
0000
,
0001
0100
0001
0100
0010
1000
0010
1000
,
0000
0000
1001
0000
0000
0000
0001
0100
0001
0000
0000
0001
1000
0000
0000
0001
,
0200
0301
0020
0031
0010
0010
0011
0000
,
0000
0000
0000
0000
1000
0100
1000
0000
0010
0000
0100
0000
0001
0000
0000
0000
,
0000
0000
0000
0000
0010
0001
0010
0000
0001
0100
0001
0010
0001
0000
0000
0000
,
0000
0000
1001
0000
0000
0000
1000
0001
0100
0000
0000
0001
0100
0000
0000
0001
,
0020
0130
0020
0130
1000
1000
0100
0000
,
1000
0000
0000
0000
0001
0000
0100
0000
0010
1000
0010
0100
0010
0000
0000
0000
,
0000
0000
0000
0000
1000
0000
0001
0000
0010
0001
0100
0001
0010
0000
0000
0000
,
0000
0100
0000
1000
0001
0100
0001
0000
,
0020
0000
0000
0000
0000
0000
0031
1000
0200
0000
0000
0000
0000
0000
0310
0001
,
1000
0000
0001
0000
0100
0000
0000
0100
0001
0000
0000
0000
0010
0000
0000
0000
,
0200
0000
0000
0000
0000
0000
0310
0001
0200
0000
0000
0000
0000
0000
0310
1000
,
0200
0000
0000
0000
0000
0000
0310
0001
1000
0000
0001
0000
0010
0000
0100
0000
,
1000
0000
1100
0000
1000
0010
0100
0000
,
0101
0000
0000
1000
0010
0000
0100
0000
0001
0000
0010
0000
0100
0000
1000
0000
,
0001
0000
0000
0000
1000
0000
0000
0001
0010
0000
0000
0100
1000
0000
0000
0000
,
0000
0100
1000
0010
0100
0001
0010
0100
,
2000
0000
0000
0000
3010
0000
1000
0100
0020
0000
0000
0000
0130
0000
0010
0001
,
0010
0000
0100
0000
0010
0000
0000
0010
0001
0000
0000
0000
0100
0000
0000
0000
,
0002
0000
0000
0000
1003
0000
1000
0001
0020
0000
0000
0000
0130
0000
0100
1000
,
0020
0000
0000
0000
0130
0000
0100
0010
1000
0000
0001
0000
0010
0000
0100
0000
,
1000
0000
0000
0000
0100
0000
1000
0100
0010
0000
0000
0000
0001
0000
0000
0000
,
0100
0000
0000
0001
0100
0000
0010
0000
1000
0000
0001
0000
0010
0000
0100
0000
,
1000
0000
0000
0001
0010
0000
0000
0100
1000
0000
0000
1000
0010
0000
0000
0010
,
0100
0001
1000
0100
0010
0100
1000
0001
,
2000
3200
0320
0032
2003
3200
0320
0032
,
0003
0000
0000
0000
;

//---------------dance-single - Pandemonium X----------------
#NOTES:
     dance-single:
     :
     Hard:
     14:
     0.511927,0.632335,0.281382,0.190347,0.504833,433.000000,399.000000,34.000000,23.000000,2.000000,0.000000,0.511927,0.632335,0.281382,0.190347,0.504833,433.000000,399.000000,34.000000,23.000000,2.000000,0.000000:
0000
0000
0000
0000
,
0000
0000
0000
0000
,
0000
0000
0000
0000
,
0000
0000
0000
0000
,
0000
0000
0000
0000
,
0001
0010
0001
1000
0000
0001
0001
0000
,
1000
0010
1000
0100
0000
1000
0010
0000
,
1000
0000
0000
0100
0000
0000
1000
0000
0000
0010
0000
0000
0000
0000
0000
0100
0000
0000
0001
0000
0000
0010
0100
0010
,
0001
0000
0000
0011
0000
1010
0000
0000
,
1001
0000
0000
0000
0000
0000
1000
0010
1000
0100
0000
0000
0010
0000
0000
0000
0000
0000
0001
0000
0000
0010
0000
0000
,
0100
0000
0010
0001
0100
0000
0010
1000
,
0001
0000
0000
0000
0000
0000
1000
0001
1000
0100
0000
0000
0010
0000
0000
0000
0000
0000
0100
0000
0000
0000
0000
0000
,
0020
0000
0032
0000
0103
0001
1000
0100
,
0010
0000
0100
1000
1010
0000
0100
0001
,
0011
0000
1100
0000
0100
1000
0001
0100
,
0001
0000
0000
0000
0000
0000
1000
0001
0010
0001
0100
0001
1000
0010
1000
0001
,
1000
0100
0010
0001
0100
0010
1000
0001
0010
0010
0001
0010
0000
0000
0000
0000
,
1100
0000
0000
0000
0000
0000
0100
1000
0001
1000
0000
0000
0001
0000
0000
0000
0000
0000
0100
0000
0000
0001
0000
0000
,
0010
0000
0100
1000
0010
0000
0100
0001
,
1000
0000
0000
0000
0000
0000
0001
1000
0001
0010
0000
0000
0000
0000
0000
0000
0000
0000
0200
0000
0000
0000
0000
0000
,
2300
0000
3002
0000
0103
0100
0001
1000
,
1100
0000
1000
0001
0101
0000
0001
1000
,
1100
0000
1001
0000
0001
0011
0000
1010
,
0000
0000
0000
0000
0000
0000
0001
0100
0010
1000
0010
0100
0001
1000
0010
1000
,
0001
0010
0001
1000
0001
0010
0100
1000
0100
0010
0001
1000
0010
0100
0001
1000
,
0100
0000
1001
0000
0000
0000
0001
0100
0100
0000
0000
010M
1000
0000
0000
0001
,
0100
0000
0010
0000
0100
0000
0001
0000
0000
0000
0000
0000
1000
0000
0100
0000
1000
0000
0010
0000
0000
0000
0000
0000
1000
0000
0000
1000
0000
0000
1000
0000
0000
0000
0000
0000
0110
0000
0000
0000
0000
0000
2000
0000
0000
0000
0000
0000
,
3001
0000
0000
0000
0000
0000
1001
0000
0000
0000
0000
0000
0001
0000
0010
0000
0001
0000
1000
0000
0000
0001
0000
0000
1000
0000
0000
0100
0000
0000
0001
0000
0000
0100
0000
0000
1000
0000
0000
0000
0000
0000
0001
0000
0000
0000
0000
0000
,
0110
0000
0000
0000
0000
0000
0000
0000
0000
0000
0000
0000
1000
0000
0100
0000
1000
0000
0001
0000
0000
1000
0000
0000
0010
0000
0000
0001
0000
0000
0010
0000
0000
1000
0000
0000
0001
0000
0000
0000
0000
0000
0000
0000
0000
0000
0000
0000
,
0010
0000
1001
0000
0000
0000
0001
0100
0100
0000
0000
010M
1000
0000
0000
0001
,
0010
0000
0100
0000
0010
0000
0001
0000
0000
0000
0000
0000
1000
0000
0010
0000
1000
0000
0100
0000
0000
0000
0000
0000
0010
0000
0000
0010
0000
0000
0010
0000
0000
0000
0000
0000
0110
0000
0000
0000
0000
0000
2000
0000
0000
0000
0000
0000
,
3001
0000
0000
0000
0000
0000
1001
0000
0000
0000
0000
0000
0001
0000
0100
0000
0001
0000
1000
0000
0000
0001
0000
0000
1000
0000
0000
0010
0000
0000
0001
0000
0000
0010
0000
0000
1000
0000
0000
0000
0000
0000
0001
0000
0000
0000
0000
0000
,
0101
0000
0000
0000
0000
0000
0000
0000
0000
0000
0000
0000
1000
0000
0010
0000
1000
0000
0001
0000
0000
1000
0000
0000
0100
0000
0000
0001
0000
0000
0100
0000
0000
1000
0000
0000
0001
0000
0000
0000
0000
0000
0000
0000
0000
0000
0000
0000
,
1001
0000
0001
0000
0000
0000
1000
0010
0100
0000
0010
0000
2000
0000
0000
0000
,
3002
0000
0000
0000
0013
0000
0001
0010
0200
0000
0000
0000
1300
0000
0100
1000
,
0010
0000
0100
0000
0002
0000
0000
1000
2003
0000
0000
0000
3100
0000
0000
0000
,
0021
0000
0000
0000
0130
0000
1000
0010
0200
0000
0000
0000
0301
0000
0001
1000
,
0200
0000
0000
0000
0310
0000
0001
0100
0010
0000
1000
0000
0100
0000
0010
0000
,
0011
0000
1100
0000
1000
0010
0110
0000
,
1001
0000
0000
0000
0000
0000
0000
0000
1000
0000
0001
0000
1000
0000
0000
0100
0000
0000
0010
0000
0000
0001
0000
0000
0010
0000
0000
0000
0000
0000
1000
0000
0000
0000
0000
0000
0010
0000
0000
0000
0000
0000
0001
0000
0000
0000
0000
0000
,
1001
0000
0000
0000
0000
0000
0101
0000
0000
0000
0001
0100
0010
0000
0000
0000
0100
0010
1000
0000
0000
0000
0000
0000
,
0000
0000
0001
0010
0001
0100
0010
1000
0001
0010
0100
0010
0001
0100
0010
1000
,
0002
0000
0000
0000
1003
0000
0001
0100
0020
0000
0000
0000
0130
0000
0010
1000
,
0100
0000
0010
0000
0002
0000
0000
0010
0023
0000
0000
0000
0230
0000
0000
0000
,
2300
0000
0000
0000
3010
0000
0100
0001
2000
0000
0000
0000
3001
0000
1000
0001
,
0020
0000
0000
0000
0130
0000
1000
0010
0100
0000
0001
0000
0010
0000
0100
0000
,
1100
0000
0000
0000
0011
0000
0000
0000
0001
0000
0100
0010
1000
0000
0000
0000
,
1001
0000
0000
0000
0000
0000
0000
0000
0001
0000
1000
0000
0001
0000
0000
0010
0000
0000
0100
0000
0000
1000
0000
0000
0100
0000
0000
0000
0000
0000
0001
0000
0000
0000
0000
0000
0100
0000
0000
0000
0000
0000
1000
0000
0000
0000
0000
0000
,
1001
0000
0000
0000
0000
0000
1010
0000
0000
0000
1000
0010
0100
0000
0000
0000
0010
0100
0001
0000
0000
0000
0000
0000
,
0000
0000
1000
0100
1000
0010
0100
0001
1000
0100
0010
0100
1000
0010
0100
0001
,
1000
0100
1000
0100
0010
0100
0010
0100
0010
0001
0010
0001
1000
0100
0010
0001
;
