#TITLE:絶望性:ヒーロー治療薬;
#SUBTITLE:;
#ARTIST:スズム feat. そらる;
#TITLETRANSLIT:Zetsubousei hero chiryouyaku;
#SUBTITLETRANSLIT:;
#ARTISTTRANSLIT:Suzumu feat. Soraru;
#GENRE:;
#CREDIT:;
#MUSIC:Zetsubousei hero chiryouyaku.ogg;
#BANNER:Zetsubousei hero chiryouyaku.png;
#BACKGROUND:Zetsubousei hero chiryouyaku-bg.png;
#CDTITLE:;
#SAMPLESTART:55.456;
#SAMPLELENGTH:15.000;
#SELECTABLE:YES;
#OFFSET:1.024;
#BPMS:0.000=205.000;
#STOPS:;
#BGCHANGES:;
#FGCHANGES:;

//--------------- dance-single - chrononical ----------------
#NOTES:
     dance-single:
     chrononical:
     Beginner:
     5:
     0,0,0,0,0:
0000
0000
0000
0000
,
0000
0000
0000
0000
,
0000
0000
0000
0000
,
0000
0000
0000
0000
,
0000
0000
0000
0000
,
0000
0000
0000
0000
,
0000
0000
0000
0000
,
0000
0000
0000
0000
,
0000
0000
0000
0000
0000
0000
0000
1000
,
0000
0000
0000
0000
0100
0000
0000
0100
,
0000
0000
0000
0000
0010
0000
0000
0010
,
0000
0000
0000
0000
0001
0000
0000
0001
,
0000
0000
0100
0000
0100
0000
0000
0001
,
0000
0000
0000
0000
0100
0000
0000
0100
,
0000
0000
0000
0000
0010
0000
0000
0010
,
0000
0000
0000
0000
1000
0000
0000
1000
,
0000
0000
0100
0000
0100
0000
0000
1000
,
0000
0000
0001
0000
,
0100
0000
0000
0000
0010
0000
0000
1000
,
0000
0000
0100
0000
,
0010
0000
0000
0000
0001
0000
0000
1000
,
0000
0000
0010
0000
,
0100
0000
0000
0000
0001
0000
0000
1000
,
0000
0000
0100
0000
,
0010
0000
0000
0000
0001
0000
0000
2000
,
0000
0000
3010
0000
,
0100
0000
0001
0000
,
0000
0000
1000
0000
,
0100
0000
0010
0000
,
0000
0000
0001
0000
,
0100
0000
0010
0000
,
0000
0000
0000
0000
1000
0000
0000
2002
,
0000
0000
0000
0000
0000
3003
0000
0002
,
0000
0003
0010
0000
,
0100
0000
0000
0000
1000
0000
0000
0002
,
0000
0003
0100
0000
,
0010
0000
0000
0000
0001
0000
0000
0020
,
0000
0030
1000
0000
,
0100
0000
0000
0000
0010
0000
0000
0200
,
0000
0000
0300
0000
0010
0000
0000
0002
,
0000
0000
0003
0000
1000
0000
0000
1001
,
0000
0000
0001
0000
,
0100
0000
0010
0000
,
1000
0000
0100
0000
,
0010
0000
0001
0000
,
0100
0100
0100
0000
,
0010
0010
0010
0000
,
1000
0000
1000
0000
1000
0000
0000
2002
,
0000
0000
0000
0000
3003
0000
0000
1001
,
0000
0000
0000
0000
0001
0000
0000
0010
,
0000
0100
0000
0010
0000
0000
0000
0000
,
0100
0000
0000
0000
0010
0000
0000
0100
,
0000
0000
0000
0001
0000
0000
0000
0200
,
0000
0000
0000
0000
1300
0000
0000
0020
,
0000
0000
0000
0000
1030
0000
0000
0002
,
0000
0000
0000
0000
1003
0000
0000
1001
,
0000
0000
0000
0000
1000
0000
0000
1001
,
0000
0000
0000
0000
0001
0000
0000
0100
,
0000
0010
0000
0100
0000
0000
0000
0000
,
0010
0000
0000
0000
0100
0000
0000
0010
,
0000
0000
0000
0001
0000
0000
0000
0020
,
0000
0000
0000
0000
1030
0000
0000
0200
,
0000
0000
0000
0000
1300
0000
0000
0020
,
0000
0000
0000
0000
1030
0000
0000
1001
,
0000
0000
0000
0000
0001
0000
0000
2002
,
0000
0000
0000
0000
0000
3003
0000
2000
,
0000
0000
0000
0000
0000
0000
0000
3200
,
0000
0000
0000
0000
0000
0000
0000
0320
,
0000
0000
0000
0000
0000
0000
0000
0032
,
0000
0000
0000
0000
0000
0000
0000
0203
,
0000
0000
0000
0000
0000
0000
0000
0320
,
0000
0000
0000
0000
0000
0000
0000
2030
,
0000
0000
0000
0000
0000
0000
0000
3001
,
0000
0000
0100
0000
,
0010
0000
0000
0000
1000
0000
0000
0100
,
0000
0000
0100
0000
0100
0000
0000
0010
,
0000
0000
0000
0000
0001
0000
0000
0200
,
0000
0000
0300
0000
0001
0000
0000
0020
,
0000
0000
0030
0000
0001
0000
0000
0200
,
0000
0000
0300
0000
0010
0000
0000
2000
,
0000
0000
3000
0000
0001
0000
0000
1001
,
0000
0000
0001
0000
,
0010
0000
0100
0000
,
1000
0000
0010
0000
,
0100
0000
0001
0000
,
0010
0010
0010
0000
,
0100
0100
0100
0000
,
1000
0000
1000
0000
1000
0000
0000
0001
,
0000
1000
0000
0000
0010
0000
0000
0100
,
0000
0000
0000
0000
0000
0000
0000
0002
,
0000
0000
0000
0000
0000
0000
0000
0023
,
0000
0000
0000
0000
0000
0000
0000
0230
,
0000
0000
0000
0000
0000
0000
0000
0310
,
0000
0000
0000
1000
0000
0000
0000
0020
,
0000
0000
0031
0000
0000
0000
0000
0200
,
0000
0000
0000
0000
0301
0000
0000
0020
,
0000
0000
0000
0000
0031
0000
0000
2002
,
0000
0000
0000
0000
3003
0000
0000
1000
,
0000
0000
0000
0000
0010
0000
0000
0010
,
0000
0000
0000
0000
0100
0000
0000
0100
,
0000
0000
0000
0000
0001
0000
0000
0001
,
0000
0000
0010
0000
0010
0000
0000
0001
,
0000
0000
0010
0000
0100
0000
0000
1000
,
0000
0000
0010
0000
0100
0000
0000
0001
,
0000
0000
0010
0000
0100
0000
0000
2000
,
0000
0000
0000
0000
0000
3000
0000
2002
,
0000
0000
0000
0000
,
0000
0000
3003
0000
;

//--------------- dance-single - chrononical ----------------
#NOTES:
     dance-single:
     chrononical:
     Easy:
     9:
     0,0,0,0,0:
0000
0000
0000
0000
,
0000
0000
0000
0000
,
0000
0000
0000
0000
,
0000
0000
0000
0000
,
0000
0000
0000
0000
,
0000
0000
0000
0000
,
0000
0000
0000
0000
,
0000
0000
0000
0000
,
0000
0000
0000
0000
0000
0000
0000
2001
,
0000
3001
0100
0000
0010
0000
0000
1002
,
0000
1003
0100
0000
0010
0000
0000
2001
,
0000
3001
0100
0000
0010
0000
0000
0210
,
0000
0310
1000
0000
0001
0000
0000
0021
,
0000
0130
1000
0000
0001
0000
0000
0201
,
0000
0310
1000
0000
0001
0000
0000
0021
,
0000
0130
1000
0000
0010
0000
0000
0120
,
0000
0130
0001
0000
1000
0000
0000
1002
,
0000
0013
0100
0000
1000
0000
0001
0000
,
1000
0000
0010
0000
0100
0000
0000
2001
,
0000
3100
0010
0000
0001
0000
1000
0000
,
0001
0000
0100
0000
0010
0000
0000
1002
,
0000
0103
0010
0000
1000
0000
0001
0000
,
1000
0000
0100
0000
0010
0000
0000
2001
,
0000
3010
0100
0000
0001
0000
1000
0000
,
0001
0000
0010
0000
0100
0000
0000
2002
,
0000
3003
1000
0000
,
0010
0000
0000
0000
0100
0000
0000
0100
,
0000
0100
0000
0000
0001
0000
0000
0000
,
0010
0000
0000
0000
0100
0000
0000
1000
,
0000
1000
0000
0000
1000
0000
0000
0000
,
0100
0000
0000
0000
0010
0000
0000
0010
,
0000
0010
0000
0000
0001
0000
0000
2001
,
0000
0000
0010
0000
3010
0000
0000
1002
,
0000
0013
0010
0100
,
0100
0000
1000
0000
1000
0000
0000
2001
,
0000
3010
0010
0100
,
0100
0000
1000
0000
0100
0000
0000
1002
,
0000
0013
0010
0100
,
0100
0000
1000
0000
1000
0000
0000
2001
,
0000
0000
3010
0000
0100
0000
0000
1002
,
0000
0000
0013
0000
0100
0000
0000
1002
,
0000
0013
0100
0000
1000
0000
0000
0001
,
0000
0100
0000
1000
0000
0001
0000
0020
,
0000
0000
1030
0000
0100
0000
0000
0020
,
0000
0000
0031
0000
0100
0000
0000
0120
,
0000
0000
1030
0000
0100
0000
0000
0120
,
0000
0000
0031
0000
0100
0000
0000
0120
,
0000
0000
0130
0000
0001
0000
1000
0001
,
0000
0000
0000
0000
0000
0000
0000
2001
,
0000
0000
3100
0000
0010
0000
0000
0001
,
0000
0010
0000
0100
0000
1000
0000
1000
,
0000
0000
0010
0000
0100
0000
0000
1000
,
0000
0100
0000
0010
0000
1000
0000
1002
,
0000
0000
0013
0000
0100
0000
0000
1000
,
0000
0010
0000
0001
0000
1000
0000
0200
,
0000
0000
0301
0000
0010
0000
0000
2001
,
0000
0000
3001
0000
0100
0000
0000
1002
,
0000
0000
0013
0000
0100
0000
0000
1000
,
0000
0100
0000
0010
0000
0001
0000
0001
,
0000
0000
0100
0000
0010
0000
0000
0001
,
0000
0010
0000
0100
0000
0001
0000
2001
,
0000
3001
0010
0002
,
0000
1003
0010
2000
,
0000
0000
3100
0000
0010
0000
0001
2000
,
0000
0000
3010
0000
0100
0000
0000
2002
,
0000
0000
0000
0000
0003
0000
0000
3200
,
0000
0000
0000
0000
0000
0320
0000
0032
,
0000
0000
2003
0000
3020
0000
0000
2030
,
0000
0000
0000
0000
0000
0000
0002
0000
0000
0000
0000
3003
0000
0000
1002
0000
,
0000
0000
0023
0000
0230
0000
0000
0302
,
0000
0000
0203
0000
0320
0000
0000
0032
,
0000
0000
0203
0000
0320
0000
1030
0002
,
0000
0000
0000
0023
0000
0000
0130
2000
,
0000
3001
0100
1000
,
0010
0000
0001
0000
1000
0000
0001
0200
,
0000
0300
0100
0000
0100
0000
0100
0020
,
0000
0000
1030
0000
0100
0000
0000
1002
,
0000
0000
0103
0000
0010
0000
0000
2001
,
0000
0000
3100
0000
0010
0000
0000
1002
,
0000
0000
0103
0000
0010
0000
0000
2001
,
0000
0000
3100
0000
0100
0000
0000
1002
,
0000
0103
0010
0000
1000
0000
0000
0001
,
0000
0010
0000
1000
0000
0001
0000
0200
,
0000
0000
1300
0000
0010
0000
0000
0200
,
0000
0000
0301
0000
0010
0000
0000
0120
,
0000
0000
0031
0000
0100
0000
0000
0120
,
0000
0000
1030
0000
0100
0000
0000
0120
,
0000
0000
0031
0000
0100
0000
0001
1000
,
0000
0001
0000
0000
0100
0000
0000
0010
,
0100
0000
0000
0000
0000
0000
0000
2001
,
0000
0000
0000
0000
0000
0000
0000
3200
,
0000
0000
0000
0000
0000
0000
0000
0320
,
0000
0000
0000
0000
0000
0000
0000
1030
,
0000
0010
0000
0001
0000
1000
0000
1002
,
0000
0103
0010
2000
,
0000
3100
0010
0002
,
0000
0000
0103
0000
0010
0000
0000
2002
,
0000
0000
0000
0000
3003
0000
0000
2001
,
0000
3001
0010
0000
0100
0000
0000
1002
,
0000
1003
0010
0000
0100
0000
0000
2001
,
0000
3001
0010
0000
0100
0000
0000
0210
,
0000
0310
0001
0000
0100
0000
0000
0201
,
0000
0310
1000
0000
1001
0000
0000
0021
,
0000
0130
1000
0000
1001
0000
0000
0201
,
0000
0310
1000
0000
0100
0000
0000
0220
,
0000
0000
0000
0000
0000
0330
0000
2002
,
0000
0000
0000
0000
,
0000
0000
3003
0000
;

//--------------- dance-single - chrononical ----------------
#NOTES:
     dance-single:
     chrononical:
     Medium:
     13:
     0,0,0,0,0:
0000
0000
0000
0000
,
0000
0000
0000
0000
,
0000
0000
0000
0000
,
0000
0000
0000
0000
,
0000
0000
0000
0000
,
0000
0000
0000
0000
,
0000
0000
0000
0000
,
0000
0000
0000
0000
,
0000
0000
0000
0000
0000
0000
0000
1002
,
0000
0103
0001
0000
1000
0100
0010
1000
,
0000
1000
0010
0000
0001
0100
0010
0001
,
0000
0001
0010
0000
1000
0100
0010
1000
,
0000
1000
0010
0001
1000
0010
0100
1000
,
0000
1000
0100
0000
0001
0010
0100
0001
,
0000
0001
0100
0000
1000
0010
0100
1000
,
0000
1000
0100
0000
0001
0010
0100
0001
,
0000
0001
0100
1000
0001
0100
0010
0200
,
0000
0301
1000
0100
0010
0001
1000
0000
,
0001
1000
0010
0100
0001
1000
0100
0020
,
0000
0031
1000
0100
0010
0001
1000
0000
,
0001
1000
0010
0100
0001
1000
0001
2000
,
0000
3001
1000
0100
0010
0100
1000
0000
,
0001
1000
0010
0100
0010
1000
0001
2000
,
0000
3001
1000
0100
0010
0100
1000
0000
,
0001
1000
0010
0100
0010
1000
0001
0200
,
0000
0310
0100
0001
,
1000
0000
0100
0000
0010
0000
0001
1000
,
0000
0001
0010
0000
0100
0000
1000
0000
,
0001
0000
0100
0000
0010
0000
1000
0001
,
0000
1000
0100
0000
0010
0000
0001
0000
,
1000
0000
0010
0000
0100
0000
0001
1000
,
0000
0001
0010
0000
0100
0000
1000
0001
,
0000
0100
0010
0100
0001
0000
0010
2000
,
0000
3010
0001
0010
0100
1000
0010
0000
,
0100
0001
0010
0000
0100
1000
0010
0002
,
0000
0013
1000
0010
0100
0001
0010
0000
,
0100
1000
0010
0000
0100
0001
0010
2000
,
0000
3010
0001
0010
0100
1000
0010
0000
,
0100
0001
0010
0000
0100
1000
0010
0002
,
0000
0013
1000
0010
0100
0001
0000
2001
,
0000
3100
0010
0001
1000
0000
0000
1002
,
0000
1003
0010
0000
0001
0010
0100
0010
,
0000
2100
0000
3010
0000
0102
0000
0023
,
0000
0130
1000
0001
0200
0000
0310
0200
,
0000
0310
1000
0001
0020
0000
0130
0020
,
0000
1030
0010
0001
2000
0000
3010
0200
,
0000
1300
0100
0001
2000
0000
3100
0020
,
0000
1030
0010
0000
0010
0001
0100
0010
,
0000
0000
0000
0000
0000
0000
0000
2001
,
0000
3100
0010
0000
0010
0001
1000
0020
,
0000
0230
0000
0302
0000
1003
0100
0010
,
0000
0001
0010
0000
0010
0100
1000
0020
,
0000
0230
0000
2300
0000
3100
0000
1002
,
0000
0013
0200
0000
0302
0000
0103
1000
,
0000
1100
0000
0100
0000
0110
0000
2001
,
0000
3010
0100
0000
1000
0100
0010
2000
,
0000
3100
0010
0001
1000
0000
0001
2001
,
0000
3010
0100
0000
0100
0001
1000
0200
,
0000
0320
0000
0032
0000
1003
0010
0100
,
0000
0001
0100
0000
0100
0010
1000
0200
,
0000
0302
0000
0203
0000
0310
0000
1002
,
0000
0103
0010
0000
0100
0000
1000
0200
,
0000
0310
1000
0000
0100
0000
0001
0200
,
0000
0310
0001
1000
0010
0000
0100
0002
,
0000
1003
0100
0010
0001
0000
1000
0010
,
0000
0100
0001
0000
1000
0000
0100
0000
,
0010
0000
0100
0000
1000
0000
0010
1000
,
0000
1000
0100
0000
0010
0000
0010
0001
,
0000
0001
0100
0002
0000
2003
3000
1002
,
0000
0013
0100
1000
0001
0000
0100
2000
,
0000
3100
0020
0000
1030
0000
0100
0002
,
0000
0103
0020
0000
0031
0000
0100
0020
,
0000
0000
1030
0001
0000
0001
1000
0200
,
0000
0310
0001
0000
0100
0001
1000
0000
,
0010
1000
0001
0000
0100
0000
0001
0020
,
0000
0130
1000
0001
0100
0010
1000
0002
,
0000
0000
0000
0000
0013
0000
0100
2000
,
0000
3001
0100
0000
0110
0000
0010
2000
,
0000
3100
0010
0000
0110
0000
0100
2000
,
0000
3010
0100
0000
0001
1000
0100
0020
,
0000
0031
1000
0000
0010
0000
1000
1002
,
0000
1003
0100
0000
0001
0100
0010
0100
,
0000
2010
0000
3100
0000
0012
0000
0203
,
0000
0310
1000
0001
0020
0000
0130
0020
,
0000
0130
1000
0001
0200
0000
0310
0200
,
0000
1300
0100
0001
2000
0000
3100
0020
,
0000
1030
0010
0001
2000
0000
3010
0200
,
0000
1300
0100
0000
0100
0001
0010
0100
,
0000
0000
1000
0000
0000
0100
0000
0000
0001
0000
0000
1000
0000
0000
0010
0000
,
0001
0000
0000
0000
0000
0000
0000
2001
,
0000
0000
0000
0000
0000
0000
0000
3200
,
0000
0000
0000
0000
0000
0000
0000
0320
,
0000
0000
0000
0000
0000
0000
0000
0230
,
0000
0302
0000
0203
0000
0310
0000
1002
,
0000
0103
0010
0000
0010
0000
0001
0020
,
0000
1030
0100
0000
0100
0000
0001
0200
,
0000
0310
0001
0000
1000
0000
0001
2001
,
0000
0000
0000
0000
0002
0000
3003
1002
,
0000
0013
0001
0000
1000
0010
0100
1000
,
0000
1000
0100
0000
0001
0010
0100
0001
,
0000
0001
0100
0000
1000
0010
0100
1000
,
0000
1000
0100
0001
1000
0100
0010
0100
,
0000
0100
0110
0000
1001
0000
0001
0100
,
0000
0100
0120
0000
1030
0100
0010
0100
,
0000
0100
0120
0000
0031
0100
0010
0200
,
0000
0000
0000
0000
0000
0000
0300
2002
,
0000
0000
0000
0000
,
0000
0000
3003
0000
;

//--------------- dance-single - chrononical ----------------
#NOTES:
     dance-single:
     chrononical:
     Hard:
     16:
     0,0,0,0,0:
0000
0000
0000
0000
,
0000
0000
0000
0000
,
0000
0000
0000
0000
,
0000
0000
0000
0000
,
0000
0000
0000
0000
,
0000
0000
0000
0000
,
0000
0000
0000
0000
,
0000
0000
0000
0000
,
0000
0000
0000
0000
0000
0000
0000
2001
,
0000
0000
3010
0000
1000
0000
0001
0000
1000
0100
0010
0100
1000
0000
1200
0000
,
0000
0000
0310
0000
0001
0000
1000
0000
0001
0100
0010
0100
0001
0000
0201
0000
,
0000
0000
0310
0000
1000
0000
0001
0000
1000
0100
0010
0100
1000
0000
1200
0000
,
0000
0000
0310
0001
1000
0000
0010
0000
0001
0000
0010
0000
0100
0000
0120
0000
,
0000
0000
1030
0000
0100
0000
0010
0000
0001
0010
0100
0010
0001
0000
0021
0000
,
0000
0000
0130
0000
1000
0000
0001
0000
1000
0010
0100
0010
1000
0000
1020
0000
,
0000
0000
0130
0000
0001
0000
1000
0000
0001
0010
0100
0010
0001
0000
0021
0000
,
0000
0000
0130
1000
0001
0000
0100
0000
1000
0000
0100
0000
0010
0000
2010
0000
,
0000
3001
0010
1000
0001
0100
1000
0001
,
1000
0010
0001
1000
0100
0001
0010
0012
,
0000
1003
0100
0001
1000
0010
0001
1000
,
0001
0000
0100
0000
1000
0000
0001
0000
0010
0000
0100
0001
1000
0000
2100
0000
,
0000
3001
0010
1000
0001
0100
1000
0001
,
1000
0010
0001
1000
0100
0001
0010
0012
,
0000
1003
0100
0001
1000
0010
0001
1000
,
0001
0000
0100
0010
1000
0000
0001
0010
0100
0000
1000
0000
0001
0000
2001
0000
,
0000
3001
0100
0100
,
0010
0000
0010
0000
1000
0000
1000
0001
,
0000
0001
1000
0000
0100
0000
0100
0000
,
0010
0000
0010
0000
0001
0000
0001
1000
,
0000
1000
0001
0000
0010
0000
0010
0000
,
0100
0000
0100
0000
1000
0000
1000
0001
,
0000
0001
1000
0000
0010
0000
0010
0210
,
0000
0000
0301
1000
0001
0000
0010
0100
1000
0000
0001
0000
0100
0000
0102
0000
,
0000
0103
0001
1000
0010
1000
0100
0010
,
0100
1000
0010
0100
0001
1000
0100
0110
,
0000
0012
1003
0001
0010
0001
0100
0010
,
0100
0001
0010
0100
0001
0100
0010
0110
,
0000
2100
3001
1000
0100
1000
0010
0100
,
0010
1000
0100
0010
0001
1000
0001
0011
,
0000
1100
0100
0010
0001
0101
0000
1020
,
0000
0000
0130
0000
1000
0000
0001
0000
0010
0000
0100
0010
0100
0000
0120
0000
,
0000
1030
0100
0010
1000
0010
0100
1100
,
0000
1001
0000
0101
0000
0011
0010
0200
,
0000
0310
0100
1000
0001
0100
0010
0200
,
0000
0310
0100
0001
1000
0100
0010
0120
,
0000
1030
0010
0001
1000
0010
0100
0120
,
0000
0031
0010
1000
0001
0010
0100
0210
,
0000
1300
0100
0001
1000
0010
0001
1002
,
0000
0000
0203
0000
0320
0000
1030
1002
,
0000
0013
0100
1000
0100
0010
0001
0011
,
0000
1001
0000
1020
0000
0130
0001
1002
,
0000
0013
0100
1000
0010
0100
1000
1100
,
0000
0110
0000
0101
0000
1001
0000
0021
,
0000
0130
1000
0010
0100
0010
1000
0200
,
0000
0310
0001
0100
0010
0100
0001
0020
,
0000
0130
1000
0010
0100
0010
1000
1002
,
0000
0000
0013
0100
1000
0000
0100
0000
0001
0000
0100
0000
1000
0000
2001
0000
,
0000
3010
0100
0001
0100
0010
1000
1010
,
0000
1001
0000
0021
0000
0130
1000
2001
,
0000
3010
0100
0001
0010
0100
0001
0101
,
0000
0110
0000
1100
0000
1001
0000
1020
,
0000
0130
0001
0010
0100
0010
0001
0200
,
0000
0310
1000
0100
0010
0100
1000
0020
,
0000
0000
0130
0000
0001
0000
0010
0000
0100
0000
0010
0001
1000
0000
1002
0000
,
0000
0000
0103
0010
1000
0000
0001
0000
0010
0100
1000
0000
0001
0000
0201
0000
,
0000
0301
0100
0000
0010
1000
0001
0000
,
0010
0100
1000
0000
0100
0010
0100
0002
,
0000
0103
0010
0100
1000
0010
0100
1000
,
0100
0010
1000
0002
0000
2003
3000
2001
,
0000
3100
0010
0100
1000
0001
0100
2000
,
0000
3100
0020
0000
1030
0100
0010
2000
,
0000
3010
0001
1000
0010
0100
0001
1002
,
0000
0000
0103
0000
0010
0000
2000
0000
0000
0000
3100
0010
0001
1000
0002
0000
,
0000
0000
1003
0000
0010
0000
1000
0001
0100
0000
0001
1000
0100
0000
1000
0001
,
0010
0000
0001
1000
0010
0000
0100
0010
1000
0000
0001
0000
0010
0100
1000
0002
,
0000
0000
0103
0010
1000
0001
0010
0100
0010
0001
1000
0020
,
0000
0000
1030
0000
0001
0000
0100
0000
0001
1000
0100
0000
0010
0000
0012
0000
,
0000
0013
0100
1000
0100
0010
0001
0102
,
0000
0103
0010
1000
0010
0100
0001
0012
,
0000
1003
0100
0010
0100
1000
0010
2010
,
0000
0000
3001
0000
0100
0000
0010
0000
0100
0000
0001
0010
0100
0000
0120
0000
,
0000
0031
0100
0010
0001
0010
0100
0101
,
0000
1001
0000
1100
0000
1010
0010
0200
,
0000
0310
0100
0001
1000
0100
0010
0200
,
0000
0310
0100
1000
0001
0100
0010
0120
,
0000
0031
0010
1000
0001
0010
0100
0120
,
0000
1030
0010
0001
1000
0010
0100
0210
,
0000
0301
0100
1000
0001
0010
1000
1001
,
0000
0000
1100
0000
0000
0110
0000
0000
0011
0000
0000
1001
0000
0000
1010
0000
,
1002
0000
0023
0000
0230
0000
2300
3002
,
0000
0000
0100
0000
0103
0000
0010
2000
,
0000
0000
0100
0000
3100
0000
0010
0002
,
0000
0000
0100
0000
0103
0000
0010
0110
,
0000
1010
0000
1100
0000
0110
0000
0021
,
0000
0000
0130
1000
0002
0000
0000
0000
0103
0000
0010
0000
1000
0000
0200
0000
,
0000
0310
0001
0100
0010
0100
0001
2001
,
0000
0000
3100
0000
0010
0000
0001
0000
1000
0000
0010
0100
0001
0000
0201
0000
,
0000
0000
0301
0000
1000
0000
0010
0000
0100
0010
1000
0001
0010
0100
2000
0000
,
0000
0000
3100
0000
1000
0000
0001
0000
1000
0010
0100
0010
1000
0000
1020
0000
,
0000
0000
0130
0000
0001
0000
1000
0000
0001
0010
0100
0010
0001
0000
0021
0000
,
0000
0000
0130
0000
1000
0000
0001
0000
1000
0010
0100
0010
1000
0000
1020
0000
,
0000
0000
0130
0001
1000
0000
0100
0000
0001
0000
0100
0000
0010
0000
0210
0000
,
0000
0000
1300
0000
0001
0000
0100
0000
0010
0000
1000
0001
0010
0000
0120
0000
,
0000
0000
0130
1000
0001
0000
0100
0000
0010
1000
0001
0100
0010
0000
0120
0000
,
0000
0000
0130
0001
1000
0000
0100
0000
0010
0001
1000
0100
0010
0000
0220
0000
,
0000
0000
0000
0000
0000
0000
0330
2002
,
0000
0000
0000
0000
,
0000
0000
3003
0000
;
