#VERSION:0.83;
#TITLE:Youthful;
#SUBTITLE:;
#ARTIST:lapix;
#TITLETRANSLIT:;
#SUBTITLETRANSLIT:;
#ARTISTTRANSLIT:;
#GENRE:;
#ORIGIN:;
#CREDIT:;
#BANNER:Youthful.png;
#BACKGROUND:Youthful-bg.png;
#PREVIEWVID:;
#JACKET:Youthful-jacket.png;
#CDIMAGE:;
#DISCIMAGE:;
#LYRICSPATH:;
#CDTITLE:;
#MUSIC:Youthful.ogg;
#OFFSET:-0.075000;
#SAMPLESTART:75.710220;
#SAMPLELENGTH:15.000000;
#SELECTABLE:YES;
#BPMS:0.000=146.000;
#STOPS:;
#DELAYS:;
#WARPS:;
#TIMESIGNATURES:0.000=4=4;
#TICKCOUNTS:0.000=4;
#COMBOS:0.000=1;
#SPEEDS:0.000=1.000=0.000=0;
#SCROLLS:0.000=1.000;
#FAKES:;
#LABELS:0.000=Song Start;
#BGCHANGES:;
#KEYSOUNDS:;
#ATTACKS:
;

//---------------dance-single - ----------------
#NOTEDATA:;
#CHARTNAME:;
#STEPSTYPE:dance-single;
#DESCRIPTION:;
#CHARTSTYLE:;
#DIFFICULTY:Challenge;
#METER:16;
#RADARVALUES:0.750887,0.950438,0.304012,0.488019,0.912036,657.000000,619.000000,38.000000,61.000000,7.000000,1.000000,0.000000,0.000000,0.000000,0.750887,0.950438,0.304012,0.488019,0.912036,657.000000,619.000000,38.000000,61.000000,7.000000,1.000000,0.000000,0.000000,0.000000;
#CREDIT:;
#NOTES:
// measure 0
0000
0000
0000
0000
,  // measure 1
0000
0000
0000
0000
,  // measure 2
0000
0000
0000
0000
,  // measure 3
0000
0000
0000
0000
0000
0000
0000
1000
,  // measure 4
0010
0100
2000
0000
0000
3100
0001
0010
,  // measure 5
0200
0000
0000
0310
0001
0100
0020
0000
,  // measure 6
0000
0031
0010
1000
0002
0000
0000
1003
,  // measure 7
0200
2300
3002
0023
,  // measure 8
0031
0000
0000
0001
1000
0000
0100
0000
0010
0000
0000
0010
0100
0000
1000
0000
,  // measure 9
0010
0000
0000
0010
0100
0000
0001
0000
1000
0000
0000
1000
0001
0000
0010
0000
,  // measure 10
0100
0000
0010
0001
0000
0010
0001
0000
1000
0000
0001
0010
0000
0010
0001
0000
,  // measure 11
0100
0000
0010
1000
0000
0010
1000
0000
0001
0000
1000
0010
0000
0010
1000
0000
,  // measure 12
0100
0000
0100
1000
0001
0000
1000
0001
0010
0000
0001
0100
0010
0000
0100
0010
,  // measure 13
1000
0000
0001
0010
0100
0000
1000
0100
0010
0000
0001
1000
0010
0000
0010
0100
,  // measure 14
0002
0100
0100
1000
1000
0010
0023
0000
,  // measure 15
0131
1000
0101
0010
0110
0100
1001
0000
,  // measure 16
1000
0000
0100
0010
0000
0010
1000
0000
0010
0000
0010
0001
0100
0000
0102
0000
,  // measure 17
0000
0000
0100
0000
1003
0000
2100
0000
0000
0000
3100
0000
0010
0200
0000
0000
,  // measure 18
1300
0000
0000
0000
0010
0000
0100
0000
0000
0000
0100
0000
0001
0000
0000
0000
0100
0000
0000
0000
0000
0000
0000
0000
1000
0001
0000
0000
0000
0000
0000
0000
,  // measure 19
0001
0000
0010
0010
0001
0000
1000
0001
1000
0010
0000
0100
0010
0000
0010
0000
,  // measure 20
1010
0000
0000
0110
0000
0000
0101
0000
2000
0000
0000
3001
0000
0000
0021
0000
,  // measure 21
0000
0000
0130
0100
1000
0000
1020
0000
0000
0000
0030
0100
0010
1000
0001
0100
,  // measure 22
0001
0000
1000
0001
0000
0010
0001
0000
0010
0100
0010
0100
1000
0100
0010
0001
,  // measure 23
1000
0000
1000
0010
0001
0000
0001
0010
0100
0010
0000
0010
1100
0000
1100
0000
,  // measure 24
0001
0000
0010
0001
1000
0000
0001
0000
0010
0000
0100
0010
0001
1000
0020
0000
,  // measure 25
0000
0000
0030
0000
0000
0000
1000
0000
0001
0000
1000
0000
0010
0000
0100
0000
0001
0000
0100
00M0
0100
0000
1000
0000
0001
0000
0010
0000
0100
0000
1000
0000
,  // measure 26
0100
0010
0000
0001
0000
0001
0200
0000
0000
0000
0300
0000
1000
0100
0010
0100
,  // measure 27
0001
0000
1000
1000
0100
0000
1000
1000
0010
0100
0000
0100
0010
0000
0110
0000
,  // measure 28
1000
0000
0001
0010
0000
0000
0010
2000
0000
3000
0010
0100
0010
0001
2020
0000
,  // measure 29
0000
0000
3030
0000
0100
0000
0100
1000
0020
0000
0000
0000
0130
0001
0100
0010
,  // measure 30
1000
0000
0000
0000
0010
0000
0100
0000
0000
0000
0010
0000
1000
0000
0000
0000
0001
0000
0010
0M00
0010
0000
1000
0000
0010
0000
0100
0000
0001
0000
1000
0000
,  // measure 31
0100
0000
0100
0010
0001
0000
0001
1000
0010
0100
0000
0100
0002
0000
0000
0000
,  // measure 32
2003
0000
0000
0100
0000
0000
3001
0000
0000
0000
0000
0000
1000
0000
0202
0000
,  // measure 33
0000
0000
0303
0000
1000
0000
0022
0000
0000
0000
0033
0000
1000
0002
0000
0000
,  // measure 34
0103
0000
0100
0010
0000
0010
2000
0000
0000
0000
0000
0000
3001
0000
0000
0000
,  // measure 35
1000
0000
1000
0100
0010
0000
0010
0001
0100
0010
0000
0100
0001
0000
0001
0000
,  // measure 36
0011
0000
0000
0110
0000
0000
1000
0100
0000
0000
0000
0000
0010
0000
0012
0000
,  // measure 37
0000
0003
0201
0000
0010
0000
0320
0000
,  // measure 38
1030
0000
0000
0101
0000
0000
1002
0000
0000
0000
0000
0000
0023
0000
0000
0000
,  // measure 39
0130
0000
1000
0100
1000
0000
0001
0100
0001
2000
0000
0000
3020
0000
0000
0000
,  // measure 40
0130
0000
0000
0100
0001
0000
1000
0000
0010
0000
0000
0010
1000
0000
0001
0000
,  // measure 41
0010
0000
0000
0010
0001
0000
1000
0000
0100
0000
0000
0100
1000
0000
0001
0000
,  // measure 42
0010
0000
0001
0100
0000
0001
0100
0000
1000
0000
0100
0001
0000
0001
0100
0000
,  // measure 43
0010
0000
1000
0100
0000
1000
0100
0000
0001
0000
0100
1000
0000
1000
0100
0000
,  // measure 44
1100
0100
0110
0010
0011
0001
1001
1000
,  // measure 45
0010
1000
0010
1000
0001
1000
0001
0010
0200
0000
0000
0000
0000
0000
0000
0000
,  // measure 46
0310
0000
0100
1000
0002
0000
0203
0000
2300
0000
3100
0010
0100
0010
2000
0000
,  // measure 47
0000
3000
0000
1000
0100
0010
0100
1000
0001
0010
0100
0010
0001
1000
0010
0100
,  // measure 48
0010
1000
0000
0001
0000
0001
0020
0000
0000
0000
0030
0000
0100
1000
0001
1000
,  // measure 49
0010
0000
0100
0010
1000
0000
0010
0100
0001
0100
0000
0001
0010
0000
0010
0000
,  // measure 50
0001
0000
0001
1000
0000
0000
0001
0200
0000
0000
0310
0000
1000
1000
0002
0000
,  // measure 51
0000
0000
0003
0000
0010
0000
0010
0100
1000
0000
0001
0000
1000
0010
0100
0001
,  // measure 52
1000
0000
0001
0010
0000
0010
0100
0000
1000
0100
0010
0001
1000
0001
0100
0010
,  // measure 53
1000
0000
1000
0010
0100
0000
0100
0001
0010
0100
0000
0000
0210
0000
0000
0000
,  // measure 54
1300
0000
0001
0010
0100
0000
0010
0000
0101
0000
0101
0000
1000
0010
0200
0000
,  // measure 55
0000
0300
0000
0010
0000
1000
0001
1000
0100
0010
0000
0010
0000
0000
1100
0000
,  // measure 56
1000
0001
0000
0100
0000
0100
0020
0000
0000
0000
0030
0000
1000
1000
0001
1000
,  // measure 57
0100
0010
0000
0010
0100
1000
0010
0000
1000
0001
0000
0100
0001
0000
0101
0000
,  // measure 58
0100
0000
0100
1000
0000
1000
0100
0010
2000
0000
0000
0000
3001
0000
2020
0000
,  // measure 59
0000
0000
3030
0000
0001
0010
0001
0010
0200
0000
0000
0000
1300
0010
0100
0001
,  // measure 60
1000
0000
0001
0010
0000
0010
0100
0000
0000
0010
0001
1000
0010
1000
0001
0100
,  // measure 61
0001
0000
0100
0001
0010
0000
0010
0001
1000
0100
0000
1000
0010
0000
0010
0000
,  // measure 62
2000
0000
0010
0000
3001
0000
1000
0001
1000
0010
0200
0000
0300
0001
0020
0000
,  // measure 63
0000
0030
0001
1000
0100
0000
0210
0000
0000
0000
1300
0001
0010
0100
0010
0000
,  // measure 64
1000
0000
0010
0100
0000
0010
0001
0000
1000
0010
0000
0000
0101
0000
0000
0000
,  // measure 65
1000
0000
1000
0010
0001
0000
0001
0010
0100
0010
0000
0010
1100
0000
1000
0000
,  // measure 66
0001
1000
0100
0000
1000
0000
0001
1000
0010
1000
0010
0100
0001
0100
0120
0000
,  // measure 67
0000
0000
0030
0000
1000
0000
0001
0000
0010
0000
0100
0000
1000
0000
0010
0000
0100
0000
0010
0000
0100
0000
0001
0000
1000
0000
0010
0M00
0010
0000
0001
0000
,  // measure 68
1000
0000
0100
00M0
0100
0000
0001
0000
1000
0000
0010
0M00
0010
0000
0001
0000
1000
0000
0100
00M0
0100
0000
0001
0000
1000
0000
0010
0M00
0010
0000
0001
0000
,  // measure 69
1000
0100
0010
0001
0100
0010
1000
0100
0010
1000
0010
0100
1000
0001
0100
0000
,  // measure 70
0220
0000
0030
0001
0020
0000
0300
0100
,  // measure 71
2000
0000
0000
0000
,  // measure 72
3030
0000
0000
0000
;

//---------------dance-single - ----------------
#NOTEDATA:;
#CHARTNAME:;
#STEPSTYPE:dance-single;
#DESCRIPTION:;
#CHARTSTYLE:;
#DIFFICULTY:Hard;
#METER:14;
#RADARVALUES:0.624025,0.748830,0.272011,0.408016,0.540022,546.000000,512.000000,34.000000,51.000000,0.000000,0.000000,0.000000,0.000000,0.000000,0.624025,0.748830,0.272011,0.408016,0.540022,546.000000,512.000000,34.000000,51.000000,0.000000,0.000000,0.000000,0.000000,0.000000;
#CREDIT:;
#NOTES:
0000
0000
0000
0000
,
0000
0000
0000
0000
,
0000
0000
0000
0000
,
0000
0000
0000
0000
,
2000
0100
0000
0100
,
3002
0100
0000
0100
,
2003
0000
0100
0000
0000
0000
3100
1000
,
0002
0203
0320
2030
,
3001
0000
0000
0001
0010
0000
0100
0000
0001
0000
0000
0001
0100
0000
0100
0000
,
1000
0000
0000
1000
0010
0000
0100
0000
1000
0000
0000
1000
0100
0000
0100
0000
,
0001
0000
0010
0100
0000
0010
0100
0000
1000
0000
0100
0010
0000
0010
0100
0000
,
1000
0000
0010
0100
0000
0010
0100
0000
0001
0000
0100
0010
0000
0010
0100
0000
,
0001
0010
0100
1000
0010
0100
0001
1000
,
0100
0010
0001
0100
0010
1000
0001
0010
,
0220
0000
0000
0330
,
1100
0001
0101
1000
1100
0100
0020
0000
,
0130
0000
0100
1000
0000
0100
0010
0000
0001
0000
0000
0000
0101
0000
0020
0000
,
0000
0000
0030
0000
0101
0000
2000
0000
0000
0000
3000
0000
0100
1000
0000
0000
,
0010
0000
0000
0000
0010
0000
0100
0000
0000
0000
0001
0000
0100
0000
0000
0000
0010
0000
0000
0000
0000
0000
0000
0000
1000
0001
0000
0000
0000
0000
0000
0000
,
1000
0000
0001
0100
0001
0000
1000
0100
1000
0100
0000
0100
0010
0000
0010
0000
,
0100
0000
0000
1100
0000
0000
0101
0000
0002
0000
0000
0000
0003
0000
0012
0000
,
0000
1003
0010
2010
0000
0010
3001
0000
,
1000
0000
0010
0100
0000
0001
0100
0000
0001
0000
0010
0000
0100
0000
0010
0000
,
1000
0000
0010
0100
0010
0000
0001
0000
1000
0010
0000
1000
0001
0000
0001
0000
,
0100
0000
0010
1000
0010
0000
1000
0000
0001
0000
1000
0100
0010
0001
0020
0000
,
0000
0000
0000
0000
0130
0000
1000
0000
0001
0010
0001
0000
1000
0010
1000
0010
,
0100
0001
0000
1000
0000
1000
0200
0000
0000
0000
0000
0000
0310
0000
0100
0000
,
1000
0000
0100
0000
0001
0000
0100
0000
1000
0001
0000
0001
0100
0000
0100
0000
,
0010
0000
1000
0001
0000
0000
1100
0000
0001
0000
0010
0000
0100
0000
0002
0000
,
0000
0000
0000
0000
0103
0000
0100
1000
0002
0000
0000
0000
0103
0010
0100
0010
,
1000
0001
1000
0000
0010
0000
0100
0000
0001
0000
0010
0000
0100
0000
1000
0100
,
0010
0000
0010
0100
1000
0000
0010
0100
0001
0100
0000
0100
0020
0000
0000
0000
,
1030
0000
0000
1100
0000
0000
0102
0000
0000
0000
0000
0000
0100
0000
2000
0000
,
3000
0000
0000
0000
1000
0000
0020
0000
0033
0000
0000
0000
1000
0001
0000
0000
,
1001
0000
0000
0011
0000
0000
2010
0000
0000
0000
0000
0000
3001
0000
0000
0000
,
1000
0000
0100
0010
0100
0000
1000
0000
0001
0010
0000
0010
0100
0000
0100
0000
,
1000
0000
0000
1100
0000
0000
0012
0000
0000
0000
0000
0000
0103
0000
2010
0000
,
0000
0001
0200
3300
,
1001
0000
0000
0101
0000
0000
1020
0000
0000
0000
0000
0000
0130
0000
0100
0000
,
0001
0000
1000
0000
0001
0000
0100
0000
0010
1000
0000
0000
0002
0000
0000
0000
,
0013
0010
0001
0100
0010
0010
1000
0100
,
0010
0010
0100
1000
0010
0010
0100
0001
,
0010
0000
0100
1000
0000
0100
1000
0000
0001
0000
1000
0100
0000
0100
1000
0000
,
0010
0000
0100
0001
0000
0100
0001
0000
1000
0000
0001
0100
0000
0100
0001
0000
,
1000
0010
0001
0010
1000
0001
0010
1000
,
0010
0000
0001
0000
0100
0001
0100
0010
2000
0000
0000
0000
0000
0000
0000
0000
,
3100
0000
0000
1100
0000
0000
1001
0000
0000
0000
1000
0001
1000
0010
0200
0000
,
0000
0300
0000
0100
0001
0000
1000
0000
0001
0010
0000
0100
0000
0100
1000
0000
,
0001
1000
0000
0100
0000
1000
0020
0000
0000
0000
0030
0000
0100
0001
0100
0010
,
1000
0000
1000
0001
0010
0000
0010
0001
1000
0100
0000
0100
0010
0000
0010
0000
,
0100
0000
1000
0100
0000
0000
1000
0002
0000
0000
0103
0000
0001
0001
2000
0000
,
0000
0000
3000
0000
0010
0000
0010
0100
0002
0000
0000
0000
0013
0100
0010
0100
,
1000
0000
0001
0000
0100
0000
1000
0000
0100
0000
0010
0000
0110
0000
0010
1000
,
0001
0000
0010
0000
0011
0000
0001
0000
1000
0010
0000
0000
2010
0000
0000
0000
,
3100
0000
0010
0000
0001
0000
2000
0000
0000
0000
3000
0000
0010
0100
0002
0000
,
0000
0000
1003
0000
0001
0000
0010
0000
0100
1000
0000
1000
0000
0000
0001
0000
,
0100
0010
0000
1000
0000
0001
0020
0000
0000
0000
0030
0000
0001
1000
0001
1000
,
0100
0000
1000
0000
0010
0000
0100
0000
0100
0001
0000
0010
0001
0000
0001
0000
,
1000
0000
0010
1000
0000
0000
1000
0001
0200
0000
0000
0000
0300
0000
2002
0000
,
3003
0000
0000
0000
1000
0100
1000
0100
0010
0000
0001
0000
1000
0000
0010
0100
,
0001
0000
0100
0000
0110
0000
0010
0000
1000
0000
0100
0000
0110
0000
0010
0100
,
1000
0000
0001
0000
1000
0000
0010
0000
0100
0010
0000
0000
1010
0000
1000
0000
,
0002
0000
0000
0000
0003
0000
1000
0001
0010
0100
0020
0000
0000
0000
0130
2000
,
0000
3000
0001
1000
0010
0000
0200
0000
0000
0300
0001
0100
0010
1000
0010
0000
,
1000
0000
0100
1000
0000
0001
0100
0000
0100
0010
0000
0000
1001
0000
0000
0000
,
0001
0000
0010
0000
0100
0010
0000
0001
0000
1000
0000
0010
0000
0100
0001
0000
,
1000
0100
1000
0000
0000
1000
0100
0000
0001
0000
0100
0000
0010
0000
0012
0000
,
0000
0000
1003
0000
0010
0000
0100
0000
0010
1000
0010
0000
0100
0001
0100
0000
,
0001
0010
0001
0000
1000
0100
1000
0000
0010
1000
0010
0000
0100
0001
0100
0000
,
0001
0010
0001
0000
1000
0001
1000
0000
0100
1000
0100
0000
0010
0100
0010
0000
,
2002
3000
0200
0003
,
0020
0000
0000
0000
,
0330
0000
0000
0000
;

//---------------dance-single - ----------------
#NOTEDATA:;
#CHARTNAME:;
#STEPSTYPE:dance-single;
#DESCRIPTION:;
#CHARTSTYLE:;
#DIFFICULTY:Medium;
#METER:11;
#RADARVALUES:0.410302,0.489620,0.208008,0.336013,0.112004,359.000000,333.000000,26.000000,42.000000,0.000000,0.000000,0.000000,0.000000,0.000000,0.410302,0.489620,0.208008,0.336013,0.112004,359.000000,333.000000,26.000000,42.000000,0.000000,0.000000,0.000000,0.000000,0.000000;
#CREDIT:;
#NOTES:
0000
0000
0000
0000
,
0000
0000
0000
0000
,
0000
0000
0000
0000
,
0000
0000
0000
0000
,
1000
0100
0000
1000
,
0001
0100
0000
0001
,
1000
0000
0010
0000
0000
0000
1000
0010
,
2000
3200
0320
0032
,
1003
0100
0010
0000
0010
0100
1000
0000
,
0001
0100
0010
0000
0010
0100
0001
0000
,
1000
0010
0100
0000
0100
0010
1000
0000
,
0001
0010
0100
0000
0100
0010
0001
0000
,
1000
0101
1001
1100
,
1010
1100
0110
0011
,
2002
0000
0000
3003
,
0001
0100
1000
0100
0010
0010
0110
0000
,
1000
0000
0000
0010
0000
0000
1000
0000
0001
0000
0000
0000
0001
0000
0020
0000
,
0000
0000
0030
0000
0100
0000
0020
0000
0000
0000
0030
0000
0100
1000
0000
0000
,
0001
0000
0000
0000
0000
0000
0100
0000
0000
0000
0000
0000
0001
0000
0000
0000
1000
0000
0000
0000
0000
0000
0000
0000
1000
0001
0000
0000
0000
0000
0000
0000
,
0001
0010
0100
0000
0100
1000
0010
0000
,
1000
0000
0000
0010
0000
0000
0200
0000
0000
0000
0000
0000
0300
0000
0011
0000
,
0000
0100
0000
1020
0000
0000
1030
0001
,
0010
0000
0000
0100
0000
0000
0100
0000
2000
0000
0000
0000
3002
0000
0000
0000
,
1003
0100
1000
0001
0010
0100
0010
0000
,
0001
0000
0100
0000
0001
0100
0010
2000
,
0000
0000
3100
0000
0100
0010
0001
0000
,
1100
0000
0001
0000
0101
0000
0010
0100
,
0001
0000
0000
0000
0001
0000
0000
0000
1000
0100
0000
0000
0100
0000
0000
0000
,
1000
0000
0000
0001
0000
0000
0200
0000
0000
0000
0300
0000
0100
0000
0020
0000
,
0000
0030
1100
0000
0010
0000
0101
0000
,
1000
0000
0000
1000
0000
0000
0001
0000
0000
0000
0000
0000
0100
0000
0001
0000
,
1000
0000
0000
0000
0100
0000
0000
0000
1000
0001
0000
0000
0010
0000
0000
0000
,
0100
0000
0000
0100
0000
0000
0210
0000
0000
0000
0000
0000
0000
0000
1000
0000
,
0000
0000
0000
0000
0000
0000
1300
0000
0000
0000
0000
0000
1000
0001
0000
0000
,
0100
0000
0000
0100
0000
0000
0210
0000
0000
0000
0000
0000
0000
0000
0000
0000
,
0001
0000
0000
0000
0001
0000
0000
0000
0300
0001
0000
0000
1000
0000
0001
0000
,
0010
0000
0000
0010
0000
0000
0120
0000
0000
0000
0000
0000
0000
0000
0001
0000
,
0000
1000
0032
2003
,
3010
0000
0000
0010
0000
0000
0120
0000
0000
0000
0000
0000
0000
0000
0000
0000
,
2030
3020
0230
0302
,
1003
0100
0010
0000
0010
0100
1000
0000
,
0001
0100
0010
0000
0010
0100
0001
0000
,
1000
0010
0100
0000
0100
0010
1000
0000
,
0001
0010
0100
0000
0100
0010
0001
0000
,
1000
0010
0100
0000
0001
0010
0100
0000
,
0010
0100
0010
0100
2000
0000
0000
0000
,
3001
0000
0001
0000
0001
0100
0100
0020
,
0000
0000
0130
0000
0001
1000
0001
0000
,
1000
0100
0010
0000
0100
0010
0001
0000
,
1000
0000
0000
0000
1000
0000
0000
0000
0010
1000
0000
0000
0010
0000
0010
0000
,
0100
0000
0101
0000
1100
0000
0100
0020
,
0000
0000
0130
0000
1000
0001
2000
0000
,
3010
0000
0100
0000
0001
0000
0100
0001
,
0010
0000
0000
0000
0010
0000
0000
0000
0100
1000
0000
0000
0010
0000
0000
0000
,
1000
0010
1000
0002
0003
0000
0001
0020
,
0000
0000
0000
0000
0130
0000
0000
0000
0010
0001
0000
0001
0000
0000
1000
0000
,
0010
0000
0000
0100
0000
0000
0200
0000
0000
0000
0000
0000
0301
0000
1000
0000
,
0100
0000
0000
0000
1100
0000
0000
0000
0001
0100
0000
0000
0010
0000
0010
0000
,
1000
0000
0000
0001
0000
0000
0020
0000
0000
0000
0000
0000
0030
0000
1100
0000
,
0000
0000
1000
0100
0010
0000
1000
0010
,
0001
0000
0000
0100
0000
0000
0100
0000
0000
0000
0000
0000
0001
0000
0100
0000
,
0010
0000
0000
0000
1000
0000
0001
0000
0010
0000
0100
0000
1000
0100
0000
0000
,
2000
0000
0100
0000
3001
1000
0010
0200
,
0000
0301
0010
0200
0000
1300
0010
0000
,
0100
0000
0000
0010
0000
0000
1000
0000
0000
0002
0000
0000
0013
0000
0000
0000
,
1100
0000
0000
0000
0011
0000
0000
0000
0001
0100
0000
0000
1010
0000
0000
0000
,
1000
0000
0001
0000
1000
0001
0010
0200
,
0000
0300
1000
0100
1000
0001
0100
0010
,
1000
0001
0010
0100
1000
0001
0010
0100
,
1000
0001
0100
0010
1000
0001
0200
0000
,
0320
0000
2000
0030
,
0002
0000
0000
0000
,
3003
0000
0000
0000
;

//---------------dance-single - ----------------
#NOTEDATA:;
#CHARTNAME:;
#STEPSTYPE:dance-single;
#DESCRIPTION:;
#CHARTSTYLE:;
#DIFFICULTY:Easy;
#METER:8;
#RADARVALUES:0.277725,0.316813,0.056002,0.328013,0.060002,243.000000,236.000000,7.000000,41.000000,0.000000,0.000000,0.000000,0.000000,0.000000,0.277725,0.316813,0.056002,0.328013,0.060002,243.000000,236.000000,7.000000,41.000000,0.000000,0.000000,0.000000,0.000000,0.000000;
#CREDIT:;
#NOTES:
0000
0000
0000
0000
,
0000
0000
0000
0000
,
0000
0000
0000
0000
,
0000
0000
0000
0000
,
1000
0100
0000
0100
,
0000
0010
0000
0010
,
0001
0100
0000
0100
,
0002
2003
3002
0013
,
0001
0100
0010
0100
,
1000
0100
0010
0100
,
0001
0010
0100
0010
,
1000
0010
0100
0010
,
0001
0001
0100
0100
,
0010
0010
1000
1000
,
2002
0000
0000
3003
,
1100
0101
0220
0330
,
0001
0000
0000
0001
0000
0000
0001
0000
0000
0000
0000
0000
1000
0000
0200
0000
,
0000
0300
0000
0020
0000
0030
0100
0000
,
1000
0000
0000
0000
0000
0000
1000
0000
0000
0000
0000
0000
1000
0000
0000
0000
0000
0000
0000
0000
0000
0000
0000
0000
1000
0001
0000
0000
0000
0000
0000
0000
,
0010
0000
0000
0000
0010
0000
0000
0000
0000
0100
0000
0000
0010
0000
0000
0000
,
0001
0000
0000
0001
0000
0000
0001
0000
0000
0000
0000
0000
0000
0000
1000
0000
,
0000
0100
0000
0002
0000
0003
0100
0000
,
1000
0000
0000
1000
0000
0000
1000
0000
0000
0000
0000
0000
0010
0000
0000
0000
,
0100
0000
0000
0000
0001
0000
0000
0000
0000
1000
0000
0000
0100
0000
0000
0000
,
1000
0000
0100
0000
0010
0000
0002
0003
,
0000
1000
0010
0100
,
0001
0000
0000
0001
0000
0000
0002
0000
0000
0000
0000
0000
1003
0000
0000
0000
,
1000
0000
0000
0000
0100
0000
0000
0000
0000
0010
0000
0000
0100
0000
0000
0000
,
1000
0000
0001
0000
0200
0000
0000
0310
,
0000
0100
0010
1000
,
0001
0001
1000
1000
,
0100
0000
0000
0000
0010
0000
0000
0000
0000
0010
0000
0000
0100
0000
0000
0000
,
1000
0000
0000
1000
0000
0000
0000
0200
,
0000
0300
0000
0020
0000
0000
0030
0000
,
0001
0000
0000
0001
0000
0000
0000
0000
,
0100
0000
0000
0000
0200
0000
0000
0000
0300
0010
0000
0000
0020
0000
0000
0000
,
1030
0000
0000
1000
0000
0000
0000
2100
,
0000
3000
0000
0012
0000
0000
0003
0000
,
0001
0000
1000
0000
,
0001
0100
0010
1000
,
1000
0100
0010
0100
,
0001
0100
0010
0100
,
1000
0010
0100
0010
,
0001
0010
0100
0010
,
1000
1000
0100
0100
,
0020
0000
0002
0033
,
0001
0000
1000
0000
0200
0000
0000
0310
,
0000
0100
1000
0001
,
0100
0010
0100
0001
,
1000
0100
0010
0100
,
1000
0000
0001
0000
0200
0000
0000
0310
,
0000
1000
0001
0010
,
0100
0010
0010
0100
,
1000
0000
0000
0000
0001
0000
0000
0000
0000
1000
0000
0000
0010
0000
0000
0000
,
0100
0000
0001
0000
2000
0000
0000
3010
,
0000
1000
0100
0010
,
1000
0010
0002
0003
,
0100
0000
0000
0000
0010
0000
0000
0000
0000
0010
0000
0000
1000
0000
0000
0000
,
0001
0000
0010
0000
0200
0000
0000
1300
,
0000
0001
0010
1000
,
0010
0100
0100
0010
,
0001
0000
0000
0000
0100
0000
0000
0000
0000
0010
0000
0000
1000
0000
0000
0000
,
0001
0000
1000
0000
0100
0000
0010
0002
,
0000
0003
1000
0020
0000
0000
1030
0000
,
0010
0100
0010
1001
,
1000
0000
0000
0000
0001
0000
0000
0000
0000
0010
0000
0000
0100
0000
0000
0000
,
1000
0000
0010
0000
0200
0000
0000
0301
,
0000
0100
0020
2030
,
3200
0320
0032
0203
,
0320
2030
3200
0320
,
0032
0000
0100
0000
,
2000
0000
0000
0000
,
3003
0000
0000
0000
;

//---------------dance-single - ----------------
#NOTEDATA:;
#CHARTNAME:;
#STEPSTYPE:dance-single;
#DESCRIPTION:;
#CHARTSTYLE:;
#DIFFICULTY:Beginner;
#METER:3;
#RADARVALUES:0.150863,0.255610,0.048002,0.000000,0.000000,132.000000,126.000000,6.000000,0.000000,0.000000,0.000000,0.000000,0.000000,0.000000,0.150863,0.255610,0.048002,0.000000,0.000000,132.000000,126.000000,6.000000,0.000000,0.000000,0.000000,0.000000,0.000000,0.000000;
#CREDIT:;
#NOTES:
0000
0000
0000
0000
,
0000
0000
0000
0000
,
0000
0000
0000
0000
,
0000
0000
0000
0000
,
1000
0000
0000
0000
,
0001
0000
0000
0000
,
1000
0000
0000
0000
,
0001
0000
0001
0000
,
0100
0000
0010
0000
,
0100
0000
0010
0000
,
1000
0000
0001
0000
,
1000
0000
0001
0000
,
0010
0000
0010
0000
,
0100
0000
0100
0000
,
1001
0000
0000
0000
,
1000
1000
1000
0000
,
0001
0000
0000
0000
0000
0000
0000
0100
,
0000
0000
0000
0100
0000
0000
0000
0000
,
0010
0000
0000
0000
,
1000
1000
0000
0000
,
1000
0000
0000
0000
0000
0000
0000
0100
,
0000
0000
0000
0100
0000
0000
0000
0000
,
0010
0000
0000
0000
,
0001
0001
0000
0000
,
0000
0000
1000
0000
0000
0000
0000
0001
,
0000
0000
1000
1000
,
0010
0000
0010
0000
,
0100
0100
0000
0000
,
0001
0000
1000
0000
0000
0000
0000
0001
,
0000
0000
0100
0000
,
0010
0000
0010
0000
,
1000
0001
1000
0000
,
1001
0000
0000
0000
,
0000
0000
0000
0000
,
0110
0000
0000
0000
,
0000
0000
0000
0000
,
1001
0000
0000
0000
,
0000
0000
0000
0000
,
0110
0000
0000
0000
,
1000
0000
0001
0000
,
1000
0000
0100
0000
,
0010
0000
0001
0000
,
0001
0000
0100
0000
,
0010
0000
1000
0000
,
1000
0000
0001
0000
,
1000
0000
1001
0000
,
0000
0000
0001
0000
0000
0000
0000
1000
,
0000
0000
0001
0001
,
0010
0000
0010
0000
,
0100
0100
0000
0000
,
1000
0000
0001
0000
0000
0000
0000
1000
,
0000
0000
0100
0000
,
0010
0000
0010
0000
,
0001
1000
0001
0000
,
0000
0000
1000
0000
0000
0000
0000
0001
,
0000
0000
1000
1000
,
0010
0000
0010
0000
,
0100
0100
0000
0000
,
0001
0000
1000
0000
0000
0000
0000
0001
,
0000
0000
0010
0000
,
0100
0000
0100
0000
,
1000
0001
1000
0000
,
1000
0000
0000
0000
0010
0000
0000
1000
,
0000
0000
0000
0001
0000
0000
0000
0000
,
1000
0000
0100
0000
,
1000
1000
0000
0000
,
0001
0000
0000
0000
0100
0000
0000
0001
,
0000
0010
0001
1000
,
0010
0100
0001
1000
,
0100
0010
0001
1000
,
0010
0000
0000
0000
,
0100
0000
0000
0000
;
