#TITLE:夜のピエロ;
#SUBTITLE:(TeddyLoid Remix);
#ARTIST:Ado;
#TITLETRANSLIT:Yoru No Pierrot;
#SUBTITLETRANSLIT:;
#ARTISTTRANSLIT:;
#GENRE:;
#CREDIT:;
#BANNER:Yoru no Pierrot (TeddyLoid Remix).png;
#BACKGROUND:Yoru no Pierrot (TeddyLoid Remix)-bg.png;
#LYRICSPATH:Yoru no Pierrot (TeddyLoid Remix).lrc;
#CDTITLE:;
#MUSIC:Yoru no Pierrot (TeddyLoid Remix).ogg;
#OFFSET:0.003000;
#SAMPLESTART:84.367699;
#SAMPLELENGTH:16.400007;
#SELECTABLE:YES;
#BPMS:0.000000=128.000000
;
#STOPS:
;
#BGCHANGES:0.000=Yoru no Pierrot (TeddyLoid Remix).avi=1.000=0=0=0=StretchNoLoop====,
99999=-nosongbg-=1.000=0=0=0 // don't automatically add -songbackground-
;
#KEYSOUNDS:;
#ATTACKS:;

//---------------dance-single - Ben Speirs STARDOM STYLE SP----------------
#NOTES:
     dance-single:
     :
     Edit:
     8:
     0.232229,0.419101,0.076200,0.194734,0.016933,192.000000,183.000000,9.000000,23.000000,49.000000,0.000000,0.232229,0.419101,0.076200,0.194734,0.016933,192.000000,183.000000,9.000000,23.000000,49.000000,0.000000:
0000
0000
0000
0000
,
0000
0000
0000
0000
,
0000
0000
0000
0000
,
0000
0000
0000
0000
,
2000
0100
0000
0000
,
3002
0000
0000
0000
,
0203
0000
0000
0000
,
0310
0000
0000
0000
,
1000
0100
0001
0010
,
1000
0000
0001
0000
,
1000
0010
0001
0100
,
1000
0000
0001
0000
,
1000
1000
0100
0100
,
0001
0001
0010
0010
,
1000
M000
0001
000M
1000
M000
0001
000M
,
0100
0000
0000
0000
,
0001
000M
0001
000M
,
0001
000M
0001
0200
,
1300
M000
1000
M000
,
1000
M000
1000
0200
,
0300
0000
0001
000M
0001
000M
0001
000M
,
0001
000M
0001
000M
0010
0000
0100
0000
,
1000
M000
1000
M000
1000
M000
1000
M000
,
1000
M000
1000
M000
0100
0000
0010
0000
,
1002
0003
0000
0000
,
0020
0030
0000
0000
,
2000
3000
0000
0000
,
0200
0300
0000
0000
,
0002
0100
0020
0033
,
2000
0100
0020
3030
,
1000
0100
0001
0100
,
1000
0000
0001
0000
,
1000
M000
1000
M000
1000
0000
0000
0000
,
0001
000M
0001
000M
0001
0000
0000
0000
,
1000
0100
1000
0000
0001
0100
0001
0000
,
1000
0010
0100
0000
,
0001
0010
1000
0000
,
0010
1000
0100
0000
,
0100
0100
0010
0010
,
2002
0000
0000
3003
,
1000
M000
1000
M000
,
1000
0100
0010
0000
,
0001
000M
0001
000M
,
0001
0000
0100
0000
1000
0000
0100
0000
0001
0000
1000
0000
,
0100
0000
0000
1001
,
0001
000M
0001
000M
0001
1000
0001
0000
,
1000
M000
1000
M000
1000
0001
1000
0000
,
0001
000M
0001
000M
0001
1000
0001
0000
,
1001
0110
1001
0110
,
1001
M000
1000
0100
0020
0000
1030
0000
,
0001
000M
0001
0100
0020
0000
0031
0000
,
1000
M000
0001
000M
1000
M000
0001
000M
,
0100
0000
0000
0000
,
0220
0000
0000
0330
,
2000
0010
0001
0100
,
3020
0001
1000
0100
,
0230
1000
0010
0302
,
1003
0000
0000
0000
,
0001
000M
0001
000M
0001
1000
0001
1000
,
0001
000M
0001
000M
0001
1000
0001
0000
,
1000
M000
1000
M000
1000
0001
1000
0001
,
1000
M000
1000
M000
1000
0100
0001
0010
;

//---------------dance-single - ----------------
#NOTES:
     dance-single:
     :
     Challenge:
     15:
     0.697897,0.760388,0.169334,0.262467,0.783168,577.000000,557.000000,20.000000,31.000000,0.000000,0.000000,0.697897,0.760388,0.169334,0.262467,0.783168,577.000000,557.000000,20.000000,31.000000,0.000000,0.000000:
// measure 0
0000
0000
0000
0000
,  // measure 1
0000
0000
0000
0000
,  // measure 2
0000
0000
0000
0000
,  // measure 3
0000
0000
0000
0000
,  // measure 4
1000
0000
0001
0200
0000
0000
0310
0000
0100
0000
0100
0000
0001
0000
1000
0200
,  // measure 5
0000
0000
0310
0000
0000
0010
0000
0001
1000
0000
0001
0100
0001
0000
1000
0000
,  // measure 6
0001
0010
0000
0001
0100
0001
1000
0000
0100
0000
1000
0100
0013
0000
0001
0000
,  // measure 7
1000
0000
0000
1000
0000
0000
0100
0000
0000
1000
0001
1000
0001
0000
0000
0010
0000
0000
0001
0000
0000
0100
0000
0000
,  // measure 8
0101
0000
0000
0001
0010
0000
0001
0000
0100
0000
0010
0000
1000
0001
1000
0001
,  // measure 9
0100
0000
0000
0000
0000
0000
0000
0000
0000
0100
0000
0000
0010
0000
0000
0000
0000
0000
1000
0000
0000
0000
0000
0000
0100
0000
0000
0000
0000
0000
0010
0000
0000
0000
0000
0000
0001
0000
0000
0000
1000
0000
0000
0000
0001
0000
0000
0000
,  // measure 10
1000
0000
0000
1000
0100
0000
1000
0000
0010
0000
0100
0000
0001
1000
0001
1000
,  // measure 11
0010
0010
0100
0100
0002
0100
1003
0003
,  // measure 12
0001
0000
1000
0010
0100
0010
0100
0001
1003
0000
0100
0000
0010
0001
1000
0001
,  // measure 13
1000
0000
0000
0010
0000
0000
0100
0000
0000
0000
0000
0000
0001
0000
0000
0010
0000
0000
0100
0000
0000
0000
0000
0000
1000
0000
0000
0000
0000
0000
0001
0000
0000
0000
0000
0000
1000
0000
0000
0000
0010
0000
0000
0000
0100
0000
0000
0000
,  // measure 14
0001
0010
0001
0010
0100
1000
0001
0100
0010
1000
0010
1000
0001
0010
0100
1000
,  // measure 15
0001
0000
0200
0000
0000
0000
0000
0000
0310
1000
0001
1000
0010
0000
0000
0000
,  // measure 16
1001
0000
0000
1000
0100
0000
1000
0000
0001
0100
0000
0000
0001
0000
0101
0000
,  // measure 17
0100
0000
0000
0100
0010
0000
1000
0000
0001
0010
0001
1000
0010
1000
0100
0010
,  // measure 18
0001
0000
0000
0001
0010
0000
0001
0000
1000
0010
0000
0000
1000
0000
1001
0000
,  // measure 19
0001
0010
0000
0100
1000
0000
0001
0100
0000
0010
1000
0000
0001
0010
0100
1000
,  // measure 20
0020
0000
0000
1030
0001
0000
0100
0000
0001
0010
0100
0010
0001
0000
1000
0001
,  // measure 21
1000
0000
0001
0100
0010
0000
1000
0000
0001
0010
0100
1000
0010
0100
0001
1000
,  // measure 22
0001
0000
1000
0301
0100
0000
0010
0000
1000
0010
0100
0010
1000
0000
0001
1000
,  // measure 23
0001
0010
0000
0010
0100
0000
0100
1000
0000
1000
0001
0000
1000
0100
0010
0001
,  // measure 24
2000
0100
3001
0000
,  // measure 25
0002
0000
0100
0000
1003
1023
0000
0000
,  // measure 26
2030
0000
0100
0000
3001
3021
0000
0000
,  // measure 27
0230
0000
2300
0000
3001
0100
1000
0100
,  // measure 28
0001
0000
0010
0000
0100
0000
1000
0000
0020
0000
0000
0230
0000
0000
0301
0000
,  // measure 29
1000
0000
0001
0000
0020
0000
0000
0230
0000
0000
1300
0001
1000
0000
0001
0000
,  // measure 30
0200
0000
0310
0000
0100
0001
0000
1000
,  // measure 31
0100
0000
0010
0000
0000
0000
0001
1000
0001
0100
0000
0010
0000
1000
0000
0001
,  // measure 32
1000
0000
0010
0000
1000
0100
0010
0100
1000
0010
0000
0100
0000
0001
1000
0000
,  // measure 33
0001
0000
0100
0000
0001
0010
0100
0010
0001
0100
0000
0010
1000
0000
0001
0000
,  // measure 34
1000
0100
1000
0000
0001
0100
0010
0100
0001
0000
1000
0100
0010
0000
0001
0000
,  // measure 35
1000
0000
0010
0000
0001
0000
0010
0000
0100
0000
0001
0010
0100
0000
1000
0000
,  // measure 36
0001
0000
1000
0100
1000
0001
0010
0100
1000
0000
0001
0100
0001
0000
1000
0001
,  // measure 37
1000
0000
0001
0100
0010
0000
1000
0001
0000
1000
0100
0010
0001
0000
1000
0000
,  // measure 38
1010
0000
0000
0010
0100
0000
0102
0000
0000
0000
1003
0000
0100
0000
1000
0001
,  // measure 39
1000
0000
0001
0010
0000
0010
0200
0000
0000
0000
0000
0000
0310
0000
0000
0000
,  // measure 40
0001
1000
0001
1000
0000
0000
0001
0000
0000
0100
0000
0000
0010
0000
0000
1000
0100
1000
0100
0000
0000
0010
0000
0000
,  // measure 41
0001
0000
0100
0000
0001
0000
0130
0000
0000
0000
0000
0000
0010
0000
0000
0000
0000
0000
1003
0000
0000
0000
0000
0000
1001
0000
0000
0000
0000
0000
0001
0000
0010
0000
0001
0000
0010
0000
0000
0100
0000
0000
1000
0000
0000
0001
0000
0000
,  // measure 42
1000
0010
1000
0010
0000
0000
0100
0000
0000
0001
0000
0000
1000
0000
0000
0001
0010
0001
0010
0000
0000
0100
0000
0000
,  // measure 43
1100
0000
1010
0000
1001
0000
0101
0000
1001
0000
0011
0000
,  // measure 44
0110
0000
0000
1001
,  // measure 45
1000
0000
0001
0100
0010
0000
1000
0000
0001
0010
0100
0010
0100
0000
1000
0000
,  // measure 46
0001
0000
1000
0010
0100
0000
0001
0000
1000
0100
0010
0100
0010
0000
0001
0000
,  // measure 47
1000
0000
0001
0100
0010
0000
1000
0100
0010
0000
0001
1000
0001
0000
0100
0000
,  // measure 48
0101
0000
1010
0000
0001
0010
1000
0010
,  // measure 49
0001
0000
0100
0000
0010
0000
1000
0100
0010
0000
0001
0100
0010
0000
1000
0001
,  // measure 50
0010
0100
0010
0100
1000
0000
0002
0000
0000
0000
0103
0000
0010
0000
1000
0001
,  // measure 51
1000
0000
0000
0001
0010
0000
0200
0000
1300
0000
0001
1000
0010
0000
0200
0000
,  // measure 52
0301
0000
0000
0000
,  // measure 53
1000
0001
1000
0001
1000
0001
1000
0001
1000
0001
1000
0001
0100
0000
0000
0000
,  // measure 54
1001
0000
2000
0000
3010
0000
1000
0100
0320
0000
0100
0000
0031
0000
1000
0001
,  // measure 55
0200
0000
0310
1000
0002
0000
3023
0000
0130
1000
0001
0100
0010
1000
0100
0010
,  // measure 56
0001
0000
0100
0000
0001
0000
0100
0000
0000
0010
0000
0000
2000
0000
0000
0000
0000
0000
3002
0000
0000
0000
0000
0000
1003
0000
0000
0000
0010
0000
0000
0000
0100
0000
0000
0000
0002
0000
0000
0000
0000
0000
2033
0000
0000
0000
0000
0000
,  // measure 57
3100
0000
0000
0000
0000
0000
0000
0000
1000
0100
0010
0001
0100
0010
1000
0001
,  // measure 58
0000
0000
0000
0000
0001
0100
0010
0100
0001
0000
0100
0001
0010
0001
0100
0000
,  // measure 59
0001
0000
1000
0100
0010
0100
1000
0000
0100
1000
0010
1000
0100
0000
1000
0001
,  // measure 60
0100
0000
0001
1000
0010
1000
0001
0000
1000
0001
0010
0001
1000
0000
0001
0010
,  // measure 61
0100
1000
0000
1000
0010
0000
0010
0100
0000
0100
0001
0000
1000
0100
0010
0001
;

//---------------dance-single - ----------------
#NOTES:
     dance-single:
     :
     Hard:
     12:
     0.476553,0.524405,0.135467,0.270934,0.279401,394.000000,378.000000,16.000000,32.000000,0.000000,0.000000,0.476553,0.524405,0.135467,0.270934,0.279401,394.000000,378.000000,16.000000,32.000000,0.000000,0.000000:
0000
0000
0000
0000
,
0000
0000
0000
0000
,
0000
0000
0000
0000
,
0000
0000
0000
0000
,
1000
0000
0000
0100
0000
0000
0010
0000
0002
0000
0000
0000
1003
0000
0000
0000
,
0001
0100
1000
0100
0020
0000
1030
0000
,
0001
0100
0001
0000
1000
0100
1000
0000
,
0002
0000
0023
0000
0130
1000
0001
1000
,
0010
0000
1010
0000
0102
0000
1003
0100
,
0010
0100
0010
0001
0100
0010
0100
0010
,
2000
0000
3001
0100
0001
1000
0200
0000
,
1300
0001
1000
0001
0100
0100
0010
0010
,
2000
0000
0000
0000
3001
0100
0001
0000
0100
0000
0001
0000
0010
0000
0100
0000
,
1000
0100
1000
0000
0100
0000
0010
0000
0001
0000
1000
0000
0010
0000
0000
0000
,
1000
0001
1000
0000
0001
0000
0100
0000
0010
1000
0010
0000
0100
0000
0002
0000
,
0000
2000
0000
0000
3003
0000
1001
0000
,
1100
0000
0000
0100
0000
0000
0010
0000
0000
0010
0000
0000
0001
0000
1000
0000
,
0010
0000
0000
0010
0000
0000
0100
0000
0000
0001
1000
0000
0001
0000
0100
0000
,
0010
0000
0000
0010
0000
0000
1000
0000
0000
1000
0000
0000
0001
0000
0010
0000
,
0001
0100
0000
0001
0100
0000
0010
1000
0000
0010
1000
0000
0100
0000
0100
0000
,
0300
0000
0000
0000
1001
0000
1000
0000
0000
0010
0000
0000
0100
0000
0100
0000
,
0001
1000
0000
0001
0000
0000
0100
0000
0000
0100
0010
0000
1000
0000
0001
1000
,
0001
0000
0000
0010
0000
0000
0100
0000
0000
1000
0001
0000
1000
0000
0010
0000
,
1000
0100
0000
1000
0100
0000
0010
0001
0000
0010
0001
0000
1000
0000
0001
0000
,
0200
0010
0310
0000
,
2000
0000
0010
0000
0100
3100
0000
0000
,
0002
0000
0010
0000
0100
0103
0000
0000
,
0002
0000
2003
0000
3010
1000
0001
0000
,
1000
0000
0100
0000
0001
0000
0100
0000
1000
0000
0000
0001
0000
0000
1000
0000
,
0010
0000
0001
0000
0010
0000
0000
1000
0000
0000
0001
0000
0010
0000
0100
0000
,
2000
0000
3001
0000
1000
0010
0000
1000
,
0100
0000
1000
0000
0001
0000
0100
0000
0001
1000
0000
0001
1000
0000
0000
0000
,
0001
0000
0100
0000
0001
1000
0001
0000
1000
0000
0000
1100
0000
0000
0000
0000
,
1000
0000
0100
0000
1000
0001
1000
0000
0001
0000
0000
0101
0000
0000
0000
0000
,
1000
0010
1000
0000
0001
0010
0001
0000
,
1000
0000
0100
0000
0001
0000
0100
0000
1000
0000
0001
0100
0000
0000
0000
0000
,
0001
0000
1000
0100
0000
1000
0100
0000
0010
0000
0000
0010
0000
0000
0001
0000
,
1000
0000
0001
0000
0100
0000
0000
0100
0000
0000
0001
0000
0100
0000
0010
0000
,
1000
0000
0001
0020
0000
0000
0130
0000
,
1000
0000
0000
0001
0000
0000
0200
0000
0000
0000
0000
0000
0310
0000
0000
0000
,
1000
0001
1000
0000
0001
0000
0010
0000
1000
0000
0010
0000
0100
0000
0200
0000
,
0000
2300
0000
3001
0010
0100
1000
0000
,
0001
0100
0001
0000
1000
0000
0001
0000
0010
0000
1000
0000
0010
0000
0001
0000
,
0011
0000
0010
0000
0100
0000
1100
0000
1000
0000
0010
0000
,
1001
0000
3003
0110
,
1001
0000
0000
0001
0100
0000
0001
0000
1000
0000
0001
0000
1000
0100
1000
0000
,
0001
0100
0010
1000
0001
0010
1000
0010
,
0002
0000
1003
0100
1000
0001
0100
0010
,
2000
3002
0103
1001
,
2100
0000
0000
0000
3001
0000
0100
0010
0100
0000
0001
0000
1000
0000
0000
0000
,
0001
0000
1000
0000
0100
0010
0200
0000
0000
0000
1300
0000
0001
0000
0000
0000
,
1000
0100
1000
0020
0000
0130
0001
0020
,
0000
0200
0000
0000
0000
0000
0330
0000
,
0001
1000
0001
0200
0000
0301
1000
0000
,
2100
0000
0000
0000
3001
0000
1000
0100
1000
0000
0000
0000
0001
0000
0100
0001
,
0100
0000
0000
0001
0000
0000
1000
0000
0010
0000
0100
0000
0010
0000
0100
0000
,
0002
0000
0013
0100
0100
1000
0010
0100
,
0100
0000
0000
0000
0001
1000
1301
0000
,
0000
0000
0000
0000
1000
0100
0000
1000
0100
0000
1000
0001
0000
1000
0001
0000
,
0000
0000
0001
0100
0000
0001
0100
0000
0001
1000
0000
0001
1000
0000
0000
0000
,
0001
0000
1000
0010
0000
1000
0010
0000
0100
0001
0000
0100
0001
0000
1000
0000
,
0100
0000
0001
0000
0100
0000
2000
0000
0000
0000
3001
0000
0100
0000
0001
1000
;

//---------------dance-single - ----------------
#NOTES:
     dance-single:
     :
     Medium:
     7:
     0.301172,0.419101,0.177800,0.254001,0.008467,249.000000,228.000000,21.000000,30.000000,0.000000,0.000000,0.301172,0.419101,0.177800,0.254001,0.008467,249.000000,228.000000,21.000000,30.000000,0.000000,0.000000:
0000
0000
0000
0000
,
0000
0000
0000
0000
,
0000
0000
0000
0000
,
0000
0000
0000
0000
,
1000
0100
0020
0000
0031
0000
0000
0000
,
1000
1000
0001
0000
,
0001
0100
0020
0000
1030
0000
0000
0000
,
2002
0000
0000
3003
,
0001
0000
2000
0000
3001
0100
0001
0000
,
1000
0000
0002
0000
1003
0100
1000
0000
,
0001
0010
0010
0000
,
0100
1000
1000
0000
,
0001
0000
1000
0100
1000
0000
0000
0000
,
0001
0100
0001
0000
1000
0000
0000
0000
,
0001
1000
0010
0000
1000
0001
0010
0000
,
2002
0000
3003
0110
,
1002
0000
0103
0000
0001
0100
0001
0000
,
2000
0000
3100
0000
1000
0100
1000
0000
,
0002
0000
0013
0000
0001
0010
0001
0000
,
1000
0001
0100
0000
,
0001
1000
0000
0001
0000
1000
0100
1000
,
0000
0001
0000
1000
0000
0001
0100
0001
,
0000
1000
0000
0010
0000
1000
0010
1000
,
0001
1000
0100
0010
,
0002
0003
0000
0000
,
2000
0000
3000
0000
0000
0010
0000
0000
,
0200
0000
0300
0000
0000
0001
0000
0000
,
2000
3000
0000
0000
,
0001
0010
0100
0000
,
1000
0010
0100
0000
,
0002
0103
0010
1000
,
0001
1000
0100
0000
1000
0001
0100
0000
,
1001
0000
1100
0000
1000
0001
0100
0000
,
1001
0000
0101
0000
0001
1000
0100
0000
,
1000
0010
1000
0000
0001
0010
0001
0000
,
1000
0001
0100
0000
,
0001
0100
0010
0000
1000
0100
0010
0000
,
0001
1000
0010
0010
,
1000
0100
1000
0000
0001
0100
0001
0000
,
2000
0000
0000
3002
0000
0000
0103
0000
,
2002
0000
3003
0000
0001
0000
1000
0200
,
0000
0000
0310
0000
0010
0001
1000
0000
,
0002
0000
0003
0000
1000
0000
0010
0010
,
1000
0000
0000
0000
0100
0000
0100
0000
0000
0000
0010
0000
,
0010
0000
0000
1001
,
0102
0000
2003
0000
3010
0100
0010
0000
,
1000
0100
0010
0000
0001
0010
0100
0000
,
2000
0100
3001
0000
,
0002
0100
1003
0000
,
0001
0000
1000
0010
0200
0000
0301
0000
,
1000
0000
0100
0010
0001
0000
0000
0000
,
1000
0100
1000
0000
0001
0100
0001
0000
,
1000
0000
0000
0000
,
2002
0000
0000
3003
,
0001
0000
1000
0010
0100
0000
0000
0010
,
0100
0000
0000
0001
2000
0000
3001
0000
,
1000
0000
0001
0010
0100
0000
0000
0010
,
0100
0000
0000
1000
,
0001
1100
0101
1100
,
0010
1100
0101
1100
,
0010
1010
0011
1010
,
0001
0000
1000
0000
0001
0010
0100
1000
;

//---------------dance-single - ----------------
#NOTES:
     dance-single:
     :
     Easy:
     4:
     0.179010,0.235268,0.042333,0.084667,0.000000,148.000000,143.000000,5.000000,10.000000,0.000000,0.000000,0.179010,0.235268,0.042333,0.084667,0.000000,148.000000,143.000000,5.000000,10.000000,0.000000,0.000000:
0000
0000
0000
0000
,
0000
0000
0000
0000
,
0000
0000
0000
0000
,
0000
0000
0000
0000
,
0001
0100
0010
0000
,
1000
0100
0010
0000
,
0001
0001
1000
0000
,
1000
0000
0000
0000
,
0001
1000
0020
0030
,
0010
0000
0010
0000
,
1000
0001
0020
0030
,
0010
0000
0010
0000
,
0001
0001
0100
0000
,
0100
0100
0010
0000
,
1000
1000
0100
0100
,
0010
0000
0000
0000
,
0001
0000
0001
0010
,
0100
0000
1000
0000
,
1000
0000
1000
0010
,
0100
0000
0100
0000
,
0000
0001
1000
0100
,
0100
0000
0100
0000
,
1000
0001
0100
0100
,
0010
0000
1000
0000
,
0002
0000
0003
0000
,
2000
0000
3000
0000
,
0200
0000
0300
0000
,
0020
0000
0030
0000
,
0001
0001
0100
0000
,
0001
1000
0001
0000
,
1000
1000
0100
0000
,
1000
0000
0000
0000
,
0001
1000
0010
0000
,
1000
0001
0100
0000
,
0001
0100
0001
0000
,
1000
0100
1000
0000
,
0001
0010
0100
0000
,
1000
0010
0100
0000
,
0010
0010
0100
0100
,
0001
0000
0000
0000
,
2000
0000
3000
0100
,
0100
0000
0010
0000
,
0002
0000
0003
0100
,
0100
0000
0010
0000
,
0110
0000
0000
1001
,
1001
0000
1000
0000
,
0001
0010
0100
0100
,
1000
0000
0001
0000
,
1000
0010
0100
0000
,
0010
0010
0100
0000
,
0010
0010
0100
0000
,
0001
1000
0100
0010
,
0001
0000
0000
0000
,
2002
0000
0000
3003
,
1000
0000
0100
0000
,
0100
0100
0010
0010
,
0001
0000
0001
0000
,
1000
0000
0000
0000
,
0000
0001
1000
0010
,
0000
1000
0001
0010
,
0000
0001
1000
0100
,
0100
0000
1000
1001
;

//---------------dance-single - ----------------
#NOTES:
     dance-single:
     :
     Beginner:
     1:
     0.091924,0.130704,0.033867,0.000000,0.000000,76.000000,72.000000,4.000000,0.000000,0.000000,0.000000,0.091924,0.130704,0.033867,0.000000,0.000000,76.000000,72.000000,4.000000,0.000000,0.000000,0.000000:
0000
0000
0000
0000
,
0000
0000
0000
0000
,
0000
0000
0000
0000
,
0000
0000
0000
0000
,
1000
0000
0000
0000
,
0001
0000
0000
0000
,
0100
0000
0000
0000
,
0100
0000
0000
0000
,
1001
0000
0000
0000
,
1000
0000
1000
0000
,
1000
0000
0000
0000
,
0010
0000
0000
0000
,
0100
0000
0100
0000
,
0100
0000
0000
0000
,
0001
0000
0001
0000
,
0001
0000
0000
0000
,
1000
0000
0000
1000
,
1000
0000
0000
0000
,
0010
0000
0000
0010
,
0010
0000
0000
0000
,
0000
0100
0000
0100
,
0000
0000
0000
0000
,
0000
0001
0000
0001
,
0000
0000
0000
0000
,
1000
0000
0000
0000
,
0001
0000
0000
0000
,
0100
0000
0000
0000
,
0100
0000
0000
0000
,
0010
0000
0010
0000
,
0010
0000
0000
0000
,
1000
0000
0000
0000
,
0001
0000
0000
0000
,
1000
1000
0000
0000
,
1000
0000
0000
0000
,
0001
0000
0000
0000
,
0001
0000
0000
0000
,
0100
0100
0000
0000
,
0100
0000
0000
0000
,
0010
0000
0000
0000
,
0010
0000
0000
0000
,
1000
0000
0000
0000
,
1000
0000
1000
0000
,
1000
0000
0000
0000
,
0001
0000
0000
0000
,
1000
0000
0000
0000
,
1001
0000
0000
0000
,
0001
0000
0001
0000
,
0001
0000
0000
0000
,
0100
0000
0100
0000
,
0100
0000
0000
0000
,
0010
0000
0000
0000
,
1000
0000
1000
0000
,
1000
0000
0000
0000
,
0001
0000
0000
0000
,
1001
0000
0000
0000
,
1000
0000
1000
0000
,
1000
0000
0000
0000
,
0100
0000
0000
0000
,
0000
0010
0000
0010
,
0000
0000
0000
0000
,
0000
0010
0000
0010
,
0000
0000
0000
1001
;

//---------------dance-double - ----------------
#NOTES:
     dance-double:
     :
     Challenge:
     15:
     0.690639,0.734167,0.177800,0.287867,0.787402,571.000000,550.000000,21.000000,34.000000,0.000000,0.000000,0.690639,0.734167,0.177800,0.287867,0.787402,571.000000,550.000000,21.000000,34.000000,0.000000,0.000000:
00000000
00000000
00000000
00000000
,
00000000
00000000
00000000
00000000
,
00000000
00000000
00000000
00000000
,
00000000
00000000
00000000
00000000
,
00010000
00000000
00001000
00200000
00000000
00000000
01300000
00000000
01000000
00000000
10000000
00000000
00010000
00000000
01000000
00002000
,
00000000
00000000
00023000
00003000
00000000
00030100
00000000
00000100
00000000
00001000
00000100
00000010
00000001
00000000
00001000
00000000
,
00000001
00000100
00000000
00000100
00000010
00001000
00000001
00000000
00001000
00000000
00000100
00010000
00000100
00000000
00010000
00000000
,
00001000
00000000
00000000
00001000
00000000
00000000
00100000
00000000
00000000
00010000
10000000
00010000
10000000
00000000
00000000
00100000
00000000
00000000
01000000
00000000
00000000
00010000
00000000
00000000
,
01010000
00000000
00000000
00010000
10000000
00000000
00010000
00000000
00100000
00000000
00001000
00000000
00010000
00001000
00010000
00001000
,
00010000
00000000
00000000
00000000
00000000
00000000
00000000
00000000
00000000
00010000
00000000
00000000
00000100
00000000
00000000
00000000
00000000
00000000
00010000
00000000
00000000
00000000
00000000
00000000
00000010
00000000
00000000
00000000
00000000
00000000
00001000
00000000
00000000
00000000
00000000
00000000
00000001
00000000
00000000
00000000
00000010
00000000
00000000
00000000
00000100
00000000
00000000
00000000
,
00001000
00000000
00000000
00001000
00000001
00000000
00001000
00000000
00000100
00000000
00010000
00000000
00001000
00010000
00001000
00010000
,
00001000
00001000
00100000
00100000
00020000
01000000
10030000
00000000
,
10010000
00000000
10000000
01000000
00100000
01000000
00100000
00010000
01000000
00000000
00001000
00000000
00010000
00000100
00001000
00000000
,
00000001
00000000
00000000
00000100
00000000
00000000
00000010
00000000
00000000
00000100
00000000
00000000
00000010
00000000
00000000
00001000
00000000
00000000
00000001
00000000
00000000
00000000
00000000
00000000
00000010
00000000
00000000
00000000
00000000
00000000
00000100
00000000
00000000
00000000
00000000
00000000
00001000
00000000
00000000
00000000
00000001
00000000
00000000
00000000
00001000
00000000
00000000
00000000
,
00000100
00010000
00000100
00010000
00001000
00100000
00010000
01000000
00100000
10000000
00100000
10000000
00010000
00100000
00002000
00000300
,
00000000
00000000
00023000
00000000
00000000
00000000
00000000
00000000
00031000
00000100
00000010
00000100
00000001
00000000
00000000
00000000
,
00000101
00000000
00000000
00000100
00000000
00000000
00000010
00000000
00000000
00001000
00000000
00000000
00000100
00000000
00010100
00000000
,
00010000
00000000
00000000
00001000
00000000
00000000
00100000
00000000
00000000
00010000
01000000
00010000
10000000
01000000
00100000
00010000
,
10000000
00000000
00000000
00100000
00000000
00000000
01000000
00000000
00000000
00010000
00000000
00000000
00100000
00000000
00101000
00000000
,
00001000
00010000
00000000
00000010
00010000
00000000
00000100
00010000
00000000
00001000
00010000
00000000
00001000
00010000
00100000
10000000
,
00020000
00000000
00000000
10030000
31000000
00000000
10000000
00000000
00010000
01000000
00100000
01000000
00010000
00000000
00100000
00000000
,
00001000
00010000
00100000
00010000
00001000
00000000
00010000
00000000
00000100
00001000
00000010
00000100
00000001
00000010
00000100
00001000
,
00000001
00000000
00001000
00000100
00001000
00000001
00000100
00000000
00000001
00000100
00000001
00001000
00000100
00000000
00010000
00000000
,
00001000
00100000
00000000
00100000
01000000
00000000
10000000
00100000
00000000
00100000
01000000
00000000
00010000
00100000
01000000
10000000
,
00020000
01000000
00130000
00000000
,
20000000
00000000
00100000
00000000
30010000
02010000
00000000
00000000
,
03002000
00000000
00100000
00000000
00013000
00010200
00000000
00000000
,
00000310
00000001
00001000
00000000
00000001
00000100
00001000
00000100
,
00000001
00000000
00000010
00000000
00001000
00000000
00010000
00000000
00002000
00000000
00000000
00023000
00000000
00000000
00130000
00000000
,
10000000
00000000
00100000
00000000
00020000
00000000
00000000
00032000
00000000
00000000
00013000
00000100
00010000
00000000
00000100
00000000
,
00000020
00000000
00000031
00001000
00000001
00000100
00000000
00000001
,
00000100
00000000
00001000
00000000
00000000
00000000
00010000
00001000
00010000
00001000
00000000
00100000
00000000
00010000
00000000
10000000
,
00010000
00000000
10000000
00000000
00010000
01000000
00100000
01000000
00001000
00010000
00000000
00001000
00000100
00000000
00000010
00000000
,
00001000
00000000
00000001
00000000
00001000
00000010
00000100
00000010
00010000
00001000
00000000
00010000
00100000
00000000
01000000
00000000
,
00010000
10000000
00010000
00000000
10000000
01000000
00100000
01000000
00100000
00000000
00010000
10000000
00010000
00000000
10000000
00000000
,
01000000
00000000
00010000
00000000
00001000
00000000
00000010
00000000
00000001
00000000
00001000
00000001
00000100
00000000
00000000
00000000
,
00000001
00000000
00001000
00000010
00001000
00000001
00000010
00000100
00001000
00000000
00000100
00010000
00000100
00000000
00010000
00001000
,
00010000
00001000
00100000
00010000
01000000
00000000
00010000
10000000
00000000
00010000
00100000
01000000
10000000
00000000
00010000
00000000
,
02010000
00000000
00000000
00000000
03001000
00000000
00021000
00000000
00000000
00000000
00030100
00000000
00000010
00000000
00000001
00001000
,
00000001
00000000
00001000
00000100
00000000
00000100
00020000
00000000
00000000
00000000
00000000
00000000
00031000
00000000
00000000
00000000
,
00100000
00010000
00100000
00010000
00000000
00000000
10000000
00000000
00000000
00100000
00000000
00000000
01000000
00000000
00000000
00010000
01000000
00010000
01000000
00000000
00000000
00001000
00000000
00000000
,
00010000
00000000
00000100
00000000
00010000
00000000
00000100
00000000
00000000
00000000
00000000
00000000
00001000
00000000
00000000
00000000
00000000
00000000
00000001
00000000
00000000
00000000
00000000
00000000
00000100
00000000
00000000
00000000
00000000
00000000
00000001
00000000
00001000
00000000
00000001
00000000
00001000
00000000
00000000
00000010
00000000
00000000
00000100
00000000
00000000
00000001
00000000
00000000
,
00001000
00000100
00001000
00000100
00000000
00000000
00010000
00000000
00000000
00001000
00000000
00000000
00100000
00000000
00000000
00010000
10000000
00010000
10000000
00000000
00000000
00100000
00000000
00000000
,
10100000
00000000
10010000
00000000
01010000
00000000
01001000
00000000
00011000
00000000
00010100
00000000
,
00000110
00000000
00000000
00001001
,
00000101
00000000
00000100
00000010
00001000
00000000
00000100
00000000
00010000
00001000
00010000
00001000
00100000
00000000
00010000
01000000
,
00100000
00000000
10000000
01000000
00100000
00000000
00010000
00000000
10000000
00100000
10000000
00100000
01000000
00000000
00010000
00100000
,
00001000
00000000
00010000
00000100
00001000
00000000
00000100
00000000
00000001
00000000
00000100
00000000
00001000
00000000
00000010
00000000
,
00001010
00000000
00020010
00000000
00031000
00010000
00100000
10000000
,
00010000
00000000
01000000
00000000
00010000
00100000
01000000
00100000
00001000
00000000
00010000
00001000
00010000
00000000
00000100
00001000
,
00000100
00001000
00000001
00000100
00000010
00001000
00000002
00000000
00000000
00000000
00000013
00000000
00000100
00000000
00010000
00001000
,
00020000
00000000
00130000
20000000
31000000
00100000
00001000
00020000
,
00031000
00000000
00000000
00000000
,
00010000
00001000
00010000
00001000
00010000
00001000
00010000
00001000
00010000
00001000
00010000
00001000
00000100
00000000
00000000
00000000
,
00001001
00000000
00000002
00000000
00000103
00000000
00000001
00000010
00000200
00000000
00000001
00000000
00001300
00000000
00000100
00010000
,
00002000
00000000
00103000
00010000
02000000
00000000
03200000
00000000
10300000
01000000
00100000
00010000
01000000
00100000
10000000
00010000
,
01000000
00000000
00100000
00000000
01000000
00000000
00100000
00000000
00000000
10000000
00000000
00000000
00020000
00000000
00000000
00000000
00000000
00000000
00230000
00000000
00000000
00000000
00000000
00000000
00301000
00000000
00000000
00000000
00010000
00000000
00000000
00000000
00010000
00000000
00000000
00000000
00000200
00000000
00000000
00000000
00000000
00000000
00000320
00000000
00000000
00000000
00000000
00000000
,
00000031
00000000
00000000
00000000
00000000
00000000
00000000
00000000
00001000
00000001
00000100
00000010
00001000
00000100
00000010
00000001
,
00000000
00000000
00000000
00000000
00001000
00000100
00000010
00000100
00001000
00000000
00000001
00000100
00000010
00000100
00000001
00000000
,
00001000
00000000
00000010
00010000
00001000
00010000
00000010
00000000
00010000
00001000
00100000
00001000
00010000
00000000
00001000
00100000
,
00010000
00000000
10000000
01000000
10000000
00010000
01000000
00000000
00010000
01000000
00010000
10000000
00100000
00000000
10000000
01000000
,
00100000
00010000
00000000
00010000
01000000
00000000
01000000
00001000
00000000
00001000
00010000
00000000
00010000
00000100
00000010
00000001
;

//---------------dance-double - ----------------
#NOTES:
     dance-double:
     :
     Hard:
     12:
     0.489858,0.524405,0.110067,0.296334,0.292101,405.000000,392.000000,13.000000,35.000000,0.000000,0.000000,0.489858,0.524405,0.110067,0.296334,0.292101,405.000000,392.000000,13.000000,35.000000,0.000000,0.000000:
00000000
00000000
00000000
00000000
,
00000000
00000000
00000000
00000000
,
00000000
00000000
00000000
00000000
,
00000000
00000000
00000000
00000000
,
00010000
00000000
00000000
00001000
00000000
00000000
00100000
00000000
00020000
00000000
00000000
00000000
20030000
00000000
00000000
00000000
,
30010000
01000000
10000000
01000000
00002000
00000000
00013000
00000000
,
00010000
00000000
00000000
00000100
00000000
00000000
00000010
00000000
00000001
00000000
00001000
00000000
00000001
00000000
00000000
00000000
,
00001000
00000010
00000100
00000001
00002000
00000000
00003001
00000000
,
00001002
00000000
00000203
00000000
00000310
00001000
00000010
00001000
,
00000100
00010000
00000100
00010000
00001000
00100000
00010000
01000000
,
00200000
00000000
10300000
00010000
10000000
01000000
00100000
00010000
,
02000000
00000000
03002000
00000000
00013000
00000100
00000010
00000100
,
00020000
00000000
00000000
00000000
00031000
00000000
00100000
00010000
00100000
00000000
00001000
00000000
00010000
00000000
00000000
00000000
,
00001000
00000000
00010000
00000000
00000010
00001000
00000010
00000000
00010000
00000000
00001000
00000000
00100000
00000000
00010000
00000000
,
10000000
01000000
10000000
00000000
00100000
00000000
01000000
00000000
00001000
00010000
00001000
00000000
00010000
00000000
00000200
00000000
,
00000000
00000020
00000000
00000000
00000330
00000000
00001001
00000000
,
00000101
00000000
00000000
00000100
00000000
00000000
00000010
00000000
00000000
00000010
00000000
00000000
00010000
00000000
00001000
00000000
,
00010000
00000000
00000000
00001000
00000000
00000000
00100000
00000000
00000000
00010000
10000000
00000000
00010000
00000000
01000000
00000000
,
00100000
00000000
00000000
00100000
00000000
00000000
01000000
00000000
00000000
01000000
00000000
00000000
00010000
00000000
10000000
00000000
,
00010000
00100000
00000000
00010000
00100000
00000000
00001000
00010000
00000000
00001000
00010000
00000000
00001000
00000000
00100000
00000000
,
00000000
00000000
00000000
00000000
10010000
00000000
10000000
00000000
00000000
01000000
00000000
00000000
00100000
00000000
00010000
00000000
,
01000000
00001000
00000000
01000000
00000000
00000000
00001000
00000000
00000000
00010000
00000100
00000000
00000010
00000000
00000100
00000000
,
00000010
00000000
00000000
00000001
00000000
00000000
00001000
00000000
00000000
00000001
00000100
00000000
00000001
00000000
00001000
00000000
,
00000010
00010000
00000000
00000010
00010000
00000000
00001000
00010000
00000000
00001000
00010000
00000000
00001000
00000000
00100000
00000000
,
00020000
10000000
00130000
00000000
,
20000000
00000000
00010000
00000000
30100000
00200000
00000000
00000000
,
00320000
00000000
00032000
00000000
00010000
00023000
00000000
00000000
,
00030100
00000010
00000001
00000000
00000100
00000010
00001000
00000000
,
00000001
00000000
00000100
00000000
00000001
00000000
00000100
00000000
00001000
00000000
00000000
00001000
00000000
00000000
00010000
00000000
,
01000000
00000000
00010000
00000000
01000000
00000000
00000000
01000000
00000000
00000000
10000000
00000000
01000000
00000000
00100000
00000000
,
00020000
00000000
01030000
00000000
00010000
10000000
00100000
00000000
,
10000000
00010000
10000000
00010000
00100000
01000000
10010000
00000000
,
11000000
00000000
01000000
00000000
00100000
00010000
00100000
00000000
00010000
00000000
01000000
00000000
00001000
00000000
00000000
00000000
,
00010000
00000000
00000100
00000000
00001000
00000010
00001000
00000000
00000001
00000000
00000010
00000000
00000100
00000000
00000000
00000000
,
00001000
00000001
00000100
00001000
00000100
00000001
00000010
00001000
,
00010000
00000000
00001000
00000000
00010000
00000000
00001000
00000000
00010000
00000000
00100000
10000000
00000000
00000000
00000000
00000000
,
00010000
00000000
00100000
00000000
00010000
00000000
10000000
00000000
00010000
00000000
10000000
01000000
00000000
00000000
00100000
00000000
,
00001000
00000000
00010000
00000000
00001000
00000000
00010000
00000100
00000000
00000000
00001000
00000001
00001000
00000000
00000001
00000000
,
00000200
00000000
00000310
00000000
00001000
00000100
00010000
00000000
,
00000100
00000000
00010000
00001000
00000000
00010000
00002000
00000000
00000000
00000000
00000000
00000000
00103000
00000000
00000000
00000000
,
00010000
00100000
00010000
00000000
10000000
00000000
00010000
00000000
01000000
00000000
00100000
00000000
10000000
00000000
20000000
00000000
,
00000000
30020000
00000000
00130000
00001000
00010000
00001000
00000000
,
00010000
00000100
00010000
00000000
00000100
00000000
00001000
00000000
00000010
00000000
00000010
00000000
00000100
00000000
00000001
00000000
,
00000101
00000000
00000100
00000000
00001000
00000000
00011000
00000000
00010000
00000000
01000000
00000000
,
11000000
00000000
00000000
10010000
,
10100000
00000000
00000000
00100000
10000000
00000000
01000000
00000000
10000000
00000000
00100000
00000000
01000000
00010000
01000000
00000000
,
00001000
00010000
00100000
00010000
00001000
00000010
00000001
00001000
,
00000001
00000000
00000000
00000001
00000100
00000000
00000010
00000000
00001000
00000100
00001000
00000000
00000001
00000000
00000100
00000000
,
00000020
00000000
00002030
00000000
00003001
00000010
00001000
00010000
,
02000000
00000000
00000000
00000000
13000000
00000000
00010000
01000000
00010000
00000000
10000000
00000000
01000000
00000000
00000000
00000000
,
10000000
00000000
00010000
00000000
00100000
00001000
00200000
00000000
00000000
00000000
00301000
00000000
00010000
00000000
00000010
00000100
,
00000020
00000000
00000130
00001000
00000100
00000001
00001000
00000200
,
00000000
00020030
00000000
00000000
00000000
00000000
00030300
00000000
,
00010000
00001000
00010000
00200000
00000000
01300000
00010000
00000000
,
10020000
00000000
00000000
00000000
10030000
00000000
00100000
01000000
00200000
00000000
00000000
00000000
01300000
00000000
00010000
10000000
,
00010000
00000000
00000000
01000000
00000000
00000000
00001000
00000000
00010000
00000000
00010000
00000000
00000100
00000000
00000100
00000000
,
00000010
00000000
00000000
00000010
00000001
00000000
00001000
00000000
00000001
00000000
00001000
00000000
00000100
00000000
00010000
00000000
,
00002000
00000000
00013000
00011000
,
00000000
00000000
00000000
00000000
00001000
00010000
00000000
00001000
00010000
00000000
00001000
00100000
00000000
00001000
00100000
00000000
,
00000000
00000000
00000100
00001000
00000000
00000100
00001000
00000000
00000100
00010000
00000000
00000100
00020000
00000000
00000000
00000000
,
00031000
00000000
00010000
00000010
00000000
00010000
00000010
00000000
00010000
00001000
00000000
00010000
00001000
00000000
00100000
00010000
,
00100000
00000000
00000000
00010000
00000000
00000000
10000000
00000000
00000000
00100000
00000000
00000000
00010000
00000000
00001000
00010000
;

//---------------dance-double - ----------------
#NOTES:
     dance-double:
     :
     Medium:
     7:
     0.320524,0.392907,0.152400,0.397934,0.016933,265.000000,247.000000,18.000000,47.000000,0.000000,0.000000,0.320524,0.392907,0.152400,0.397934,0.016933,265.000000,247.000000,18.000000,47.000000,0.000000,0.000000:
00000000
00000000
00000000
00000000
,
00000000
00000000
00000000
00000000
,
00000000
00000000
00000000
00000000
,
00000000
00000000
00000000
00000000
,
00020000
00000000
00030100
00000000
00000010
00000001
00001000
00000000
,
00000001
00000100
00000010
00000000
00020000
00000000
00030000
00000000
,
00002000
00000000
00103000
00000000
00010000
00100000
01000000
00000000
,
10000000
00010000
10000000
00010000
02000000
00000000
03100000
00000000
,
20010000
00100000
02000000
33000000
,
10000000
01000000
00010000
00000000
00001000
00010000
00001000
00000000
,
00020000
00030100
00000200
00000310
,
00000010
00000001
00001000
00000000
00000001
00001000
00000010
00000100
,
00000002
00000000
00000103
00000000
00000001
00000100
00000010
00000000
,
00001000
00000100
00001000
00000100
00020000
00000000
00031000
00000000
,
00201000
00301000
00010020
00010030
,
00022000
00000000
00000000
00033000
,
00002000
00000000
00103000
00000000
00001000
00100000
00010000
00000000
,
20000000
00000000
30100000
00000000
10000000
00100000
01000000
00000000
,
00002000
00000000
00013000
00000000
00001000
00010000
00001000
00000000
,
00010000
00000100
00000010
00000000
,
00000001
00001001
00000101
00002000
,
00003100
00010000
00001000
00000000
00010000
00001000
00200000
00000000
,
00310000
00110000
10010000
20000000
,
30010000
01000000
00100000
00000000
10000000
01000000
00100000
00000000
,
00020000
00000000
00000000
00030000
,
20000000
00000000
30000000
00000000
,
00200000
00000000
00000000
00300000
,
02000000
00000000
00000000
03000000
,
00001000
00000000
00010000
00010000
00000100
00000000
00010000
00000000
,
00001000
00000000
00001000
00001000
00100000
00000000
00001000
00000000
,
00020000
00030000
00000010
00000010
,
00000100
00000001
00001000
00000000
,
00000001
00000100
00000010
00000000
00002000
00000000
00003100
00000000
,
00010000
00001000
00100000
00000000
00020000
00000000
10030000
00000000
,
00010000
10000000
00100000
00000000
10000000
00010000
01000000
00000000
,
00001000
00001000
00010000
00000000
,
00001000
00100000
00010000
00010000
,
10000000
00100000
01000000
00000000
00010000
00000000
00000000
00000000
,
10000000
10000000
01000000
01000000
,
00100000
00010000
01000000
00001000
00010000
00000000
00000000
00000000
,
00022000
00000000
00033000
00000000
00010000
00000000
00000100
00000100
,
00000000
00000100
00000000
00001000
00000100
00000010
00000001
00000000
,
00001001
00000000
00000000
00000000
00000001
00000000
00001000
00001000
,
00000100
00000000
00010000
00000000
00000100
00000000
00010000
00000000
00001000
00000000
00010000
00000000
,
00001000
00000000
00000000
00101000
,
20010000
00000000
30200000
00000000
01300000
00010000
10000000
00000000
,
00010000
00100000
00001000
00000000
00010000
00000100
00001000
00000000
,
00000002
00000100
00002003
00000010
,
00003001
00000011
00000110
00001100
,
00020100
00000000
00031000
00000000
00010000
00000100
00010000
00000000
,
00000100
00000010
00000001
00001000
00000001
00000000
00001000
00000000
,
00000002
00000103
00000020
00001030
,
00010100
00000000
00000000
00000000
,
00022000
00000000
00000000
00033000
,
00002000
00000000
00103000
00010000
00200000
00000000
00310000
01000000
,
00020000
00000000
10030000
00000000
00100000
01000000
00001000
00000000
,
00020000
00000000
00030100
00001000
00000200
00000000
00001300
00000010
,
00000100
00000000
00000000
00000000
,
00000001
00000000
00001000
00000001
00000100
00000001
00002000
00000000
,
00003100
00000000
00010000
00001000
00010000
00000000
00001000
00000000
,
00100000
00000000
00010000
00100000
01000000
00100000
00010000
00000000
,
20000000
00000000
30200000
00000000
00320000
00000000
00031000
00010000
;

//---------------dance-double - ----------------
#NOTES:
     dance-double:
     :
     Easy:
     4:
     0.172962,0.209127,0.033867,0.203200,0.000000,143.000000,139.000000,4.000000,24.000000,0.000000,0.000000,0.172962,0.209127,0.033867,0.203200,0.000000,143.000000,139.000000,4.000000,24.000000,0.000000,0.000000:
00000000
00000000
00000000
00000000
,
00000000
00000000
00000000
00000000
,
00000000
00000000
00000000
00000000
,
00000000
00000000
00000000
00000000
,
00001000
00000000
00010000
00000000
,
00000100
00000100
00000010
00000000
,
00000001
00000000
00000100
00000000
,
00000010
00000000
00000000
00000000
,
00001000
00000001
00002000
00003000
,
00000100
00000000
00010000
00000000
,
00001000
00010000
00002000
00003000
,
00100000
00000000
00010000
00000000
,
10000000
10000000
00100000
00000000
,
01000000
01000000
00010000
00000000
,
00200000
00300000
00002000
00003000
,
00010000
00000000
00000000
00000000
,
00010000
00000100
00010000
00000000
,
00000100
00000100
00000010
00000000
,
00000001
00001000
00000001
00000000
,
00001000
00001000
00000010
00000000
,
00000000
00010000
00001000
00000000
,
00100000
00100000
00010000
00000000
,
10000000
00100000
01000000
00000000
,
00001000
00001000
00010000
00000000
,
00000200
00000300
00000000
00000000
,
00000020
00000030
00000000
00000000
,
00000002
00000003
00000000
00000000
,
00002000
00003000
00000000
00000000
,
00000001
00000100
00000001
00000000
,
00001000
00000100
00001000
00000000
,
00000100
00000000
00010000
00000000
,
00001000
00000000
00100000
00000000
,
00010000
10000000
00200000
00300000
,
10000000
00010000
00200000
00300000
,
00001000
00001000
00020000
00030000
,
00010000
00010000
00000200
00000300
,
00001000
00000001
00000020
00000030
,
00000001
00001000
00000020
00000030
,
00001000
00001000
00000200
00000300
,
00010000
00000000
00001000
00000000
,
00022000
00033000
00000000
00001000
,
00100000
00000000
00100000
01000000
,
20000000
30000000
00000000
00010000
,
02000000
03000000
00002000
00003000
,
00011000
00000000
00000000
00000000
,
00002002
00003003
00001000
00000000
,
00000001
00001000
00000010
00000010
,
00001000
00000000
00000100
00000000
,
00010000
00001000
00010000
00000000
,
00001000
00000000
00100000
00000000
,
00010000
00010000
10000000
00000000
,
00010000
01000000
00100000
10000000
,
00010000
00000000
00000000
00000000
,
20020000
00000000
00000000
30030000
,
10000000
00000000
01000000
00000000
,
00100000
00000000
00001000
00010000
,
00001000
00000000
00010000
00000000
,
00000010
00000000
00000000
00000000
,
00000000
00000100
00000100
00000000
,
00000010
00000010
00000010
00000000
,
00001000
00000100
00001000
00000000
,
00000100
00000100
00010000
00001000
;

//---------------dance-double - Ben Speirs STARDOM STYLE DP----------------
#NOTES:
     dance-double:
     :
     Edit:
     8:
     0.270934,0.419101,0.203200,0.304801,0.016933,224.000000,200.000000,24.000000,36.000000,43.000000,0.000000,0.270934,0.419101,0.203200,0.304801,0.016933,224.000000,200.000000,24.000000,36.000000,43.000000,0.000000:
00000000
00000000
00000000
00000000
,
00000000
00000000
00000000
00000000
,
00000000
00000000
00000000
00000000
,
00000000
00000000
00000000
00000000
,
00020000
00000001
00031000
00000000
,
00002000
10000000
00013000
00000000
,
00001000
00010000
00100000
10000000
,
00010000
00000000
00000000
00000000
,
10000000
01000000
00010000
00100000
,
10000000
00000000
00001000
00010000
,
00000001
00000100
00001000
00000010
,
00000001
00000000
00002002
00003003
,
00000001
00000100
00001000
00000000
,
00010000
01000000
10000000
00000000
,
00010000
000M0000
10000000
M0000000
00010000
000M0000
10000000
M0000000
,
00200000
00000000
00000000
00300000
,
10000000
M0000000
10000000
M0000000
,
10000000
00010000
00001000
00000000
,
00000001
0000000M
00000001
0000000M
,
00000001
00001000
00010000
00001000
,
00000000
00000000
10010000
M0000000
10000000
M0000000
10000000
M0000000
,
10000000
00010000
00001000
00001001
,
00000001
0000000M
00000001
0000000M
00000001
0000000M
00000001
0000000M
,
00000001
00001000
00010000
10010000
,
20000000
00000000
00000000
00000000
,
30020000
00000000
00000000
00000000
,
00032000
00000000
00000000
00000000
,
00003002
00000000
00000000
00000000
,
00020003
00100000
00031000
00011000
,
00002000
00000010
00013000
00011000
,
00020000
01000000
00031000
00011000
,
10010000
00000000
01100000
10010000
,
10000000
M0000000
10000000
M0000000
10000000
01000000
10000000
00000000
,
00010000
000M0000
00010000
000M0000
00010000
01000000
00010000
00000000
,
02000000
03000000
00000200
00000300
,
00200000
00300000
00000010
00001031
,
00000001
0000000M
00000001
0000000M
00000001
00000010
00000001
00000000
,
00001000
0000M000
00001000
0000M000
00001000
00000010
00001000
00000000
,
00000020
00000030
00200000
00300000
,
00011000
00000000
00000000
00000000
,
20010000
32000000
03020000
00230000
,
20300000
00000000
30000000
00000000
00001000
00010000
00000001
00000000
,
00001002
00000023
00002030
00003200
,
00000301
00000000
00000100
00000000
00001000
00000000
00010000
00000000
00100000
00000000
10000000
00000000
,
00010000
00000000
00000000
01100000
,
10010000
M0000000
10000000
M0000000
10000000
00010000
10000000
00010000
,
10000000
M0000000
10000000
M0000000
10000000
00010000
10000000
00000000
,
00020000
00000000
00001000
00000000
00032000
00000000
00003001
00003000
,
00001001
00000110
00001001
00000110
,
00001001
0000000M
00000001
0000000M
00000001
00001000
00000001
00001000
,
00000001
0000000M
00000001
0000000M
00000001
00001000
00000001
00000000
,
00002000
00000000
00010000
00000000
00023000
00000000
10030000
00030000
,
10010000
00000000
00000000
00000000
,
00022000
00000000
00000000
00033000
,
00010000
000M0000
00010000
000M0000
,
00010000
000M0000
00010000
000M0000
00010000
00001000
00010000
00000000
,
00001000
0000M000
00001000
0000M000
,
00001000
0000M000
00001000
0000M000
00001000
00010000
00001000
00000000
,
00000000
00000000
10010000
M0000000
10000000
01000000
10000000
01000000
,
10000000
M0000000
20000000
00000000
31000000
00010000
00001000
00000010
,
00000001
0000000M
00000001
0000000M
00000001
00000010
00000001
00000010
,
00000002
00000000
00000023
00000000
00002030
00000000
00013000
01000000
;
