#TITLE:夜明けまであと3秒;
#SUBTITLE:;
#ARTIST:Taku Inoue;
#TITLETRANSLIT:Yoake Made Ato 3 Byou;
#SUBTITLETRANSLIT:;
#ARTISTTRANSLIT:;
#GENRE:DRUM & BASS;
#CREDIT:;
#BANNER:Yoake Made Ato 3 Byou.png;
#BACKGROUND:Yoake Made Ato 3 Byou-bg.png;
#LYRICSPATH:;
#CDTITLE:cdtitle.png;
#MUSIC:Yoake Made Ato 3 Byou.ogg;
#OFFSET:-0.296000;
#SAMPLESTART:35.537998;
#SAMPLELENGTH:15.000000;
#SELECTABLE:YES;
#DISPLAYBPM:30.333000:182.000000;
#BPMS:0.000000=88.500000
,16.000000=182.000000
,160.000000=91.000000
,168.000000=182.000000
,234.000000=91.000000
,253.000000=30.333002
,254.000000=45.500000
,254.500000=91.000000
,255.000000=182.000000
;
#STOPS:15.000000=0.678000
;
#BGCHANGES:-0.250=Yoake Made Ato 3 Byou.avi=1.000=0=0=0=StretchNoLoop==CrossFade_Fastest==,
99999=-nosongbg-=1.000=0=0=0 // don't automatically add -songbackground-
;
#KEYSOUNDS:;
#ATTACKS:;

//---------------dance-single - Daff_4K----------------
#NOTES:
     dance-single:
     Daff_4K:
     Beginner:
     3:
     0.119229,0.158385,0.037937,0.000000,0.000000,110.000000,105.000000,5.000000,0.000000,0.000000,0.000000,0.119229,0.158385,0.037937,0.000000,0.000000,110.000000,105.000000,5.000000,0.000000,0.000000,0.000000:
0000
0000
0000
0000
,
0000
0000
0000
0000
,
0010
0000
1000
0000
,
0001
0000
0010
0010
,
0000
0000
0000
0000
,
0001
0000
0001
0000
,
0001
0000
0000
0000
,
1000
0000
1000
0000
,
1000
0000
0000
0000
,
0010
0000
0000
0000
,
0100
0000
0000
0000
,
0001
0000
0000
0000
,
0010
0000
0000
0000
,
0010
0000
0000
0000
,
0100
0000
0000
0000
,
0100
0000
0000
0000
,
1000
0000
1000
0000
,
1000
0000
0000
0000
,
0001
0000
0001
0000
,
0001
0000
0000
0000
,
1001
0000
0000
0000
,
0000
0000
0000
0000
,
1000
0000
1000
0000
,
1000
0000
0000
0000
,
0001
0000
0000
0000
,
0100
0000
0000
0000
,
0010
0000
0010
0000
,
0010
0000
0000
0000
,
0010
0000
0000
0000
,
1000
0000
0000
0000
,
0001
0000
0001
0000
,
0001
0000
0000
0000
,
1000
0000
0000
0000
,
0100
0000
0100
0000
,
0100
0000
0000
0000
,
1000
0000
0000
0000
,
0001
0000
0000
0000
,
1000
0000
0000
0000
,
1001
0000
0000
0000
,
0000
0000
0000
0000
,
0001
0000
0000
0000
,
1000
0000
0000
0000
,
0010
0000
0000
0000
,
0100
0000
0000
0000
,
0001
0000
0001
0000
,
0001
0000
0000
0000
,
0010
0000
0000
0000
,
0100
0000
0000
0000
,
1000
0000
1000
0000
,
1000
0000
0000
0000
,
0010
0000
0000
0000
,
0100
0000
0000
0000
,
0001
0000
0000
0000
,
1000
0000
0000
0000
,
0001
0000
0000
1000
,
1000
0000
0000
0001
,
0001
0000
0000
1000
,
0000
0000
0001
0000
,
0000
0000
1001
0000
,
0000
0000
0000
0000
,
0000
0000
1000
0000
,
0001
0000
0100
0000
,
0010
0000
1000
0000
,
0000
1001
0000
0000
,
0001
0000
0001
0000
,
0001
0000
0000
0000
,
1000
0000
1000
0000
,
1000
0000
0000
0000
,
0100
0000
0100
0000
,
0100
0000
0000
0000
,
1000
0000
0000
0000
,
0001
0000
0000
0000
,
1000
0000
1000
0000
,
1000
0000
0000
0000
,
0001
0000
0001
0000
,
0100
0000
0100
0000
,
0010
0000
0000
0000
,
0100
0000
0000
0000
,
0001
0000
0000
0000
,
1000
0000
0000
0000
,
0001
0000
0000
1000
,
1000
0000
0000
0001
,
0001
0000
0000
1000
,
0000
0000
1001
0000
;

//---------------dance-single - Daff_4K----------------
#NOTES:
     dance-single:
     Daff_4K:
     Easy:
     6:
     0.262304,0.324358,0.091048,0.531112,0.000000,242.000000,230.000000,12.000000,70.000000,0.000000,0.000000,0.262304,0.324358,0.091048,0.531112,0.000000,242.000000,230.000000,12.000000,70.000000,0.000000,0.000000:
0000
0000
0000
0000
,
0000
0000
0000
0000
,
2000
3010
0002
0013
,
1000
0001
1000
1001
,
0002
0000
0103
0000
,
0001
0010
0100
0000
,
2000
0000
3100
0000
,
1000
0010
0100
0000
,
0002
0000
2003
0000
,
3200
0000
0320
0000
,
0032
0000
2003
0000
,
3020
0000
0230
0000
,
0301
0001
0010
0010
,
0100
0100
1000
0001
,
1000
1000
0010
0010
,
0100
0100
0001
1000
,
0001
0010
0100
1000
,
1000
0010
0100
0001
,
0010
0010
0100
0100
,
1000
0001
1000
0001
,
0220
0000
0330
2002
,
0000
0000
0000
3003
,
0001
1000
0001
0220
,
0330
1000
0001
1000
,
0001
0100
0010
1000
,
0200
0000
0320
0000
,
0031
1000
0010
0100
,
0002
0000
2003
0000
,
3100
0010
0001
1000
,
0010
0010
0100
0001
,
2000
0000
3001
0220
,
0330
0001
1000
0001
,
1000
0100
0010
0001
,
0200
0000
0320
0000
,
1030
0001
0010
0100
,
1000
0001
0100
0220
,
0000
0000
0000
0330
,
0010
1000
0001
1000
,
2002
0000
0000
0000
,
0000
0000
0000
3003
,
0002
0000
0013
0000
,
2000
0000
3010
0000
,
0002
0000
0203
0000
,
0320
0000
1030
0000
,
2000
0000
3200
0000
,
0320
0000
0031
0000
,
0002
0000
2003
0000
,
3002
0000
0203
0000
,
0320
0000
1030
0001
,
1000
0001
0010
0100
,
2000
0000
3002
0000
,
2003
0000
3200
0000
,
0320
0000
0031
1000
,
0001
1000
0010
0100
,
0001
0000
0000
0010
0000
0000
0001
0000
,
1000
0000
0000
0010
0000
0000
1000
0000
,
0100
0000
0000
0010
0000
0000
0001
0000
,
0000
1000
0000
0000
2002
0000
0000
0000
,
0000
0000
3003
0000
,
0000
0000
0000
0000
,
0000
0000
0002
0103
,
2000
3100
0002
0013
,
2000
3010
0001
1000
,
0001
1001
0000
0000
,
0100
0010
0100
2002
,
0000
0000
0000
3003
,
1000
0100
0001
0100
,
2000
0000
3002
0000
,
0103
0010
1000
0001
,
0010
0010
0100
0100
,
1000
0010
0001
0010
,
1000
1000
0001
0001
,
0020
0000
0130
2002
,
3003
1000
0001
1000
,
0001
0100
1000
0100
,
0002
0000
2003
0000
,
3100
0010
0001
1000
,
0020
0000
0230
0000
,
0301
0010
0100
1000
,
0020
0000
0230
0000
,
0301
0000
0000
0010
0000
0000
0001
0000
,
1000
0000
0000
0010
0000
0000
1000
0000
,
0100
0000
0000
0010
0000
0000
0001
0000
,
0000
1000
0000
0000
2002
0000
0000
0000
,
0000
0000
0000
0000
,
0000
0000
3003
0000
;

//---------------dance-single - Daff_4K----------------
#NOTES:
     dance-single:
     Daff_4K:
     Medium:
     11:
     0.441148,0.486536,0.151746,0.447651,0.094841,407.000000,387.000000,20.000000,59.000000,0.000000,0.000000,0.441148,0.486536,0.151746,0.447651,0.094841,407.000000,387.000000,20.000000,59.000000,0.000000,0.000000:
// measure 0
0000
0000
0000
0000
,  // measure 1
0000
0000
0000
0000
,  // measure 2
2000
0000
3001
0000
1000
0010
0001
0010
,  // measure 3
1000
0100
0001
0100
1000
0001
1001
0000
,  // measure 4
2000
0100
3001
1000
,  // measure 5
0020
0130
0002
1003
,  // measure 6
0200
0010
0301
0100
,  // measure 7
2000
3010
0200
0301
,  // measure 8
0002
0100
1003
0001
,  // measure 9
0020
0130
2000
3001
,  // measure 10
0200
0310
2000
3001
,  // measure 11
0020
0130
2000
3001
,  // measure 12
2000
0001
0100
3001
,  // measure 13
0002
1000
0100
1003
,  // measure 14
2000
0010
3100
1001
,  // measure 15
0002
0010
0103
1001
,  // measure 16
0001
0100
0001
0000
1000
0100
1000
0000
,  // measure 17
0001
0010
0001
0000
1000
0010
1000
0000
,  // measure 18
0100
0010
0100
0010
0001
1000
0001
0000
,  // measure 19
0100
0010
0100
0010
1000
0001
1000
0000
,  // measure 20
0100
0000
0000
0010
0000
0000
0001
0000
0000
1000
0000
0000
2002
0000
0000
0000
,  // measure 21
0000
0000
0000
3003
,  // measure 22
0001
0000
0100
0010
0000
0100
1000
0000
,  // measure 23
0100
0010
0100
0000
0001
0000
1001
0000
,  // measure 24
1000
0100
0010
0000
0100
0010
0001
0000
,  // measure 25
2000
3020
0230
0301
,  // measure 26
1000
0100
1000
0000
0001
0100
0001
0000
,  // measure 27
1000
0000
0010
0100
0000
0001
1000
0000
,  // measure 28
0100
0010
0100
0000
1000
0001
1000
0000
,  // measure 29
0020
0230
0302
1003
,  // measure 30
0220
0000
0330
1001
,  // measure 31
0001
0100
0001
0000
1000
0100
1000
0000
,  // measure 32
0001
0100
0010
0000
0100
0010
1000
0000
,  // measure 33
1100
0000
0000
0011
0000
0000
1001
0000
,  // measure 34
1000
0010
1000
0000
0001
0010
0001
0000
,  // measure 35
0100
0010
0000
1000
0000
0001
1000
0000
,  // measure 36
0001
0100
0001
0000
1000
0100
1000
0000
,  // measure 37
0010
0100
0000
0001
1000
0000
0001
0000
,  // measure 38
2002
0000
0000
0000
,  // measure 39
3003
0100
0010
0100
,  // measure 40
2001
0000
3010
0100
,  // measure 41
0002
0000
0013
0100
,  // measure 42
1000
0000
0010
0000
0100
0000
0001
1000
,  // measure 43
0000
1000
0001
0000
0010
0100
0000
1000
,  // measure 44
0001
0000
0010
0000
0100
0000
1000
0001
,  // measure 45
0000
0001
1000
0000
0010
0100
0001
0000
,  // measure 46
1000
0000
0100
0010
0100
0000
1000
0001
,  // measure 47
0000
0001
0100
0000
0010
1000
0000
1000
,  // measure 48
0100
0000
0000
0000
0010
0000
0000
0000
0001
0000
0000
0100
0000
0000
0001
0000
,  // measure 49
0000
0100
0000
0000
0010
0000
0000
1000
0000
0000
0010
0000
0000
1000
0000
0000
,  // measure 50
0001
0000
0100
0010
0100
0000
0001
1000
,  // measure 51
0000
1000
0100
0000
0010
0001
0000
0001
,  // measure 52
0100
0000
0000
0000
0010
0000
0000
0000
1000
0000
0000
0100
0000
0000
1000
0000
,  // measure 53
0000
0100
0000
0000
0010
0000
0000
0001
0000
0000
0010
0000
0001
0000
0000
0000
,  // measure 54
1000
0000
0000
0010
0000
0000
0100
0000
0000
0001
0000
0000
2000
0000
0000
0000
,  // measure 55
3001
0000
0000
0010
0000
0000
0100
0000
0000
1000
0000
0000
0002
0000
0000
0000
,  // measure 56
1003
0000
0000
0010
0000
0000
0100
0000
0000
0001
0000
0000
0010
0000
0000
0100
,  // measure 57
0000
0000
1000
0000
0000
0001
0000
0000
2002
0000
0000
0000
0000
0000
0000
0000
,  // measure 58
0000
3003
2000
3010
,  // measure 59
1000
0100
0001
0000
0200
0000
0310
0000
,  // measure 60
0100
1000
0010
0100
0002
0000
0013
0000
,  // measure 61
0001
0100
1000
0000
0200
0000
0310
0000
,  // measure 62
2000
0000
3001
0000
1000
0100
0010
0001
,  // measure 63
1000
2002
0000
3003
,  // measure 64
0001
0000
0010
1000
0000
0010
0001
0000
,  // measure 65
0200
0320
2030
3002
,  // measure 66
0013
0100
1000
0000
0001
0010
0100
0000
,  // measure 67
2000
3002
0203
0310
,  // measure 68
1000
0100
1000
0000
0001
0100
0001
0000
,  // measure 69
0010
0000
0001
1000
0001
0000
0100
0000
,  // measure 70
0010
1000
0100
0000
0010
0001
0100
0000
,  // measure 71
0020
2030
3002
0013
,  // measure 72
0220
0000
0330
1001
,  // measure 73
0001
0100
0001
0000
1000
0100
1000
0000
,  // measure 74
0010
0100
0001
0000
1000
0010
0100
0000
,  // measure 75
1001
0000
0000
0110
0000
0000
1001
0000
,  // measure 76
0001
0010
0001
0000
1000
0010
1000
0000
,  // measure 77
0100
0010
0000
0010
0001
0000
1000
0000
,  // measure 78
0001
0100
0001
0000
1000
0100
1000
0000
,  // measure 79
0010
0100
0000
0100
0001
0000
1000
0000
,  // measure 80
0001
0000
0000
0010
0000
0000
0100
0000
0000
1000
0000
0000
0002
0000
0000
0000
,  // measure 81
1003
0000
0000
0010
0000
0000
0100
0000
0000
0001
0000
0000
2000
0000
0000
0000
,  // measure 82
3100
0000
0000
0010
0000
0000
0001
0000
0000
0100
0000
0000
0010
0000
0000
1000
,  // measure 83
0000
0000
0001
0000
0000
0010
0000
0000
0220
0000
0000
0000
0000
0000
0000
0000
,  // measure 84
0000
0000
0000
0000
,  // measure 85
0000
0000
0330
0000
;

//---------------dance-single - Daff_4K----------------
#NOTES:
     dance-single:
     Daff_4K:
     Hard:
     15:
     0.708872,0.908201,0.569048,0.508350,0.489382,654.000000,579.000000,75.000000,67.000000,0.000000,0.000000,0.708872,0.908201,0.569048,0.508350,0.489382,654.000000,579.000000,75.000000,67.000000,0.000000,0.000000:
0000
0000
0000
0000
,
0000
0000
0000
0000
,
1000
0000
0010
0100
0000
0001
0010
0000
0100
1000
0000
0000
0001
0000
0100
0001
0000
0000
1000
0000
0100
1000
0000
0000
,
0010
0000
0100
0001
0000
0000
0010
0000
0100
1000
0000
0000
0010
0000
0100
0001
0000
0000
2002
0000
0000
3003
0000
0000
,
1000
0100
0010
0100
0010
0001
1000
0000
0010
0000
0100
0001
,
1000
0000
0100
1000
0000
0010
0100
0000
0001
0010
0000
0001
,
0100
0001
0100
0010
1000
0010
1000
0000
0100
0000
0010
0001
,
1000
0000
0010
0100
0000
0100
0001
0000
0001
1000
0000
1000
,
0001
0100
0010
0100
0010
1000
0001
0000
0010
0000
0100
1000
,
0001
0000
0100
0001
0000
0010
0100
0000
1000
0010
0000
1000
,
0001
0000
0010
0001
0000
1000
0100
0000
1000
0001
0000
0100
,
0001
0000
0010
0100
0000
1000
0010
0000
0100
0001
0000
0000
,
1001
1100
0110
0011
,
1001
0101
0110
1010
,
1001
0011
1100
1010
,
0101
1001
0110
1001
,
1000
1000
0100
0100
0010
0010
0001
0001
,
0100
0100
0010
0010
1000
1000
0001
0001
,
1000
0100
0010
0001
1000
0010
0100
0001
,
0010
0100
0010
0100
0010
0100
0010
0100
1000
0001
1000
0001
1000
0001
1000
0001
,
1000
0000
0000
1010
0000
0000
0001
0000
0000
0011
0000
0000
0220
0000
0000
0000
,
0000
0000
0330
1001
,
1000
0000
0100
0000
0010
0000
0001
1000
0001
0000
1000
0000
0020
0000
0000
0000
,
0130
0001
0010
1000
0010
0001
0100
0010
,
1000
0100
0001
1000
0010
0001
0100
0010
,
1000
0001
1000
0000
0001
0000
0010
0000
0100
0000
0000
0000
1001
0000
0000
0000
,
0001
0000
0100
0000
0010
0000
1000
0001
1000
0000
0001
0000
0010
0000
0100
0000
,
1000
0000
0010
0000
0100
0000
0001
0000
0010
0000
0100
0010
0100
0000
1000
0000
,
0001
0100
1000
0001
0010
1000
0100
0010
,
0012
0000
0103
0010
2010
0000
3001
0000
,
0220
0000
0330
1001
,
0001
0000
0100
0010
0100
0000
0010
0000
1000
0000
0100
0000
0010
0000
0001
0000
,
0100
1000
0001
0010
1000
0100
0010
0001
,
1000
0010
1000
0000
0010
0000
0100
0001
0100
0000
0001
0000
1000
0000
0000
0000
,
1002
0000
0000
0000
0013
0000
0100
0010
0100
0000
1000
0000
0020
0000
0000
0000
,
0130
0001
0000
1001
0000
1000
0002
0000
,
0013
0100
0010
0001
0100
0001
1000
0100
,
1000
0000
0010
0000
0100
0000
0001
1000
0001
0000
1000
0000
0100
0000
0000
0000
,
2002
0000
0000
3003
,
0001
0000
0100
0000
1000
0000
0100
0000
0001
0000
1000
0001
1000
0000
0000
0000
,
1002
0000
0000
0000
0203
0000
0000
0010
0000
0000
0302
0000
0000
0010
0000
0000
,
2003
0000
0000
0010
0000
0000
3100
0000
1000
0010
1000
0001
0010
0001
1000
0000
,
1002
0000
0103
0010
2000
0000
3100
0002
,
0000
1003
0020
0000
0031
0100
0010
0000
,
2001
0000
3100
0010
0002
0000
0103
2000
,
0000
3001
0020
0000
1030
0100
0010
0001
,
2001
0000
3010
0100
0002
0000
0013
2000
,
0000
3100
0002
0000
0013
0200
0000
1300
,
0002
0000
0000
0000
0103
0000
0010
0000
1000
0000
0000
1100
0000
0000
0001
0000
,
0000
0101
0000
0000
0010
0000
0000
1010
0000
0000
0001
0000
0000
0110
0000
0000
,
1002
0000
0013
0100
2000
0000
3010
0002
,
0000
0103
2000
0000
3010
0200
0000
0301
,
2000
0000
0000
0000
3100
0000
0010
0000
0001
0000
0000
0101
0000
0000
1000
0000
,
0000
1100
0000
0000
0010
0000
0000
0011
0000
0000
1000
0000
1001
0000
0000
0000
,
0201
0000
0000
0310
0000
0000
2010
0000
0000
3100
0000
0000
1001
0000
0000
0000
,
1200
0000
0000
0310
0000
0000
0012
0000
0000
0103
0000
0000
1001
0000
0000
0000
,
0201
0000
0000
0310
0000
0000
2010
0000
0000
3001
0000
0000
1200
0000
0000
0310
,
0000
0000
0012
0000
0000
1003
0000
0000
0220
0000
0000
0000
0000
0000
0000
0000
,
0000
0000
0330
0000
2001
0010
3100
1000
,
0010
0000
0100
0010
0000
0000
1000
0000
0001
1000
0000
0000
0002
0000
0000
0010
0000
0000
0103
0000
0000
0001
0000
0000
,
0010
0000
0100
0010
0000
0000
0001
0000
1000
0001
0000
0000
0100
0000
0000
0010
0000
0000
1000
0000
0001
1000
0000
0000
,
0100
0000
1000
0010
0000
0000
0100
0000
0001
0010
0000
0000
0001
0000
0100
0001
0000
0000
1000
0000
0100
1000
0000
0000
,
0001
0000
0010
0001
0000
0000
1000
0000
0010
1000
0000
0000
0001
0000
0010
0100
0000
1000
0010
0000
0100
0001
0000
1000
,
0100
0000
0010
0001
0000
0000
2002
0000
0000
0000
0000
0000
0000
0000
0000
0000
0000
0000
3003
0000
0000
0000
0000
0000
,
1000
0000
0010
0000
0001
0000
0010
0100
0010
0000
1000
0000
1002
0000
0000
0000
,
0013
0100
0010
0001
0100
0001
1000
0100
1000
0001
0000
0000
,
1000
0010
0001
1000
0100
0001
0010
0100
,
1000
0001
1000
0000
0001
0000
0100
0000
0010
0000
1000
0000
1001
0000
0000
0000
,
0001
0000
0010
0000
1000
0000
0010
0100
0010
0000
0001
0000
1000
0000
0010
0000
,
0100
0000
0001
0000
0010
0000
0100
0000
1000
0000
0010
0100
0010
0000
0100
0000
,
0001
0010
1000
0001
0100
1000
0010
0100
,
0102
0000
0013
0100
2100
0000
3010
0000
,
0220
0000
0330
1001
,
1000
0000
0001
1000
0001
0000
0010
0000
0100
0000
1000
0001
1000
0000
0001
0000
,
0100
0010
1000
0100
0010
0001
1000
0010
,
0100
0010
0100
0000
0001
0000
1000
0001
1000
0000
0100
0000
0010
0000
0000
0000
,
1001
0000
0000
0000
1000
0000
0100
0010
0100
0000
0010
0000
0001
0000
0100
0000
,
0010
1010
0000
0101
0000
0001
1000
0000
,
1001
0000
0000
0000
0001
0000
0100
0010
0100
0000
0010
0000
1000
0000
0100
0000
,
0001
0100
1000
0010
0100
0001
1000
0000
,
1200
0000
0000
0301
0000
0000
1200
0000
0000
0310
0000
0000
0001
0000
0100
0000
,
0201
0000
0000
1300
0000
0000
0201
0000
0000
0310
0000
0000
1001
0000
0000
0000
,
1200
0000
0000
0310
0000
0000
0012
0000
0000
1003
0000
0000
0201
0000
0000
0310
,
0000
0000
2010
0000
0000
3001
0000
0000
0220
0000
0000
0000
0000
0000
0000
0000
,
0000
0000
0000
0000
,
0000
0000
0330
0000
;

//---------------dance-single - Daff_4K----------------
#NOTES:
     dance-single:
     Daff_4K:
     Challenge:
     18:
     0.964672,1.589352,0.872541,0.326254,1.126716,890.000000,775.000000,115.000000,43.000000,100.000000,0.000000,0.964672,1.589352,0.872541,0.326254,1.126716,890.000000,775.000000,115.000000,43.000000,100.000000,0.000000:
0000
0000
0000
0000
,
0000
0000
0000
0000
,
1000
0100
1000
0001
0100
0001
0010
0000
0100
0010
0000
0000
0001
0100
0001
0100
0010
1000
0010
1000
0100
1000
0100
0010
,
0001
0010
0001
1000
0010
0100
0010
1000
0001
0010
0100
0010
0001
0100
0010
1000
0100
0010
0002
0000
0000
0000
0000
0000
,
1003
0010
0100
0001
1000
0100
0010
0000
0011
0000
0001
1000
,
0010
0100
0010
1000
0001
0010
0100
1000
0001
0100
0010
0100
,
0001
0010
0100
1000
0001
0100
0010
0000
1010
0000
1000
0001
,
0010
0100
0010
0001
1000
0010
0100
0001
1000
0100
0010
0100
,
1000
0001
0100
0010
0100
0001
1000
0000
1001
0000
0001
1000
,
0100
0010
0001
1000
0001
0100
0010
1000
0001
0010
0100
0010
,
0001
1000
0010
0100
0010
1000
0001
0010
0100
1000
0010
0100
,
0001
0010
1000
0010
0001
1000
0010
0001
0010
1000
0100
0010
,
0001
MMMM
0101
MMMM
1100
MMMM
1001
MMMM
,
1010
MMMM
1100
MMMM
0101
MMMM
1001
MMMM
,
1100
MMMM
0011
MMMM
0101
MMMM
1010
MMMM
,
0110
MMMM
1001
MMMM
0110
MMMM
1001
MMMM
,
2000
0001
3002
0010
0023
0100
0230
1000
,
2300
0001
3002
0100
0203
0010
0320
1000
,
1030
0100
1000
0100
1000
0100
1000
0100
0010
0001
0010
0001
0010
0001
0010
0001
,
0100
0010
0100
0010
0100
0010
0100
0010
1000
0001
1000
0001
1000
0001
1000
0001
,
0010
0000
0000
1100
0000
0000
1010
0000
0000
0101
0000
0000
0220
0000
0030
0000
,
2000
3000
0002
0003
0020
0330
1001
MMMM
,
1000
0000
0100
0000
0001
0000
0100
0010
0100
0000
1000
0001
1000
0000
0000
0010
,
0100
0000
0001
1000
0001
0000
0010
0000
0100
0000
1000
0001
1000
0000
0001
0000
,
0100
0000
1000
0000
0001
0000
0010
0100
0010
0000
1000
0000
0100
0000
0010
0000
,
0001
0100
0010
0100
0001
0000
1000
0100
0010
0100
1000
0000
0010
0000
0100
0000
,
0001
0000
0100
0000
1000
0000
0100
0010
0100
0000
0001
0000
0010
0000
0100
0000
,
1000
0010
1000
0000
0010
0000
0100
0001
0100
0000
0001
1000
0001
0000
1000
0000
,
0100
0000
0001
0000
1000
0000
0010
0100
0010
0000
0001
0000
0100
0000
0010
0000
,
1000
0100
1000
0000
0100
0000
0010
0001
0010
0000
0001
0000
1000
0000
MMMM
0000
,
0220
0000
0330
0000
2002
0000
3003
0000
0220
0000
0330
0000
1001
0000
0000
1000
,
0100
0000
0010
0100
0010
0000
0001
0000
1000
0000
0010
0100
0010
0000
0100
0000
,
0001
0010
1000
0001
0100
1000
0010
0100
,
0101
0000
0000
0001
0010
0000
1100
0000
0000
1000
0010
0000
0100
0000
0001
0000
,
1001
0000
0000
1000
0100
0000
0010
0100
0010
0000
0001
0000
0100
0000
1000
0000
,
0100
0000
0001
0010
0001
0000
1000
0010
1000
0000
0100
0000
0010
0000
0001
0000
,
0100
0000
0010
1000
0010
0000
1000
0000
0001
0010
0001
0000
0010
0000
0100
0000
,
1000
0010
1000
0010
0100
0001
0100
0001
0010
0100
1000
0000
1001
0000
0000
0000
,
0220
0000
0000
0000
,
0330
0000
1000
0000
1100
0000
0001
0000
0101
0000
1000
0001
1000
0000
MMMM
0000
,
1002
0000
0000
0000
0203
0000
0000
1000
0000
0000
0320
0000
0000
0001
0000
0000
,
2030
0000
0000
0000
0000
0000
0100
0000
0000
0000
0000
0000
3002
0000
0000
0000
0013
0100
0010
0000
0001
0000
1000
0001
1000
0000
0010
0000
0100
0000
0000
0000
,
2001
0000
0000
0000
3100
0000
0010
0000
0011
0000
0000
0001
0100
0000
0110
0000
,
0000
0010
1000
0000
1001
0000
0000
0001
0010
0000
0100
0010
0100
0000
1000
0000
,
1002
0000
0000
0000
0103
0000
0010
0000
1010
0000
0000
1000
0100
0000
0110
0000
,
0000
0010
0001
0000
0100
0000
0010
0000
1000
0001
1000
0001
0010
0000
0100
0000
,
2100
0000
0000
0000
3010
0000
0001
0000
0011
0000
0000
0010
1000
0000
1100
0000
,
0000
0100
0010
0000
0011
0000
0000
0001
1000
0000
0010
0100
0010
0000
0100
0000
,
0101
0000
0000
0001
0010
0000
0100
0000
1100
0000
0000
1010
0000
0000
0101
0000
,
0000
0011
0000
0000
0110
0000
0000
1001
0000
0000
0110
0000
0000
1001
0000
0000
,
0102
0000
0000
0000
0013
0000
1000
0000
1010
0000
0000
0010
0001
0000
0101
0000
,
0000
0100
0010
0000
1010
0000
0000
1000
0001
0000
0010
0001
0010
0000
0100
0000
,
1100
0000
0000
1000
0010
0000
0100
0000
0101
0000
0000
0011
0000
0000
1100
0000
,
0000
1010
0000
0000
0110
0000
0000
1001
0000
0000
0100
0010
0100
0000
MMMM
0000
,
1100
0000
0000
0101
0000
0000
1010
0000
0000
0011
0000
0000
1001
0000
MMMM
0000
,
0101
0000
0000
1100
0000
0000
0011
0000
0000
1010
0000
0000
1001
0000
MMMM
0000
,
1100
0000
0000
0101
0000
0000
1010
0000
0000
0011
0000
0000
0101
0000
0000
1100
,
0000
0000
0011
0000
0000
1010
0000
0000
2002
0000
0000
0000
0000
0000
0000
0000
,
0000
0000
0000
0000
0000
0000
3003
0000
0000
0000
0000
0000
0001
0100
0010
1000
0010
0100
0001
0000
0000
1001
0000
0000
,
1000
0100
1000
0100
0010
0001
0100
0001
0100
0010
1000
0001
1000
0100
0010
0001
0010
0100
1000
0000
0000
1001
0000
0000
,
0001
0100
0001
0100
0010
1000
0100
1000
0100
0010
0001
1000
0010
0100
0010
0100
0001
1000
0100
0000
0010
0100
0000
0000
,
0010
0100
0010
0100
1000
0001
0100
0001
0100
0001
0010
0100
1000
0100
1000
0010
0100
0001
1000
0001
0010
0100
1000
0001
,
1000
0010
0100
0001
0100
0010
1000
0001
0010
0100
1000
0100
0010
0001
0100
0001
0010
0100
1000
0010
1000
0100
0010
0001
,
0100
0000
0010
0000
1000
0000
0100
0000
0010
0000
0001
0000
0200
0000
0000
0000
0000
0000
0000
0000
0000
0000
0000
0000
0010
0000
0000
0010
0000
0000
0310
0000
0000
0000
0000
0000
MMMM
0000
0000
0000
0000
0000
0000
0000
0000
0000
0000
0000
,
1000
0000
0100
0000
0001
0000
0100
0010
0100
0000
1000
0001
2000
0000
0000
0000
,
3010
0000
0001
0000
1000
0000
0100
0000
0001
0000
0010
0000
1000
0000
0001
0000
0100
0000
1000
0000
0000
0010
0000
0000
,
0001
0000
1000
0000
0100
0000
0001
1000
0001
0000
0010
0100
0010
0000
0100
0000
,
1000
0010
0100
0001
1000
0000
0001
0010
0100
1000
0001
0000
0010
0100
0010
0000
,
0001
0000
0100
0000
1000
0000
0100
0010
0100
0000
0001
0000
1000
0000
0100
0000
,
0010
0100
0010
0000
0001
0000
1000
0001
1000
0000
0010
0100
0010
0000
0100
0000
,
0001
0000
0010
0000
1000
0000
0010
0100
0010
0000
0001
1000
0001
0000
0100
0000
,
0010
1000
0010
1000
0100
0000
0010
0001
0010
0001
0100
0000
1000
0000
MMMM
0000
,
0220
0000
0330
0000
2002
0000
3003
0000
0220
0000
0330
0000
1001
0000
0000
0001
,
0010
0000
0100
1000
0100
0000
1000
0000
0010
0000
0100
0001
0100
0000
0001
0000
,
0010
0100
0010
0000
0100
0000
1000
0001
1000
0000
0001
0000
0100
0000
0010
0000
,
1010
0000
1000
0001
1000
0000
0011
0000
0001
1000
0001
0000
1000
0000
0001
0000
,
1001
0000
0000
1000
0100
0000
0010
0001
0010
0000
0001
0000
0100
0000
1000
0000
,
0100
0010
0100
0000
0001
1000
0100
0000
0010
0001
0100
0000
0010
0000
1000
0000
,
1001
0000
0000
0001
0100
0000
0010
1000
0010
0000
1000
0000
0100
0000
0001
0000
,
0100
0010
0100
0000
1000
0001
0100
0000
0010
1000
0100
0000
0010
0001
1000
0000
,
1010
0000
0000
0011
0000
0000
1100
0000
0000
0101
0000
0000
0110
0000
1001
0000
,
0011
0000
0000
1010
0000
0000
0101
0000
0000
1100
0000
0000
1001
0000
MMMM
0000
,
1100
0000
0000
0011
0000
0000
1010
0000
0000
0101
0000
0000
1010
0000
0000
1100
,
0000
0000
0011
0000
0000
0101
0000
0000
2002
0000
0000
0000
0000
0000
0000
0000
,
0000
0000
0000
0000
,
0000
0000
3003
0000
;
