#TITLE:World Identity;
#SUBTITLE:;
#ARTIST:Daniel Van Eden;
#TITLETRANSLIT:;
#SUBTITLETRANSLIT:;
#ARTISTTRANSLIT:;
#GENRE:;
#CREDIT:;
#BANNER:World Identity.png;
#BACKGROUND:World Identity-bg.png;
#LYRICSPATH:;
#CDTITLE:;
#MUSIC:World Identity.ogg;
#OFFSET:0.007465;
#SAMPLESTART:39.735432;
#SAMPLELENGTH:13.241379;
#SELECTABLE:YES;
#BPMS:0.000000=145.000000
;
#STOPS:
;
#BGCHANGES:;
#KEYSOUNDS:;
#ATTACKS:;

//---------------dance-single - ----------------
#NOTES:
     dance-single:
     :
     Hard:
     10:
     0.474704,0.492146,0.058739,0.151042,0.000000,396.000000,389.000000,7.000000,18.000000,0.000000,0.000000,0.474704,0.492146,0.058739,0.151042,0.000000,396.000000,389.000000,7.000000,18.000000,0.000000,0.000000:
// measure 0
0000
0000
0000
0000
,  // measure 1
0000
0000
0000
0000
,  // measure 2
0000
0000
0000
0000
,  // measure 3
0000
0000
0000
0000
,  // measure 4
0000
1000
0100
0000
0100
1000
0000
0010
,  // measure 5
1000
0001
0100
0002
0000
0000
0000
0000
,  // measure 6
0003
0001
0010
0000
0010
0001
0000
0100
,  // measure 7
0001
1000
0100
0020
0000
0031
0010
0200
,  // measure 8
0000
0000
0000
0000
0000
0000
1300
0001
,  // measure 9
0000
0010
0000
0100
0000
1000
0001
1000
,  // measure 10
0010
1000
0001
0000
0001
0010
0000
0100
,  // measure 11
0010
0001
1000
0020
0100
0000
1000
0000
,  // measure 12
0130
0001
1000
0000
0100
1000
0000
1000
,  // measure 13
0001
0100
0001
0010
0100
1000
0100
0010
,  // measure 14
0001
0000
1000
0010
0100
0001
1000
0100
,  // measure 15
1000
0000
0001
0100
0010
0000
0110
0000
,  // measure 16
1001
1000
0000
0000
0010
0010
0000
0200
,  // measure 17
0000
0302
0000
2003
0000
3200
0000
0000
,  // measure 18
0310
0010
0000
0000
0001
0001
0000
0200
,  // measure 19
0000
0302
0000
2003
0000
3200
0000
0320
,  // measure 20
0000
0030
0001
2000
0000
3000
0000
0001
,  // measure 21
0000
0010
0001
0100
1000
0100
0001
1000
,  // measure 22
0100
0100
1000
0000
0001
0100
0000
0110
,  // measure 23
0000
0100
0010
0100
0010
1000
1000
0001
,  // measure 24
0001
0010
0100
0000
0100
1000
0001
0100
,  // measure 25
0001
1000
0001
0010
0001
1000
0010
0000
,  // measure 26
1000
0010
0100
0000
0100
0001
1000
0100
,  // measure 27
1000
0010
1000
0001
0010
1000
0010
0001
,  // measure 28
1000
1000
0100
0010
0001
0001
0000
1001
,  // measure 29
0000
1000
0001
0010
0100
1000
0100
0010
,  // measure 30
0001
0001
1000
0000
0001
0100
0000
0100
,  // measure 31
0010
0000
1000
0000
0001
0100
0001
0000
,  // measure 32
1000
0100
1000
0001
1000
0000
0000
0000
,  // measure 33
1001
0000
1000
0010
1000
0000
0001
0010
,  // measure 34
0001
0000
1000
0000
0001
1000
0100
0010
,  // measure 35
0001
0000
1000
0100
1000
0000
0001
0100
,  // measure 36
0001
0000
1000
0010
0000
0010
1000
0001
,  // measure 37
1000
0000
0001
0010
0001
0000
0100
0010
,  // measure 38
0100
0000
0010
1000
0001
1000
0001
0100
,  // measure 39
0010
0000
1000
0100
1000
0000
0001
0010
,  // measure 40
0000
0100
0000
1000
0000
0001
1000
0010
,  // measure 41
0100
0000
0001
0100
0010
0000
0100
0010
,  // measure 42
1000
0000
1000
0100
0010
0000
0100
0010
,  // measure 43
0001
0000
0100
0010
1000
0000
0010
1000
,  // measure 44
0001
0000
0010
0100
0000
0010
0001
1000
,  // measure 45
0001
0000
1000
0010
0100
0000
0010
0100
,  // measure 46
0001
0000
1000
0100
1000
0001
1000
0010
,  // measure 47
0100
0000
0100
0001
0100
0000
0010
1000
,  // measure 48
0010
0000
1000
0001
1000
0100
0010
0001
,  // measure 49
1000
1000
0010
0000
0010
0100
0000
0010
,  // measure 50
0100
0001
0100
0020
0100
0000
0100
0000
,  // measure 51
0130
0001
0010
0000
0010
0100
0000
1000
,  // measure 52
0100
0010
0100
1000
0000
0001
0010
0100
,  // measure 53
1000
1000
0000
0000
0010
0010
1000
0002
,  // measure 54
0000
0203
0000
0320
0000
1030
0001
0100
,  // measure 55
0001
0001
1000
0000
0001
0100
0000
0100
,  // measure 56
0001
0000
1000
0000
0001
1000
0001
1000
,  // measure 57
0001
0001
0010
0000
0100
1000
0001
0100
,  // measure 58
0010
1000
0010
0100
0001
0000
1000
0000
,  // measure 59
0100
0100
0010
0000
0001
0001
1000
0010
,  // measure 60
0100
0001
0100
0010
1000
0100
0010
0001
,  // measure 61
0010
0010
0100
0000
1000
1000
0001
0100
,  // measure 62
0001
0000
0001
0010
0100
0000
1001
0000
,  // measure 63
1000
1000
0001
0000
0001
0001
0100
0010
,  // measure 64
0000
1000
0010
0100
0000
0100
0010
1000
,  // measure 65
0001
0010
0001
0100
,  // measure 66
0001
1000
0001
0010
1000
0010
0001
1000
,  // measure 67
0010
0000
0101
0000
0100
0001
0000
1000
,  // measure 68
0000
1000
0001
1000
0001
0010
0100
1000
,  // measure 69
0001
0000
0000
0000
;

//---------------dance-single - ----------------
#NOTES:
     dance-single:
     :
     Challenge:
     11:
     0.535840,0.550045,0.260128,0.192998,0.000000,447.000000,416.000000,31.000000,23.000000,48.000000,0.000000,0.535840,0.550045,0.260128,0.192998,0.000000,447.000000,416.000000,31.000000,23.000000,48.000000,0.000000:
0000
0000
0000
0000
,
0000
0000
0000
0000
,
0000
0000
0000
0000
,
0000
0000
0000
0000
,
1000
0001
0010
0000
0010
0001
0000
0100
,
0001
1000
0010
2000
0100
0000
0100
0000
,
3100
1000
0001
0000
0001
0100
0000
0010
,
1000
0001
0010
0200
0000
1300
0100
0020
,
0001
0000
0001
0000
0130
0000
1000
0001
,
0100
1000
0100
0001
0100
0010
0010
0010
,
0100
0001
1000
0000
1000
0100
0010
0100
,
1000
0001
0010
0002
0100
0000
1000
0000
,
0103
0001
1000
0000
0010
1000
0100
0010
,
0001
1000
0001
0010
1000
0010
0001
1000
,
0001
0000
1000
0010
0100
1000
0100
0001
,
1000
0000
0001
0010
0100
1000
1000
1000
,
1001
0001
0000
0000
0100
0100
0000
0020
,
0000
2030
0000
3002
0000
0023
0000
0000
,
0130
0100
0000
0000
1000
1000
0000
0020
,
0000
2030
0000
3002
0000
0023
0000
0230
,
1000
1300
0001
0200
0010
0310
0000
2010
,
0000
3100
1000
0010
0001
0010
1000
0001
,
0010
0010
0001
0000
1000
0010
0000
0110
,
0000
0010
0100
0010
0100
0001
0001
1000
,
1100
0100
0010
MMMM
0011
0001
1000
0010
,
1000
0001
1000
0100
1000
0001
0100
0000
,
0101
0100
0010
MMMM
1010
1000
0001
0010
,
0001
0100
0001
1000
0100
0001
0100
1000
,
0001
0001
0010
0100
1000
1000
0000
1010
,
0000
0010
0100
0001
0010
0001
0100
0010
,
1010
1000
0001
MMMM
0011
0010
0100
1000
,
0100
MMMM
0021
0000
0031
MMMM
1200
0000
,
1300
MMMM
1020
0000
0130
0010
0010
0010
,
1000
0000
0001
0100
0001
0000
0010
0100
,
0010
0000
0001
0000
1000
0001
0100
1000
,
0100
0000
0001
0100
0001
0000
0010
0100
,
0010
0000
0001
0010
0000
0010
0100
1000
,
0001
0000
1000
0100
1000
0000
0010
0100
,
0010
0000
1000
0001
0010
0001
0010
1000
,
0010
0000
0001
1000
0001
0000
0100
1000
,
0000
0100
0000
0001
0000
1000
0100
0001
,
0100
0000
0010
0001
1000
0000
0010
1000
,
0001
0000
0101
0100
0010
0100
0001
1000
,
0100
0000
0010
0100
0001
0000
0100
1000
,
0001
0000
0100
1000
0100
0001
0010
0100
,
1000
0000
0100
1000
0001
0000
0100
0001
,
0010
0000
1100
0100
1000
0100
0010
0001
,
1000
0000
0010
1000
0100
0000
0010
0001
,
0100
0000
0010
0100
0001
0010
0100
1000
,
1001
1000
0100
0000
0100
0010
0000
0100
,
0010
0001
1000
0020
0100
0000
0100
0000
,
0130
0001
0100
0000
0100
0010
0000
1000
,
0010
0001
0010
1000
0000
0001
0010
0200
,
1000
1000
0000
0000
0010
0310
0001
0020
,
0000
0230
0000
2300
0000
3001
0100
0010
,
1000
1000
0001
0000
1000
0010
0000
0110
,
0000
0010
0100
0010
0100
0001
0001
0001
,
1001
1000
0100
MMMM
0011
0001
1000
0010
,
0100
1000
0100
0001
1000
0100
0010
0001
,
0011
0010
0100
MMMM
1100
1000
0001
0100
,
0010
0001
0010
1000
0001
0010
0100
1000
,
1100
0100
0010
MMMM
0011
0001
1000
0010
,
1000
0001
0100
0010
1000
MMMM
0110
MMMM
,
1001
0001
1000
MMMM
1010
1000
0010
0100
,
0001
1000
0100
0001
0100
0010
0100
1000
,
0001
0011
0001
1100
,
1000
0001
1000
0100
0001
0100
1000
0001
,
0100
0000
1010
0000
0010
1000
0000
1001
,
0000
0001
1000
0001
1000
0010
0010
0100
,
0110
0000
0000
0000
;

//---------------dance-single - ----------------
#NOTES:
     dance-single:
     :
     Medium:
     8:
     0.387195,0.434246,0.083912,0.176216,0.000000,323.000000,313.000000,10.000000,21.000000,0.000000,0.000000,0.387195,0.434246,0.083912,0.176216,0.000000,323.000000,313.000000,10.000000,21.000000,0.000000,0.000000:
0000
0000
0000
0000
,
0000
0000
0000
0000
,
0000
0000
0000
0000
,
0000
0000
0000
0000
,
0000
0000
1000
0000
1000
0010
0000
1000
,
0001
0000
0010
0100
1000
0000
0001
0000
,
0100
0000
0001
0000
0001
0010
0000
0001
,
1000
0000
0010
0000
1000
0000
0100
0010
,
0001
0000
0010
0000
0100
0000
1000
0002
,
0000
0203
0000
0320
0000
2030
0000
0000
,
3001
0000
0011
0000
0010
0100
1000
0000
,
0001
0000
1000
0010
0000
0010
1000
0000
,
0100
0000
1100
0000
0100
0010
0001
0000
,
1000
0001
1000
0000
0010
0000
0100
0010
,
0100
0000
0001
0000
1000
0000
0100
0010
,
0001
0000
1000
0001
1000
0000
0010
0000
,
1000
1000
0000
0000
0001
0001
0000
0020
,
0000
0230
0000
2300
0000
3002
0000
0000
,
1003
1000
0000
0000
0010
0010
0000
0200
,
0000
0302
0000
2003
0000
3020
0000
0130
,
0001
0001
0000
0000
1000
1000
0000
0100
,
0000
0010
0000
0001
0010
0100
1000
0000
,
0001
0001
0000
0000
0100
0100
0000
0010
,
0000
0010
0100
0010
0100
0000
0000
0000
,
0001
0001
0010
0000
0010
0010
0001
2000
,
0000
3020
0000
0230
0000
0301
0000
0001
,
1000
1000
0010
0000
0010
0010
0100
0002
,
0000
0203
0000
0320
0000
2030
0000
3001
,
0010
0010
0100
0000
0100
0100
1000
0001
,
0000
0001
0010
0000
0001
1000
0001
0000
,
1000
1000
0100
0000
0100
0100
0000
1001
,
0000
0001
0010
0001
,
1000
0000
0010
0000
0100
0010
0010
0000
,
1000
0000
0001
0100
0000
0000
1000
0100
,
0000
0001
1000
0010
,
0100
0000
0001
0010
0000
0000
1000
0010
,
0000
0000
0001
0000
0010
0000
0100
1000
,
0000
0000
1000
0010
0000
0000
0010
0100
,
0000
0000
0001
0000
0100
0000
0001
0010
,
0000
0000
0010
0100
0000
0000
0100
1000
,
0000
0100
0000
0010
0000
0010
0001
0000
,
1000
0000
1100
0000
0100
0000
0010
0001
,
0010
0000
0001
0100
0001
0000
0010
0000
,
0001
0000
0101
0000
0100
0000
0010
1000
,
0010
0000
1000
0100
1000
0000
0001
0000
,
1000
1010
0001
0011
,
1000
0000
0100
0000
0010
0100
0010
0000
,
0001
0000
1000
0010
0000
0000
0010
0100
,
0000
0000
0100
0001
0000
1001
0000
0000
,
1000
1000
0000
0000
0001
0001
0000
0020
,
0000
0100
0100
0100
,
0031
0001
0000
0000
1000
1000
0000
0020
,
0000
0100
1000
1000
,
0130
0100
0000
0000
0001
0001
0000
1000
,
0000
1000
0100
0000
0010
0001
1000
0000
,
0010
0010
0000
0000
0100
0100
0000
1001
,
0000
0000
1000
0000
0001
0010
0010
0010
,
0001
0001
1000
0000
1000
1000
0010
0000
,
1000
0001
1000
0001
1000
0000
0100
0000
,
0010
0010
0100
0000
0100
0100
0010
0000
,
0001
0010
0001
0000
1000
0100
1000
0000
,
0001
0001
0100
0000
0100
0100
0010
0000
,
1000
0000
0001
0010
0001
0000
1000
0000
,
0010
0010
1000
0000
1000
1000
0000
0100
,
0000
1000
0100
0010
0000
0100
0010
0001
,
1000
0010
1000
0001
,
0010
0000
0100
0000
1000
0100
0010
0000
,
0001
0000
0100
0000
0001
1000
0000
0010
,
0000
1000
0001
0010
,
0110
0000
0000
0000
;

//---------------dance-single - ----------------
#NOTES:
     dance-single:
     :
     Easy:
     5:
     0.260128,0.289498,0.109086,0.000000,0.000000,217.000000,204.000000,13.000000,0.000000,0.000000,0.000000,0.260128,0.289498,0.109086,0.000000,0.000000,217.000000,204.000000,13.000000,0.000000,0.000000,0.000000:
0000
0000
0000
0000
,
0000
0000
0000
0000
,
0000
0000
0000
0000
,
0000
0000
0000
0000
,
1000
0000
0010
0000
,
0100
0010
1000
0000
,
0001
0000
1000
0000
,
0001
0010
0100
0010
,
0001
0000
1000
0000
,
0100
0000
0010
0010
,
0110
0000
0100
0000
,
1000
0010
1000
0001
,
1000
0000
0001
0000
,
0010
0001
0100
0010
,
1000
0000
0001
1000
,
0001
0000
0100
0100
,
0110
0000
0000
0000
0010
0000
0000
1000
,
0000
1000
1000
1000
,
0100
0000
0000
0000
0010
0000
0000
0001
,
0000
0001
0001
1000
,
0010
0000
0000
0000
1000
0000
0000
0100
,
0000
0100
0100
0010
,
0010
0000
0000
0000
0001
0000
0000
1000
,
0000
1000
1000
0001
,
1001
0000
0000
0000
0101
0000
0000
0001
,
0000
0100
0000
0010
0000
1000
0000
0000
,
1001
0000
0000
0000
1100
0000
0000
1000
,
0000
0100
0000
0010
0000
0001
0000
0000
,
1001
0000
0000
0000
0011
0000
0000
0001
,
0000
0010
0010
0100
,
0100
0000
1100
0000
,
1000
0010
0010
0100
,
0100
0001
0001
0000
,
1000
0010
1000
0001
,
0010
0000
0100
0000
,
1000
0100
1000
0001
,
0100
0000
0010
0000
,
1000
0010
1000
0001
,
0010
0000
0100
0000
,
1000
0001
1000
0100
,
0010
0010
0100
0100
,
1001
0000
0001
1000
,
0001
0000
0100
0010
,
1000
0000
0001
1000
,
0001
0000
0010
0100
,
1000
0100
0010
0100
,
0010
0000
0001
1000
,
0010
1000
0001
1000
,
0100
0010
0001
1000
,
1001
0000
0000
0000
1000
0000
0000
0100
,
0000
0100
0100
0100
,
0010
0000
0000
0000
0001
0000
0000
1000
,
0000
1000
1000
0001
,
0001
0000
0000
0000
0010
0000
0000
0001
,
0000
0001
0001
0100
,
0100
0000
0000
0000
0010
0000
0000
1000
,
0000
1000
0001
1000
,
1001
0001
1000
0000
,
0010
1000
0100
0010
,
0001
1000
0001
0000
,
0010
0001
1000
0010
,
1000
1000
0001
0000
,
0010
0001
1000
1000
,
0001
0000
0100
0000
0010
0000
0000
1000
,
0000
0010
0000
0100
0000
0001
0000
1000
,
0000
0000
0001
1000
,
0001
0000
0010
0100
,
1000
0000
0010
1000
,
0001
0001
1000
1000
,
1001
0000
0000
0000
;

//---------------dance-single - ----------------
#NOTES:
     dance-single:
     :
     Beginner:
     2:
     0.172620,0.202648,0.050347,0.000000,0.000000,144.000000,138.000000,6.000000,0.000000,0.000000,0.000000,0.172620,0.202648,0.050347,0.000000,0.000000,144.000000,138.000000,6.000000,0.000000,0.000000,0.000000:
0000
0000
0000
0000
,
0000
0000
0000
0000
,
0000
0000
0000
0000
,
0000
0000
0000
0000
,
0000
0010
0010
0000
,
1000
0000
0001
0000
,
0000
0100
0100
0000
,
0001
0000
1000
0000
,
0100
0000
0000
0000
,
0010
0000
0001
0000
,
1000
1000
1000
0000
,
0010
0000
1000
0000
,
0100
0100
0100
0000
,
0010
0000
0001
0000
,
1000
0000
0001
0000
,
0100
0000
0001
0001
,
0001
0000
0000
0000
0001
0000
0000
0001
,
0000
0000
0000
0000
,
1000
0000
0000
0000
1000
0000
0000
1000
,
0000
0000
0000
0000
,
0010
0000
0000
0000
0010
0000
0000
0010
,
0000
0000
0000
0000
,
0100
0000
0000
0000
0100
0000
0000
0100
,
0000
0100
0100
0000
,
1001
0000
0001
0000
,
0010
0010
0010
0000
,
0001
0000
1000
0000
,
0010
0010
0010
0000
,
1000
0000
0001
0000
,
0100
0000
0001
0001
,
0001
0000
1000
0000
,
1001
0000
1000
0000
,
0010
0000
0010
0000
,
1000
0000
0100
0000
,
0010
0000
0000
0000
,
0001
0000
1000
0000
,
0001
0000
0100
0000
,
0010
0000
0100
0000
,
0010
0000
0000
0000
,
1000
0000
0001
0000
,
1000
1000
1000
0000
,
0100
0000
0010
0000
,
0010
0000
0001
0000
,
1000
0000
0001
0000
,
0001
0000
0100
0000
,
0010
0000
1000
0000
,
1000
0000
0001
0000
,
0010
0000
0100
0000
,
0010
0010
0010
0000
,
0001
0000
1000
0000
,
0001
0000
0000
0001
0000
0000
0000
0000
,
1000
0000
0001
0000
,
1000
0000
0000
1000
0000
0000
0000
0000
,
0010
0000
0100
0000
,
0010
0010
0010
0000
,
1000
0000
0001
0000
,
1000
1000
1000
0000
,
1001
0000
0001
0000
,
0010
0010
0010
0000
,
0100
0000
1000
0000
,
0001
0000
1000
1000
,
1000
0000
0010
0000
,
1000
0000
0001
0001
,
0001
0000
0010
0000
,
0100
0000
0110
0000
,
1001
0000
0000
0000
,
0001
0000
1000
0000
,
0010
0000
0100
0000
,
0010
0000
1000
0000
,
1001
0000
0000
0000
;
