#TITLE:Work This Body;
#SUBTITLE:;
#ARTIST:Walk The Moon;
#TITLETRANSLIT:;
#SUBTITLETRANSLIT:;
#ARTISTTRANSLIT:;
#GENRE:;
#CREDIT:;
#MUSIC:Work This Body.ogg;
#BANNER:Work This Body.png;
#BACKGROUND:Work This Body-bg.png;
#CDTITLE:;
#SAMPLESTART:20.859;
#SAMPLELENGTH:16.000;
#SELECTABLE:YES;
#OFFSET:-0.192;
#BPMS:0.000=135.000;
#STOPS:;
#BGCHANGES:-0.432=Work This Body.avi=1.000=0=0=1,
99999.000=-nosongbg-=1.000=0=0=0=StretchNoLoop====
;
#FGCHANGES:;

//--------------- dance-single - ----------------
#NOTES:
     dance-single:
     :
     Beginner:
     3:
     0,0,0,0,0:
0000
0000
0000
0000
,
0000
0000
0000
0000
,
0000
0000
0000
0000
,
0000
0000
0000
0000
,
1000
0000
0000
0000
,
1000
0000
0000
0000
,
0001
0000
0000
0000
,
0001
0000
0000
0000
,
1000
0000
0000
0000
,
0100
0000
0000
0000
,
0001
0000
0000
0000
,
0100
0000
0000
0000
,
1001
0000
0000
0000
,
0100
0000
0000
0000
,
0110
0000
0000
0000
,
0010
0000
0000
0000
,
1000
0000
1000
0000
,
0001
0000
0001
0000
,
1000
0000
0001
0000
,
1000
0001
1000
0000
,
1001
0000
0000
0000
,
0000
0000
0000
0000
,
0110
0000
0000
0000
,
0000
0000
0000
0000
,
1001
0000
0000
0000
,
0000
0000
0000
0000
,
0110
0000
0000
0000
,
0010
0010
0010
0000
,
1000
0000
1000
0000
,
0100
0000
0000
0000
,
0001
0000
0001
0000
,
0010
0000
0000
0000
,
0000
0000
0000
0000
,
0001
0000
0000
0000
,
0001
0000
0000
0000
,
1000
0000
0000
0000
,
1000
0000
0000
0000
,
0001
0000
0001
0000
,
0100
0000
0000
0000
,
1000
0000
1000
0000
,
0100
0000
0010
0000
,
1001
0000
0000
0000
,
1001
0000
0010
0000
,
0110
0000
0000
0000
,
0100
0000
0100
0000
,
0001
0000
0001
0000
,
1000
0000
1000
0000
,
0001
0000
1000
0000
,
0001
1000
0001
0000
,
0000
1001
0000
1001
,
0000
0000
0000
0000
,
0000
0110
0000
0110
,
0000
0000
0000
0000
,
0000
1000
0000
0100
,
0000
0010
0000
0000
,
0001
0000
0100
0000
,
0010
0000
0000
0000
,
1000
0000
0000
0000
,
0000
0000
0000
0000
,
0001
0000
0000
0000
,
0000
0000
0000
0000
,
0010
0000
0000
0000
,
0000
0000
0000
0000
,
0100
0000
0000
0000
,
1001
0000
0000
0000
,
1000
0000
1000
0000
,
0001
0000
0001
0000
,
1000
0000
0010
0000
,
1000
0000
1000
0000
,
0001
0000
0010
0000
,
0001
0000
0001
0000
,
1000
0000
0001
0000
,
1000
0000
1001
0000
;

//--------------- dance-single - ----------------
#NOTES:
     dance-single:
     :
     Easy:
     6:
     0,0,0,0,0:
0000
0000
0000
0000
,
0000
0000
0000
0000
,
0000
0000
0000
0000
,
0000
0000
0000
0000
,
1000
0000
1000
0000
,
0001
0001
0001
0000
,
0001
0000
0001
0000
,
1000
1000
1000
0000
,
0100
0000
0010
0000
,
0001
1000
0001
0000
,
0100
0000
0010
0000
,
1000
0001
1000
0000
,
2000
3100
0002
0103
,
1000
0100
0010
0000
,
0002
0013
2000
3010
,
0001
0010
0100
0000
,
1000
0010
0100
0000
,
0001
0010
0100
0000
,
1000
0100
0010
0001
,
1000
0001
1000
0000
,
1001
0000
0110
0000
,
2000
0100
3100
0000
,
1001
0000
0110
0000
,
1002
0010
0013
0000
,
1000
0001
0010
0000
,
0001
1000
0010
0000
,
0001
0100
0010
0000
,
1000
0100
0010
0000
,
2000
0000
0000
0000
,
3000
0000
0000
0000
,
0002
0000
0000
0000
,
0003
0000
0000
0000
,
2002
0000
0000
3003
,
1000
0100
0001
0100
,
1000
0001
1000
0000
,
0001
0100
1000
0100
,
0001
1000
0001
0000
,
0001
0010
0100
1000
,
0100
0010
0001
0000
,
1000
0010
0100
0001
,
0100
0010
1000
0000
,
2000
3001
0002
1003
,
1000
0100
0010
0000
,
0002
1003
2000
3001
,
0010
0100
1000
0000
,
0001
0100
0001
0000
,
1000
0010
1000
0000
,
0001
0010
0100
0000
,
0100
1000
0001
0000
,
0000
0110
0000
1001
,
1000
0100
0010
0000
,
0000
0110
0000
1001
,
1000
0010
0100
0000
,
0002
0100
0000
0103
,
0010
1000
0001
0000
,
2000
0100
0000
3100
,
0010
0001
1000
0000
,
0002
0000
0000
0000
,
0100
0000
0000
0003
,
2000
0000
0100
0000
,
0001
0000
0000
0000
,
3002
0000
0000
0000
,
2000
0000
0000
3003
,
2002
0000
0000
0003
,
0010
0010
3010
0000
,
2000
3010
0002
0013
,
1000
0001
1000
0000
,
0002
0103
2000
3100
,
1000
0001
1000
0000
,
0001
0001
0100
0100
,
0001
1000
0010
0000
,
1000
1000
0100
0100
,
1000
0001
1001
0000
;

//--------------- dance-single - ----------------
#NOTES:
     dance-single:
     :
     Medium:
     10:
     0,0,0,0,0:
0000
0000
0000
0000
,
0000
0000
0000
0000
,
0000
0000
0000
0000
,
0000
0000
0000
0000
,
0001
0100
0010
0000
1000
0010
0100
0000
,
0001
0010
0100
1000
0001
0000
0000
0000
,
1000
0100
0010
0000
0010
0100
1000
0000
,
1000
0010
0100
0001
1000
0000
0000
0000
,
2000
0000
0000
0010
0000
0000
3010
0000
0002
0000
0000
0100
0000
0000
0103
0000
,
0001
1000
0010
0100
0001
0000
0000
0000
,
1000
0000
0001
0000
1000
0000
0001
0000
0010
0000
0000
0010
0000
0000
0010
0000
,
0001
1000
0001
1000
0010
0000
0100
0000
,
2000
3100
0002
0103
,
1000
0100
1000
0100
1000
0000
0001
0000
,
0002
0013
2000
3010
,
0001
0100
0001
0100
0001
0000
1000
0000
,
1000
0100
0010
0000
0001
0100
0010
0000
,
1000
0010
0100
0010
0100
0000
0110
0000
,
0001
0010
0100
0000
1000
0010
0100
0000
,
0001
0010
0100
0010
0100
1001
0000
0000
,
0001
0100
0101
0000
1000
0010
1010
0000
,
1000
0100
0010
0001
0022
0000
0033
0000
,
1000
0010
1010
0000
0001
0010
0011
0000
,
1000
0010
0100
0010
1000
1001
0000
0000
,
1000
0001
0010
0000
0100
1000
0010
0000
,
0100
0001
1000
0001
1000
0000
0000
0000
,
0100
0010
0100
1000
0010
0100
0010
1000
,
0001
1000
0001
1000
0001
0000
0000
0000
,
2001
0000
0100
0000
,
3010
0000
0000
0000
,
1002
0000
0100
0000
,
0010
0010
0013
0000
,
0000
0000
0000
0000
,
1000
0100
1000
0000
0001
0100
0001
0000
,
0001
0100
0010
1000
0100
0020
0000
0030
,
0001
0010
0001
0000
1000
0010
1000
0000
,
1000
0010
0100
0001
1000
0002
0000
0003
,
1000
0001
0101
0000
0001
1000
1100
0000
,
1010
0010
0100
0001
0010
0000
0100
0100
,
0010
0001
0010
0001
2000
0000
3001
0000
,
1000
0010
1000
0010
0200
0000
0301
0000
,
2000
3010
0002
0013
,
1000
0100
0010
0100
1000
0000
1100
0000
,
0002
0103
2000
3100
,
0001
0100
0010
0100
0001
0000
0101
0000
,
1000
0100
1000
0100
0001
0100
0001
0100
,
1000
0100
0010
0001
0100
0000
0110
0000
,
0001
0100
0001
0100
1000
0100
1000
0100
,
0001
1000
0010
0100
0001
0000
0000
0000
,
1000
0001
2000
3000
0100
0010
0200
0300
,
1000
0100
0010
0001
0100
0000
0000
0000
,
0010
0100
0020
0030
1000
0001
2000
3000
,
1000
0010
0100
0001
1000
0000
0000
0000
,
1000
0100
0010
0000
0001
0100
0010
0000
,
1000
0001
1000
1000
0010
0000
0000
0000
,
0100
0001
0010
0000
0100
1000
0001
0000
,
0100
0010
0100
0100
0010
1000
0000
0000
,
2001
0000
0100
0000
,
3001
0000
0000
0000
,
1002
0000
0100
0000
,
0010
0000
1003
0000
,
0020
0000
0000
0000
,
0200
0000
0000
0330
,
2002
0000
0000
0000
,
3003
0000
0000
0000
,
1000
1100
0100
0110
,
0001
0010
0001
0010
0001
0000
0000
0000
,
0001
0101
1000
1010
,
0001
0100
0001
0100
0001
0000
0000
0000
,
1000
0001
1000
0001
0020
0030
0020
0030
,
0001
1000
0001
1000
0020
0000
0230
0000
,
0301
0100
0010
0000
1000
0010
0100
0000
,
0001
0010
0100
1000
0001
0110
0000
0000
;

//--------------- dance-single - ----------------
#NOTES:
     dance-single:
     :
     Hard:
     13:
     0,0,0,0,0:
0000
0000
0000
0000
,
0000
0000
0000
0000
,
0000
0000
0000
0000
,
0000
0000
0000
0000
,
1000
0000
0001
0100
0000
0000
0001
0000
1000
0000
0100
1000
0000
0000
0001
0000
,
1000
0010
0100
0001
0010
0000
0100
0100
,
0010
0000
0001
0010
0000
0000
0001
0000
1000
0000
0010
1000
0000
0000
0010
0000
,
0100
0001
1000
0001
1000
0000
0100
0100
,
1000
0000
0000
0001
0000
0010
0100
0000
1000
0000
0000
0010
0000
0100
0001
0000
,
1000
0100
0010
0001
1000
0000
0100
0100
,
1000
0000
0100
0000
0010
0000
0001
0000
0100
0000
0000
0010
0000
0000
0100
0000
,
0001
0000
0010
0100
0000
0100
1000
0000
0001
0000
1000
0000
1000
0000
1000
0000
,
1100
1100
0101
0101
,
1000
0000
0100
0000
0010
0000
0001
0000
0100
0000
0010
0000
1000
0001
1000
0000
,
0001
1000
0100
1000
0001
0010
0100
1000
,
0010
1000
0100
0010
0002
0100
0100
0103
,
0110
0110
1010
1010
,
0001
0000
0100
0000
0010
0000
1000
0000
0001
0000
0010
0000
0100
1000
0001
0000
,
1000
0010
1000
0010
0100
0001
0100
0001
,
0010
0000
0100
0000
1000
0000
0001
0000
0100
0000
2002
0000
0000
3003
0000
0000
,
0001
0000
1000
0100
0000
0100
1000
0000
0001
0000
0100
0010
0000
0010
0100
0000
,
0001
0000
0010
0100
0000
0000
1000
0000
1000
0000
0000
0000
MMMM
0000
0000
0000
,
1000
0000
0001
0100
0000
0100
0001
0000
1000
0000
0100
0010
0000
0010
0100
0000
,
1000
0000
0010
0100
0000
0000
0001
0000
0010
0000
0000
0000
MMMM
0000
0000
0000
,
1000
0000
0100
0010
0000
0010
0001
0000
1000
0000
0010
0100
0000
0100
0001
0000
,
1000
0100
0010
0001
0000
0000
0100
0000
0010
0000
0000
0000
MMMM
0000
0000
0000
,
1000
0000
0001
0100
0000
0100
0010
0000
1000
0000
0100
0010
0000
0010
0001
0000
,
1000
0000
0001
1000
0000
0000
1000
0000
0010
0000
0100
0000
0000
0000
0000
0000
,
2001
0010
3002
0100
,
0023
0100
0000
0000
,
0000
0230
1000
0010
,
0001
0010
2000
3300
,
2002
0000
0000
3003
,
1000
0100
0001
0100
1000
0010
0001
0010
,
1000
0100
0010
0001
1000
0002
0000
1003
,
0001
0010
0100
1000
0010
0100
0001
1000
,
0100
0001
0100
0010
0001
2000
0000
3001
,
1000
0000
0100
1000
0000
0100
1000
0000
0001
0000
0010
0001
0000
0010
0001
0000
,
1000
0000
0010
0100
0000
0100
0001
0000
1000
0000
0000
0000
0001
0000
0100
0000
,
0001
0000
1000
0001
0000
1000
0001
0000
0010
0000
0100
1000
0000
1000
0100
0000
,
0010
0000
0001
1000
0000
1000
0010
0000
0100
0000
0010
0000
0010
0000
0010
0000
,
0110
1001
0110
1001
,
1000
0000
0010
0000
0100
0000
0001
0000
1000
0000
0100
0000
0010
0001
1000
0000
,
0010
1000
0001
0100
0001
1000
0100
1000
,
0100
0010
0001
1000
0010
0100
0100
0100
,
0110
1001
0110
1001
,
1000
0000
0100
0000
0010
0000
0001
0000
1000
0000
0010
0000
0100
0001
1000
0000
,
0100
0010
0100
1000
0001
0100
0010
0100
,
0001
0010
0100
1000
0010
2002
0000
3003
,
0000
0101
1100
0011
,
1000
0000
0100
0010
0000
0000
0001
0000
1000
0000
0001
0100
0001
0000
0100
0000
,
0101
0000
1010
0000
1001
0000
0001
0010
,
0100
0000
1000
0010
0000
0000
0100
0000
0001
0000
1000
0001
1000
0000
0001
0000
,
0100
0101
1000
1100
,
0001
0100
0010
1000
0000
0000
0001
0000
0010
0000
0100
1000
0001
0000
1000
0000
,
0001
0011
1000
1010
,
1000
0000
0100
0010
0000
0000
0001
0000
1000
0000
0010
0000
0000
0000
0000
0000
,
1002
0000
0203
0000
,
0320
0000
0000
0000
,
0000
2030
3200
0302
,
0203
2300
3020
0000
,
2030
0000
3002
0000
,
0023
0000
0000
0030
,
0200
0000
0000
0000
0000
0000
0000
0300
,
2002
0000
0000
3003
,
0110
MMMM
1001
MMMM
,
1010
1100
0101
MMMM
,
0110
MMMM
1001
MMMM
,
0011
0000
0101
0000
1001
0001
1000
0001
,
1000
0100
0001
0100
1000
0010
0100
0001
,
1000
0000
0100
0000
0010
0000
0001
0000
1000
0000
0001
0000
0010
0100
1000
0000
,
0001
0100
1000
0100
0001
0010
0100
1000
,
0001
0100
0010
1000
0100
0020
0000
0030
;
